
//----- song ID: antd -----//
#TITLE:4NT1 D34D;
#ARTIST:N-Driver;
#BANNER:4NT1 D34D.png;
#BACKGROUND:4NT1 D34D-bg.png;
#CDTITLE:./CDTitles/SDVX IV HEAVENLY HAVEN.png;
#MUSIC:4NT1 D34D.ogg;
#SAMPLESTART:28.626;
#SAMPLELENGTH:15;
#BPMS:0=109;
#BGSTAGE:2;
#NOTES:
     dance-single:
     :
     Beginner:
     2:
     :
0000
0000
0000
0000
,
0000
0000
0000
0000
,
0000
0000
0000
0000
,
0000
0000
0000
0000
,
0000
0000
0000
0000
,
0001
0000
0000
0000
,
0000
0000
0000
0000
,
0001
0000
0000
0000
,
0000
0000
0000
0000
,
1000
0000
0000
0000
,
1000
0000
0000
0000
,
0010
0000
0000
0000
,
0010
0000
0000
0000
,
0100
0000
0000
0000
,
0100
0000
0000
0000
,
0001
0000
0000
0000
,
0001
0000
0000
0000
,
1000
0000
0000
0000
,
0000
0000
0000
0000
,
1000
0000
0000
0000
,
0000
0000
0000
0000
,
0001
0000
0001
0000
,
0001
0000
0001
0000
,
0100
0000
0100
0000
,
0010
0000
0010
0000
,
0000
0000
0000
0000
,
1000
0000
0000
0000
,
0001
0000
0000
0000
,
1000
0000
0000
0000
,
0001
0000
0000
0000
,
0010
0000
0010
0000
,
0100
0000
0100
0000
,
1000
0000
1000
0000
,
0001
0000
0001
0000
,
1000
0000
0000
0000
,
1000
0000
0000
0000
,
0001
0000
0000
0000
,
0001
0000
0000
0000
,
0010
0000
0000
0000
,
0100
0000
0000
0000
,
0010
0000
0000
0000
,
0100
0000
0000
0000
,
0000
0000
1000
0000
,
0000
0000
1001
0000
,
0000
0000
1000
0000
,
0000
0000
1000
0000
,
0000
0000
0001
0000
,
0000
0000
0001
0000
,
0000
0000
0001
0000
,
0000
0000
0001
0000
,
0000
0000
0010
0000
,
0000
1001
0000
0000
,
0000
0000
0000
0000
;
#NOTES:
     dance-single:
     :
     Easy:
     5:
     :
0000
0000
0000
0000
,
0000
0000
0000
0000
,
0000
0000
0000
0000
,
0000
0000
0000
0000
,
0000
0000
0000
0000
,
2000
0000
3000
0000
,
0002
0000
0003
0000
,
2000
0000
3000
0000
,
0002
0000
0003
0000
,
0010
0100
0010
0000
,
0001
1000
0001
0000
,
1000
0100
0010
0001
,
0001
0010
0100
1000
,
0100
0010
0100
0000
,
1000
0001
1000
0000
,
0001
0100
0010
1000
,
1000
0010
0100
0001
,
0200
0000
0000
0300
,
0020
0000
0000
0030
,
2000
0000
0000
3000
,
0002
0000
0000
0003
,
1000
0001
1000
0001
,
0010
0100
0010
0100
,
1000
0100
1000
0100
,
0010
0001
0010
0001
,
0000
0000
0000
0000
,
1000
0100
0010
0000
,
0001
0100
0010
0000
,
1000
0000
1000
0000
,
0001
0000
0001
0000
,
0020
0000
0000
0030
,
0200
0000
0000
0300
,
2000
0000
0000
3000
,
0002
0000
0000
0003
,
1000
0100
1001
0000
,
0001
0010
1001
0000
,
1000
0010
0100
0001
,
0001
0100
0010
1000
,
0100
0010
1001
0000
,
0010
0100
1001
0000
,
0001
0010
0100
1000
,
1000
0100
0010
0001
,
0000
0000
0001
0010
,
0100
0000
1000
0010
,
0100
0000
0010
0100
,
0001
1000
1000
0001
,
0100
0010
0100
0010
,
1000
0000
0010
0100
,
0001
0000
0100
0010
,
1000
0001
0001
1000
,
0010
0100
0010
0010
,
0100
0110
0000
0000
,
0000
0000
0000
0000
;
#NOTES:
     dance-single:
     :
     Medium:
     11:
     :
0000
0000
0000
0000
,
0000
0000
0000
0000
,
0000
0000
0000
0000
,
0000
0000
0000
0000
,
0000
0000
0000
0000
,
1000
0100
1100
0000
0001
0010
0011
0000
,
0001
0100
0101
0000
1000
0010
1010
0000
,
0010
0100
0110
0000
0001
1000
1001
0000
,
0010
1001
0100
1001
0010
0010
1001
0000
,
2000
0000
3100
0010
0110
0000
0010
0000
,
0001
1000
0001
1000
1001
0000
1000
0000
,
0002
0000
0013
0100
0110
0000
0100
0000
,
1000
0100
1000
0001
1000
0010
1010
0000
,
0020
0000
0130
0001
1001
0000
0001
0000
,
0100
0001
1000
0001
1001
0000
1000
0000
,
0200
0000
0310
0001
1001
0000
1000
0000
,
0001
0010
0001
1000
0001
0100
0101
0000
,
2000
3010
0200
0301
,
0020
0130
2000
3001
,
0002
0103
0020
1030
,
0200
0310
0002
1003
,
2000
0100
0001
0010
,
3002
0010
1000
0100
,
0023
0001
0100
1000
,
0230
0001
0010
1000
,
0310
0000
0001
1000
,
1100
0000
0011
0000
0010
0100
0110
0000
,
0010
0100
0011
1100
,
1010
0101
0001
1000
,
1000
0100
0010
0001
0010
0001
1000
0000
,
1000
0100
2000
0000
3001
0100
0002
0000
,
0013
0001
0020
0000
0130
1000
0200
0000
,
1300
0100
0002
0000
1003
0010
0002
0000
,
1003
0100
0010
0100
2000
0020
3030
0000
,
0100
0000
0001
0010
0110
0000
0010
0000
,
0010
0011
0001
0101
1000
1000
1100
0000
,
1000
0000
0001
0100
0110
0000
1001
0000
,
0100
1001
0100
1001
0010
0010
1001
0000
,
0000
1000
0000
1100
0000
0100
0000
0011
,
0000
1100
0000
0110
0000
0010
0001
0011
,
0000
1000
0100
1100
0000
0110
0000
1001
,
0010
1001
0010
1001
0100
0100
1001
0000
,
0000
0000
0000
0000
0001
0000
1000
0100
,
0001
0000
0001
0100
1000
0100
0010
0100
,
1000
1000
1010
0000
0101
0000
0001
1000
,
1020
0000
0130
0000
0001
0101
0100
0110
,
1000
1000
1001
0000
1000
0100
1000
1100
,
0000
0001
0010
0011
0010
0100
0010
0100
,
1000
0001
1000
0001
0010
0001
0010
0011
,
0000
1000
0100
1100
0100
0110
0001
0110
,
1000
1000
0110
0000
1000
0000
1000
0000
,
0100
0010
1001
0000
0000
0000
0000
0000
,
0000
0000
0000
0000
;
#NOTES:
     dance-single:
     :
     Hard:
     15:
     :
0000
0000
0000
0000
,
0000
0000
0000
0000
,
0000
0000
0000
0000
,
0000
0000
0000
0000
,
0000
0000
0000
0000
,
0001
0000
0000
1000
0000
0000
0001
0000
1000
0100
0000
1000
0100
0000
0000
0020
0000
0000
0031
0000
0100
0010
0000
0000
,
1000
0000
0000
0001
0000
0000
1000
0000
0001
0100
0000
0001
0100
0000
0000
0020
0000
0000
1030
0000
0100
0010
0000
0010
,
0100
0000
0000
0010
0000
0000
0100
0000
0010
0001
0000
0010
0100
0000
0000
2000
0000
0000
3010
0000
0100
0001
0000
0100
,
0001
0000
0000
0101
0000
0000
0100
0000
0000
0110
0000
0000
0010
1000
0010
1000
0000
1000
0010
0000
0000
0100
0000
0010
,
0001
0000
0000
0000
0000
0000
0010
0000
0100
0010
0000
0000
0100
0000
0000
0000
0000
0000
0000
0000
0001
1000
0000
0001
,
0100
0110
0010
1010
1000
0000
0000
0000
,
1001
0000
0000
0000
0000
0000
1000
0000
0100
0010
0000
0000
0001
0000
0000
0000
0000
0000
1000
0000
0000
0000
0000
0000
,
0010
0000
0001
0010
0000
0100
0010
0000
1000
0010
0000
1000
0100
0000
0010
0100
0000
0001
0100
0000
0000
0000
0000
0000
,
0110
0000
0000
0000
0000
0000
1000
0000
0010
0100
0000
0000
0010
0000
0000
0000
0000
0100
0000
0000
0100
0000
0000
0100
,
0001
0000
0000
0001
0000
0000
0001
0000
0010
0000
0000
0010
0001
0000
0000
1000
0000
0100
1000
0000
0100
1000
0000
0000
,
0001
0000
0000
0000
0000
0000
0001
0000
0000
1000
0000
0000
0001
0000
0000
0000
0000
0100
0001
0000
0000
0000
0000
1000
,
0010
0000
0100
0010
0000
0001
0010
0000
0100
0001
0000
1000
0001
0000
0010
0001
0000
1000
0200
0000
0000
0300
0000
0000
,
0010
0000
0100
0010
0000
0100
0020
0000
0000
0031
0000
1000
0100
0000
1000
0100
0000
2000
0000
0000
0000
3001
0000
0010
,
0100
0000
0010
0100
0000
0010
0200
0000
0000
1300
0000
0001
0010
0000
0001
0010
0000
0002
0000
0000
0000
0103
0000
0001
,
1000
0000
0010
0100
0000
0001
2000
0000
0000
3001
0000
0100
0001
0000
1000
0001
0000
0200
0000
0000
0000
0310
0000
0001
,
1000
0000
0100
0010
0000
1000
0002
0000
0000
0013
0000
0100
0001
0000
0100
0010
0000
0200
0000
0000
0000
0310
0000
0000
,
0001
0000
0000
0011
0000
0000
0001
0000
0000
0101
0000
0000
0001
0000
1000
0001
0000
1000
0000
0000
1000
0001
0000
0000
,
1000
0000
0000
1010
0000
0000
1000
0000
0000
1100
0000
0000
0100
0000
0010
0100
0000
0010
0000
0000
0010
0100
0000
0000
,
0010
0000
0001
0000
0000
0001
1000
0000
0000
1000
0000
0100
1000
0000
1000
0100
0000
0010
0000
0000
0010
0100
0000
0000
,
0100
0000
0000
0100
0000
0010
0000
0000
0000
0001
0000
1000
0010
0000
0000
0010
0000
1000
0001
0000
0001
0010
0001
0010
,
0001
0000
0000
0000
0000
0000
0000
0000
0000
0000
0000
0000
1000
0000
0100
0010
0000
0100
0010
0001
0010
0001
0000
0000
,
0200
0000
0000
0320
0000
0000
0130
0000
0001
0000
0000
0001
0020
0000
0000
0230
0000
0000
0320
0000
0000
0031
0010
0001
,
0010
0000
0100
0000
0000
0100
0020
0000
0000
0001
0000
0000
0100
0000
0000
1000
0000
0000
0230
0000
0000
0001
0000
0000
,
0310
1001
0110
1001
1100
1001
0011
1001
,
1010
0000
0000
1001
0000
0001
0100
0000
0000
1001
0000
0000
0110
0000
0001
1000
0000
0000
1001
0000
0000
0000
0000
0000
,
1000
0000
0100
1000
0000
0100
1000
0100
1000
0100
0000
1000
0100
0000
0100
0010
0000
0100
0010
0100
0010
0100
0000
0010
,
0001
0000
0100
0001
0000
0100
0001
0100
0001
0100
0000
0001
1000
0000
0010
1000
0000
0010
1000
0010
1000
0010
0000
1000
,
0100
0000
0100
0010
0000
0010
0001
0010
0001
0010
0000
0001
0100
0000
0001
1000
0000
0001
1000
0001
1000
0001
0000
1000
,
0100
0000
0010
0001
0000
0001
0100
0000
0010
1000
0000
1000
0100
0000
0010
0001
0010
0001
0010
0000
0000
0010
0000
0001
,
0020
0000
0000
0100
0000
0000
0031
0000
0001
1000
0000
0000
0200
0000
0000
0010
0000
0000
1300
0000
0100
0010
0000
0100
,
0010
0000
0000
0011
0000
0000
0001
0000
0000
1001
0000
0000
1000
0000
0000
0001
0000
1000
0100
0000
0100
0000
0000
0100
,
0020
0000
0000
1000
0000
0000
0130
0000
1000
0001
0000
0000
0002
0000
0000
0100
0000
0000
2003
0000
0000
0100
0000
0000
,
3010
0000
1000
0010
0000
0100
0010
0000
0001
0010
0000
1000
0100
0000
0010
0100
0000
0001
0200
0000
0000
0000
0000
0000
,
0310
0000
0000
0011
0000
0000
0001
0000
1000
0100
0000
0000
2000
0000
0000
0001
0000
0200
3300
0000
0010
0001
0000
1000
,
0002
0000
0000
0203
0000
0000
2300
0000
0000
3200
0000
0000
0302
0000
0000
0013
0000
0100
0000
0000
0100
0000
0000
0100
,
0020
0000
0000
1000
0000
0000
0130
0000
1000
0001
0000
0000
2000
0000
0000
0100
0000
0000
3002
0000
0000
0100
0000
0000
,
0103
0000
1000
0100
0000
0010
0100
0000
0001
0100
0000
0010
1000
0000
0001
1000
0000
0100
2000
0000
0000
0000
0000
0000
,
0002
0000
0000
0000
0000
0000
0000
0000
0000
0000
3003
0000
2000
0000
0000
0000
0000
0000
3010
0000
0100
0001
0000
0000
,
0020
0000
0000
0000
0000
0000
0030
0000
0100
1000
0000
0010
0200
0000
0000
0001
0000
0000
0010
0000
0000
1000
0000
0000
,
0310
0000
0000
0010
0000
0010
0000
0000
1000
0000
0000
1000
0200
0000
0000
1000
0000
0000
0310
0000
0001
1000
0000
0000
,
0020
0000
0000
1000
0000
0000
0230
0000
0000
0001
0000
0000
0310
0000
1000
0100
0000
1000
0001
0000
1000
0010
0000
0100
,
0010
0000
0001
0010
0000
0100
0020
0000
0000
0000
0000
0000
0230
0000
0000
0010
0000
0000
0301
0000
0100
1000
0000
0000
,
0100
0000
0000
0001
0000
0010
0000
0000
0010
0000
0000
1000
0010
0000
0000
0011
0000
0000
0001
0000
0100
0000
0000
0100
,
0001
0000
0100
0000
0000
0100
1000
0000
1000
0100
0000
0000
0020
0000
0000
1000
0000
0000
0130
0000
0001
1000
0000
0000
,
2000
0000
0000
0010
0000
0000
3002
0000
0000
0010
0000
0000
0103
0000
0010
0100
0000
0001
1000
0000
0100
0010
0000
1000
,
0001
0000
0100
0010
0000
0002
2000
0000
0000
0000
3003
0000
1001
0000
0000
0000
0000
0000
1001
0000
0000
0000
0000
0000
,
1000
0000
0100
0010
0100
0000
0110
0000
0000
0000
0000
0000
0000
0000
0000
0000
0000
0000
0000
0000
0000
0000
0000
0000
,
0000
0000
0000
0000
;
#NOTES:
     dance-double:
     :
     Easy:
     5:
     :
00000000
00000000
00000000
00000000
,
00000000
00000000
00000000
00000000
,
00000000
00000000
00000000
00000000
,
00000000
00000000
00000000
00000000
,
00000000
00000000
00000000
00000000
,
00020000
00000000
00030000
00000000
,
00002000
00000000
00003000
00000000
,
00020000
00000000
00030000
00000000
,
00002000
00000000
00003000
00000000
,
00100000
01000000
00100000
00000000
,
00010000
10000000
00010000
00000000
,
10000000
01000000
00100000
00010000
,
00001000
00000100
00000010
00000001
,
00000100
00000010
00000100
00000000
,
00000001
00001000
00000001
00000000
,
00000001
00000010
00000100
00010000
,
00001000
00100000
01000000
10000000
,
00200000
00000000
00000000
00300000
,
02000000
00000000
00000000
03000000
,
00002000
00000000
00000000
00003000
,
00020000
00000000
00000000
00030000
,
00001000
00010000
00100000
01000000
,
00001000
00010000
01000000
00100000
,
00001000
00010000
00000100
00000010
,
00001000
00010000
00000010
00000100
,
00000000
00000000
00000000
00000000
,
00000001
00000010
00000100
00000000
,
00000010
00000100
00001000
00000000
,
00000010
00000000
00000010
00000000
,
00000100
00000000
00000100
00000000
,
00002000
00000000
00000000
00003000
,
00020000
00000000
00000000
00030000
,
00200000
00000000
00000000
00300000
,
02000000
00000000
00000000
03000000
,
00010000
01000000
00010000
00000000
,
10000000
00100000
10000000
00000000
,
10000000
00100000
01000000
00001000
,
00010000
00000010
00000100
00000001
,
00000010
00000100
00000110
00000000
,
00000001
00001000
00001001
00000000
,
00000001
00000100
00000010
00010000
,
00001000
01000000
00100000
10000000
,
00000000
00000000
10000000
00010000
,
00100000
00000000
00001000
00010000
,
00001000
00000000
00000010
00000100
,
00000010
00000001
00000001
00000100
,
00000010
00000100
00001000
00010000
,
00001000
00000000
00100000
01000000
,
00100000
00000000
00010000
01000000
,
00001000
00100000
00100000
00001000
,
01000000
00010000
10000000
01000000
,
00100000
01100000
00000000
00000000
,
00000000
00000000
00000000
00000000
;
#NOTES:
     dance-double:
     :
     Medium:
     10:
     :
00000000
00000000
00000000
00000000
,
00000000
00000000
00000000
00000000
,
00000000
00000000
00000000
00000000
,
00000000
00000000
00000000
00000000
,
00000000
00000000
00000000
00000000
,
00001000
00010000
00011000
00000000
00010000
00000100
00000010
00000000
,
00000010
00000001
00000011
00000000
00000001
00000100
00001000
00000000
,
00010000
00001000
00011000
00000000
00001000
00100000
01000000
00000000
,
10000000
11000000
01000000
01100000
00100000
00100000
10010000
00000000
,
20000000
00000000
31000000
00010000
00001000
00000000
00010000
00000000
,
00001000
00000010
00000001
00000010
00000100
00000000
00000010
00000000
,
00000002
00000000
00000103
00001000
00010000
00000000
00001000
00000000
,
00010000
01000000
10000000
01000000
00010000
01000000
01100000
00000000
,
00200000
00000000
00301000
00010000
00001000
00000000
00010000
00000000
,
00001000
00000100
00000001
00000100
00000010
00000000
00001010
00000000
,
00000020
00000000
00010030
00001000
00010000
00000000
00001000
00000000
,
00000100
00000001
00000100
00000010
00000100
00001000
00000110
00000000
,
00000002
00000103
00000020
00010030
,
00002000
00103000
02000000
13000000
,
20000000
30100000
02000000
03001000
,
00020000
00030010
00000100
00000001
,
00000020
00000001
00000100
00001000
,
00000230
00000001
00000010
00001000
,
00020300
00001000
00000010
00001000
,
02030000
00100000
00010000
00100000
,
13000000
00000000
00010000
10000000
,
11000000
00000000
00110000
00000000
00010000
01000000
01001000
00000000
,
00001000
00010000
00010100
00001010
,
00000101
00000011
00000110
00001001
,
00000001
00000100
00000010
00001000
00000010
00001000
00000100
00000000
,
00010000
00001000
00020000
00000000
00031000
00000100
00000020
00000000
,
00000130
00000001
00000200
00000000
00000310
00001000
00000002
00000000
,
00000103
00001000
00020000
00000000
00031000
00100000
02000000
00000000
,
13000000
01000000
00100000
01000000
20000000
00200000
30300000
00000000
,
00100000
00000000
01000000
00001000
00011000
00000000
00010000
00000000
,
00001000
00000100
00000001
00000100
00000010
00001000
00000001
00000000
,
00000001
00000000
00000100
00001000
00010000
00000000
00011000
00000000
,
00001000
00100000
00010000
01000000
00010000
00100000
00001000
00000000
,
00000000
00010000
00000000
00001000
00000000
00000100
00000000
00000010
,
00000000
00010000
00000000
00000100
00000000
00001000
00000000
00000001
,
00000000
00000010
00000001
00000100
00000000
00000010
00000000
00001000
,
00000100
00010000
00001000
00010000
00000010
00000100
00000110
00000000
,
00000000
00000000
00000000
00000000
00000001
00000000
00000001
00000100
,
00001000
00000000
00000100
00001000
00010000
00011000
00001000
00011000
,
00010000
01000000
01100000
00000000
10010000
00000000
10000000
01000000
,
01200000
00000000
00310000
00000000
00100000
01100000
01000000
01100000
,
00100000
00100000
01100000
00000000
00000000
10000000
01000000
10000000
,
00000000
00100000
00010000
00100000
00000000
00010000
00001000
00010000
,
00000000
00000100
00000010
00000100
00000000
00000010
00000001
00000010
,
00000000
00000100
00010000
00001000
00010000
00010100
00000100
00001100
,
00000010
00000010
00001001
00000000
00000001
00000000
00000001
00000000
,
00000010
00000100
00001001
00000000
00000000
00000000
00000000
00000000
,
00000000
00000000
00000000
00000000
;
#NOTES:
     dance-double:
     :
     Hard:
     15:
     :
00000000
00000000
00000000
00000000
,
00000000
00000000
00000000
00000000
,
00000000
00000000
00000000
00000000
,
00000000
00000000
00000000
00000000
,
00000000
00000000
00000000
00000000
,
00001000
00000000
00000000
00010000
00000000
00000000
00100000
00000000
01000000
00100000
00000000
01000000
00100000
00000000
00000000
20000000
00000000
00000000
31000000
00000000
00100000
00010000
00000000
00000000
,
10000000
00000000
00000000
01000000
00000000
00000000
00010000
00000000
00001000
00010000
00000000
00001000
00010000
00000000
00000000
00000200
00000000
00000000
00000310
00000000
00000001
00000010
00000000
00000000
,
00000001
00000000
00000000
00000010
00000000
00000000
00001000
00000000
00010000
00001000
00000000
00010000
00001000
00000000
00000000
00200000
00000000
00000000
00310000
00000000
01000000
00100000
00000000
01000000
,
00100000
00000000
00000000
01100000
00000000
00000000
01000000
00000000
00000000
01010000
00000000
00000000
00010000
00000000
00010000
01000000
00000000
00000000
10100000
00000000
00000000
10000000
00000000
01000000
,
00100000
00000000
00000000
00000000
00000000
00000000
01000000
00000000
00100000
00010000
00000000
00000000
01000000
00000000
00000000
00000000
00000000
00000000
00000000
00000000
00010000
00100000
00000000
00001000
,
00010000
00001000
00000100
00000010
00000110
00000000
00000000
00000000
,
00001001
00000000
00000000
00000000
00000000
00000000
00000001
00000000
00000010
00001000
00000000
00000000
00000010
00000000
00000000
00000000
00000000
00000000
00000001
00000000
00000000
00000000
00000000
00000000
,
00000100
00000000
00000001
00000100
00000000
00001000
00000100
00000000
00001000
00010000
00000000
00001000
00000100
00000000
00000010
00010000
00000000
00001000
00010000
00000000
00000000
00000000
00000000
00000000
,
00011000
00000000
00000000
00000000
00000000
00000000
00010000
00000000
00100000
10000000
00000000
00000000
00200000
00000000
00000000
00000000
00000000
00000000
00300000
00000000
01000000
00010000
00000000
10000000
,
00100000
00000000
00000000
01100000
00000000
00000000
10000000
00000000
00000000
10010000
00000000
00000000
10000000
00000000
00000000
01000000
00000000
00100000
00000000
00000000
00010000
00000000
00000000
01000000
,
00200000
00000000
00000000
00000000
00000000
00000000
00310000
00000000
00001000
00010000
00000000
00000000
00000200
00000000
00000000
00000000
00000000
00000000
00000320
00000000
00000000
00000000
00000000
00000000
,
00000031
00000000
00001000
00000100
00000000
00000010
00000100
00000000
00000001
00000100
00000000
00000010
00000001
00000000
00001000
00000001
00000000
00000100
00000002
00000000
00000000
00000003
00000000
00000000
,
00000001
00000000
00000010
00000000
00000000
00001000
00010000
00000000
00000000
00100000
00000000
00010000
00001000
00000000
00010000
00000000
00000000
02000000
00000000
00000000
00000000
13000000
00000000
00100000
,
10000000
00000000
00100000
00000000
00000000
00010000
00001000
00000000
00000000
00000100
00000000
00001000
00010000
00000000
00001000
00000000
00000000
00000020
00000000
00000000
00000000
00000031
00000000
00000100
,
00000010
00000000
00001000
00000000
00000000
00000100
00010000
00000000
00000000
00001000
00000000
00100000
00010000
00000000
01000000
00000000
00000000
00200000
00000000
00000000
00000000
10300000
00000000
01000000
,
00100000
00000000
00010000
00000000
00000000
01000000
00001000
00000000
00000000
00010000
00000000
00000010
00001000
00000000
00000100
00000000
00000000
00000020
00000000
00000000
00000000
00000031
00000000
00000000
,
00000200
00000000
00000000
00000001
00000000
00000000
00000010
00000000
00000000
00001000
00000000
00000000
00000310
00000000
00000000
00001000
00000000
00000010
00000000
00000000
00010000
00001000
00000000
00000000
,
00200000
00000000
00000000
00010000
00000000
00000000
01000000
00000000
00000000
10000000
00000000
00000000
01300000
00000000
00000000
00100000
00000000
00001000
00000000
00000000
00010000
00001000
00000000
00000000
,
00000020
00000000
00000000
00001000
00000000
00000000
00000100
00000000
00000000
00000001
00000000
00000000
00000130
00000000
00000000
00000100
00000000
00010000
00000000
00000000
00001000
00010000
00000000
00000000
,
00200000
00000000
00000000
00010000
00000000
00000000
01000000
00000000
00000000
10000000
00000000
00000000
01300000
00000000
00000000
00100000
00000000
01000000
00010000
00000000
00100000
01000000
00000000
00000000
,
01100000
00000000
00000000
00000000
00000000
00000000
00000000
00000000
00000000
00000000
00000000
00000000
10000000
00000000
01000000
00100000
00000000
01000000
00100000
00010000
00100000
00010000
00000000
00000000
,
00002000
00000000
00000000
00003200
00000000
00000000
00000310
00000000
00000001
00000000
00000000
00000001
00000020
00000000
00000000
00000230
00000000
00000000
00000320
00000000
00000000
00000031
00000010
00000001
,
00000010
00000000
00000100
00000000
00000000
00000100
00000020
00000000
00000000
00000230
00000000
00000000
00002300
00000000
00000000
00003200
00000000
00000000
00010300
00000000
00001000
00010000
00000000
00000000
,
00011000
01001000
01010000
00110000
01100000
10010000
01100000
10010000
,
01010000
00000000
00000000
00101000
00000000
00001000
00100000
00000000
00000000
00011000
00000000
00000000
00010100
00000000
00010000
00000100
00000000
00000000
00000110
00000000
00000000
00000000
00000000
00000000
,
00000001
00000000
00000010
00000001
00000000
00000010
00000001
00000010
00000001
00000010
00000000
00000100
00000010
00000000
00000100
00000010
00000000
00000100
00000010
00000100
00000010
00000100
00000000
00001000
,
00000100
00000000
00001000
00000100
00000000
00001000
00000100
00001000
00000100
00001000
00000000
00000100
00010000
00000000
00001000
00010000
00000000
00001000
00010000
00001000
00010000
00001000
00000000
00010000
,
01000000
00000000
00100000
01000000
00000000
00100000
01000000
00100000
01000000
00100000
00000000
00010000
01000000
00000000
00010000
01000000
00000000
00010000
01000000
00010000
01000000
00010000
00000000
00100000
,
00010000
00000000
10000000
01000000
00000000
00100000
00010000
00000000
00010000
01000000
00000000
00001000
00010000
00000000
00001000
00010000
00001000
00010000
00001000
00000000
00000000
00010000
00000000
00001000
,
00000020
00000000
00000000
00000100
00000000
00000000
00000031
00000000
00000100
00001000
00000000
00000000
00020000
00000000
00000000
00000000
00000000
00031000
00000000
00000000
00010000
00000000
00000000
00001000
,
00010000
00000000
00000000
00011000
00000000
00000000
00010000
00000000
00001000
00000000
00000000
00010000
00001000
00000000
00000000
01000000
00000000
00100000
00000000
00000000
01000000
00000000
00000000
00100000
,
02000000
00000000
00000000
10000000
00000000
00000000
03100000
00000000
10000000
00010000
00000000
00000000
00200000
00000000
00000000
00010000
00000000
00000000
00302000
00000000
00000000
00010000
00000000
00000000
,
00003100
00000000
00001000
00000100
00000000
00000010
00000100
00000000
00000001
00000100
00000000
00000010
00001000
00000000
00000001
00001000
00000000
00000100
00002000
00000000
00000000
00000000
00000000
00000000
,
00003100
00000000
00000000
00000110
00000000
00000000
00000010
00000000
00000000
00001001
00000000
00000000
00000001
00000000
00000000
00000100
00000000
00001000
00000000
00000000
00010000
00000000
00000000
00100000
,
00020000
00000000
00000000
00032000
00000000
00000000
00203000
00000000
00000000
00320000
00000000
00000000
02030000
00000000
00000000
03100000
00000000
10000000
00000000
00000000
10000000
00000000
00000000
10000000
,
02000000
00000000
00000000
10000000
00000000
00000000
03100000
00000000
00001000
00010000
00000000
00000000
00020000
00000000
00000000
00001000
00000000
00000000
00030200
00000000
00000000
00001000
00000000
00000000
,
00000310
00000000
00001000
00000010
00000000
00000100
00000010
00000000
00000001
00000010
00000000
00000001
00000100
00000000
00000010
00000100
00000000
00001000
00000200
00000000
00000000
00000000
00000000
00000000
,
00000020
00000000
00000000
00000000
00000000
00000000
00000000
00000000
00000000
00000000
00000330
00000000
00002000
00000000
00000000
00000000
00000000
00000000
00003001
00000000
00000010
00000100
00000000
00000000
,
00000200
00000000
00000000
00000000
00000000
00000000
00000300
00000000
00010000
00000010
00000000
00010000
00002000
00000000
00000000
00203000
00000000
00000000
00320000
00000000
00000000
02030000
00000000
00000000
,
03100000
00000000
00000000
00100000
00000000
00100000
00000000
00000000
01000000
00000000
00000000
00100000
20000000
00000000
00000000
01000000
00000000
00000000
30010000
00000000
00100000
01000000
00000000
00000000
,
20000000
00000000
00000000
00100000
00000000
00000000
30020000
00000000
00000000
01000000
00000000
00000000
00130000
00000000
00001000
00010000
00000000
00100000
00010000
00000000
00001000
00010000
00000000
00001000
,
00000010
00000000
00000100
00000010
00000000
00000001
00000020
00000000
00000000
00000000
00000000
00000000
00000230
00000000
00000000
00000010
00000000
00000000
00000301
00000000
00000100
00001000
00000000
00000000
,
00000010
00000000
00000000
00001000
00000000
00000100
00000000
00000000
00010000
00000000
00000000
00001000
00010000
00000000
00000000
01000000
00000000
00000000
00100000
00000000
01000000
00000000
00000000
01000000
,
10000000
00000000
01000000
00000000
00000000
01000000
00100000
00000000
00100000
01000000
00000000
00000000
20000000
00000000
00000000
00100000
00000000
00000000
30010000
00000000
10000000
00010000
00000000
00000000
,
00200000
00000000
00000000
00010000
00000000
00000000
00302000
00000000
00000000
01000000
00000000
00000000
00103000
00000000
00010000
00100000
00000000
01000000
00100000
00000000
10000000
00100000
00000000
00010000
,
00001000
00000000
00000100
00001000
00000000
00000200
00000020
00000000
00000000
00000000
00000330
00000000
00000110
00000000
00000000
00000000
00000000
00000000
00001001
00000000
00000000
00000000
00000000
00000000
,
00000001
00000000
00000100
00000010
00000100
00000000
00000110
00000000
00000000
00000000
00000000
00000000
00000000
00000000
00000000
00000000
00000000
00000000
00000000
00000000
00000000
00000000
00000000
00000000
,
00000000
00000000
00000000
00000000
;
