
//----- song ID: itit -----//
#TITLE:1116;
#ARTIST:BEMANI Sound Team "Dustup";
#BANNER:1116.png;
#BACKGROUND:1116-bg.png;
#CDTITLE:./CDTitles/jubeat festo.png;
#MUSIC:1116.ogg;
#SAMPLESTART:27.608;
#SAMPLELENGTH:15;
#BPMS:0=190;
#NOTES:
     dance-single:
     :
     Beginner:
     4:
     :
0000
0000
0000
0000
,
0000
0000
0000
0000
,
0000
0000
0000
0000
,
0000
0000
0000
0000
,
0000
0000
0000
0000
,
0000
0000
0000
0000
,
0001
0000
0000
0000
,
0001
0000
0000
0000
,
0001
0000
0000
0000
,
1000
0000
0000
0000
,
0001
0000
0001
0000
,
0010
0000
0000
0000
,
0100
0000
0000
0000
,
0010
0000
0000
0000
,
1000
0000
1000
0000
,
0010
0000
0000
0000
,
0100
0000
0000
0000
,
0010
0000
0000
0000
,
1001
0000
0000
0000
,
0000
0000
0000
0000
,
0000
0000
0000
0000
,
0000
0000
0000
0000
,
0001
0001
0010
0000
,
0001
0000
0000
0000
,
0001
0001
0010
0000
,
0010
0000
0000
0000
,
1000
1000
0010
0000
,
1000
0000
0000
0000
,
1000
1000
0010
0000
,
0010
0000
0000
0000
,
2000
0000
0000
0000
,
3000
0000
0000
0000
,
0010
0000
0010
0000
,
0010
0000
0000
0000
,
0002
0000
0000
0000
,
0003
0000
0000
0000
,
0010
0000
0010
0000
,
0010
0000
0000
0000
,
1001
0000
0000
0000
,
0000
0000
0000
0000
,
0001
0001
0010
0000
,
0010
0010
1000
0000
,
1000
0000
0000
0000
,
0000
0000
0000
0000
,
1000
1000
0010
0000
,
0010
0010
0001
0000
,
0002
0000
0000
0000
,
0003
0000
0000
0000
,
0020
0000
0000
0000
,
0030
0000
0000
0000
,
1000
1000
0100
0000
,
0100
0100
1000
0000
,
2000
0000
0000
0000
,
3000
0000
0000
0000
,
1001
0000
0000
0000
,
1001
0000
0000
0000
,
0010
0000
0001
0000
,
0010
0010
1000
0000
,
1001
0000
0000
0000
,
1001
0000
0000
0000
,
0100
0000
0001
0000
,
0100
0100
1000
0000
,
0000
0000
0000
0000
,
1001
0000
0000
0000
,
0001
0000
0010
0000
,
1000
0000
0010
0000
,
2000
0000
0000
0000
,
3000
0000
0000
0000
,
1000
0000
0010
0000
,
0001
0000
0001
0000
,
1001
0000
0000
0000
,
0001
0001
0001
0000
,
0010
0000
0000
0000
,
1000
1000
1000
0000
,
0010
0000
0000
0000
,
0001
0000
0001
0000
,
0100
0000
0000
0000
,
1000
1000
1000
0000
,
0100
0000
0100
0000
,
1001
0000
0000
0000
,
0001
0000
0010
0000
,
1000
1000
1000
0000
,
0100
0000
0100
0000
,
1001
0000
0000
0000
,
1000
0000
0010
0000
,
0001
0000
0000
0000
,
1001
0000
0000
0000
,
0000
0000
0000
0000
;
#NOTES:
     dance-single:
     :
     Easy:
     8:
     :
0000
0000
0000
0000
,
0000
0000
0000
0000
,
0000
0000
0000
0000
,
0000
0000
0000
0000
,
0000
0000
0000
0000
,
0000
0000
0000
0000
,
0001
0000
0000
0000
,
0001
0000
0000
0000
,
0001
0000
0000
0000
,
0110
0000
0000
0000
,
0001
0010
0001
0001
,
1000
0010
1000
1000
,
0001
0100
0001
0001
,
1000
0100
1000
1000
,
0001
0100
0110
0000
,
1000
0100
0110
0000
,
0001
0000
0010
0000
0100
0000
1000
0001
,
2000
0000
0000
3000
,
1001
0000
0000
0000
,
0000
0000
0000
0000
,
0000
0000
0000
0000
,
0000
0000
0000
0000
,
1000
0100
0010
0010
,
0001
0000
0100
0000
0010
1000
0010
0000
,
1000
0010
0100
0100
,
0001
1000
0001
0000
1000
0000
0000
0000
,
0001
0100
0010
0010
,
1000
0000
0100
0000
0010
0001
0010
0000
,
0001
0010
0100
0100
,
1000
0001
1000
0000
0001
0000
0000
0000
,
1000
0100
0010
0001
,
1000
0100
0001
0000
0100
0000
1000
0000
,
0010
0100
0010
0100
,
0001
1000
0001
0000
1000
0000
0000
0000
,
0001
0100
0010
1000
,
0001
0100
1000
0000
0100
0000
0001
0000
,
0010
0100
0010
0100
,
1000
0001
1000
0000
0001
0000
0000
0000
,
2000
0000
0000
3000
,
0020
0000
0000
0030
,
0200
0000
0000
0300
,
0002
0000
0000
0003
,
0001
0010
0100
1000
,
0001
0000
0010
0000
1000
0010
0001
0000
,
1000
0010
0100
0001
,
1000
0010
0001
0000
0010
0000
1000
0000
,
0001
0001
0001
0001
,
1000
1000
1000
1000
,
0010
0010
0010
0010
,
0100
0100
0100
0100
,
0110
0000
1001
0000
,
0110
0000
1001
0000
,
0110
1001
0110
1001
,
0110
0110
2002
3003
,
1000
0010
1010
0000
,
1000
0001
1000
0000
,
0001
0010
0011
0000
,
0001
1000
0100
1000
,
0100
0100
1100
0000
,
1000
0100
1000
0001
,
0100
0001
0101
0000
,
0200
0000
0310
0010
,
0000
0010
0100
0010
,
0110
0000
1001
0000
,
2000
0000
0000
3000
,
0002
0000
0000
0003
,
0000
0001
0100
0101
,
0101
0001
0010
0100
,
1000
0100
1000
0000
0100
0000
0010
0000
,
0002
0000
0000
0003
,
1001
0000
0110
0000
,
0001
1000
1001
0000
,
0110
0000
1001
0000
,
0100
0010
0110
0000
,
2000
0000
0000
3000
,
0002
0000
0000
0003
,
1000
0100
0010
0001
,
1000
0100
0010
0000
0001
0000
0000
0000
,
0011
0000
0011
0000
,
0101
0000
0101
0000
,
1010
0000
1010
0000
,
1100
0000
1100
0000
,
1000
0100
0010
0000
0001
0000
0000
0000
,
0001
0100
0010
0000
1000
0000
0000
0000
,
1000
0001
1000
0000
0010
0000
0100
0010
,
0200
0000
0000
0300
,
1001
0000
0000
0000
,
0000
0000
0000
0000
;
#NOTES:
     dance-single:
     :
     Medium:
     13:
     :
0000
0000
0000
0000
,
0000
0000
0000
0000
,
0000
0000
0000
0000
,
0000
0000
0000
0000
,
0000
0000
0000
0000
,
0000
0000
0000
0000
,
0001
0000
0000
0000
,
0001
0000
0000
0000
,
0001
0000
0000
0000
,
0110
0000
0000
0000
,
0001
0010
0001
0000
0100
0000
0100
0000
,
1000
0010
1000
0000
0100
0000
0100
0000
,
0001
0100
0001
0000
0010
0000
0010
0000
,
1000
0100
1000
0000
0010
0000
0010
0000
,
0001
0010
0100
0000
0010
0100
1000
0000
,
1000
0010
0100
0000
0010
0100
0001
0000
,
0001
0100
0010
1000
0001
0100
0010
1000
,
0002
0000
0000
0003
,
1001
0000
0000
0000
,
0000
0000
0000
0000
,
0000
0000
0000
0000
,
0000
0000
0000
0000
,
1000
0100
0010
0100
1000
0100
0010
0000
,
0001
0100
0010
0100
0001
0100
0010
0000
,
1000
0010
0100
0010
1000
0010
0100
0000
,
0001
0010
0100
0010
0001
0010
0100
0000
,
1000
0100
0001
0100
1000
0100
0010
0000
,
0001
0100
1000
0100
0001
0100
0010
0000
,
1000
0010
0001
0010
1000
0010
0100
0000
,
0001
0010
1000
0010
0001
0010
0100
0000
,
1000
0100
0010
0000
0001
0100
0010
0000
,
1000
0100
0010
0001
0100
0010
1000
0000
,
0001
0010
0100
0000
1000
0010
0100
0000
,
0001
0010
0100
1000
0010
0100
0001
0000
,
1000
0100
0001
0000
0100
0010
0001
0000
,
1000
0100
1000
0100
0001
0100
1000
0000
,
0001
0100
1000
0000
0100
0010
1000
0000
,
0001
0100
0001
0100
1000
0100
0001
0000
,
2000
3020
0230
0302
,
1003
0010
1000
0000
1000
0100
1000
0000
,
0002
0023
0230
2300
,
3001
0010
0001
0100
0001
0000
1000
0000
,
0001
0100
0001
0010
0100
1000
0001
0000
,
1000
0100
1000
0010
0100
0001
1000
0000
,
0001
0100
0010
1000
0100
0010
0001
1000
,
0100
0001
0100
0000
1000
0001
1000
0000
,
0001
0001
0011
0011
,
0001
0001
0101
0101
,
1000
1000
1010
1010
,
1000
1000
1100
1100
,
0001
0100
0001
0100
0001
0100
0010
0000
,
1000
0100
1000
0100
1000
0100
0010
0000
,
0001
0010
1000
0000
1000
0010
0001
0000
,
1000
1000
0002
0003
,
0011
1100
0011
0001
,
1001
1000
1010
0101
,
1001
0110
1001
0110
,
0001
0100
0010
0000
1000
0100
0010
0000
,
0001
1000
1001
0110
,
1000
1010
0001
0101
,
0100
0010
0110
1001
,
2000
0000
3002
0000
1003
1000
1000
0000
,
0000
0110
1001
0011
,
0101
1010
1100
0002
,
1003
0000
0000
0001
0000
0001
0000
1000
,
0000
1000
0000
0001
0000
0001
0200
0000
,
0300
0110
1001
0011
,
1010
0101
1100
0000
,
1000
0100
1000
0000
0001
0100
0001
0000
,
0100
0100
0100
0010
0010
0010
,
0110
0000
0000
0000
0001
0000
0000
1000
0000
1000
0000
0000
0010
0000
0000
0000
,
0100
0000
0001
0000
0100
0000
0001
0000
0000
1000
0000
0000
1000
0000
0000
0000
,
1001
0000
0000
0000
1000
0000
0000
0001
0000
0001
0000
0000
0010
0000
0000
0000
,
0100
0000
1000
0000
0100
0000
1000
0000
0000
0001
0000
0000
0001
0000
0000
0000
,
1001
1000
0100
0010
0001
1000
,
0100
0000
0000
0000
0010
0000
0000
0000
0001
0000
0000
0000
1000
0000
0000
0100
0000
0000
0010
0000
0000
0001
0000
0000
,
1000
0010
0100
0000
0001
0010
0100
0000
,
1000
0100
0001
0100
1000
0001
1000
0000
,
0001
0000
0000
0100
0000
0000
0010
0000
0000
0100
0000
0000
0001
0000
0000
0000
,
1000
0000
0000
0100
0000
0000
0010
0000
0000
0100
0000
0000
1000
0000
0000
0000
,
0001
0000
0000
0010
0000
0000
0100
0000
0000
0010
0000
0000
0001
0000
0000
0000
,
1000
0000
0000
0010
0000
0000
0100
0000
0000
0010
0000
0000
1000
0000
0000
0000
,
0001
0000
0000
0100
0000
0000
0010
0000
1000
0010
0000
0000
1000
0000
0001
0000
,
1000
0000
0000
0100
0000
0000
0010
0000
0001
0010
0000
0000
0001
0000
0000
0000
,
1000
0100
0010
0001
1000
0100
0010
0001
,
0200
0000
0000
0300
,
0110
0000
0000
0000
,
0000
0000
0000
0000
;
#NOTES:
     dance-single:
     :
     Hard:
     16:
     :
0000
0000
0000
0000
,
0000
0000
0000
0000
,
0000
0000
0000
0000
,
0000
0000
0000
0000
,
0000
0000
0000
0000
,
0000
0000
0000
0000
,
0001
0000
0000
0000
,
0001
0000
0000
0000
,
0001
0000
0000
0000
,
0110
0000
0000
0000
,
0001
0000
0000
0010
0001
0000
0010
0000
0100
1000
0000
0000
0100
0000
0000
0000
,
1000
0000
0000
0010
1000
0000
0010
0000
0100
0001
0000
0000
0100
0000
0000
0000
,
0001
0000
0000
0100
0001
0000
0100
0000
0010
1000
0000
0000
0010
0000
0000
0000
,
1000
0000
0000
0100
1000
0000
0100
0000
0010
0001
0000
0000
0010
0000
0000
0000
,
0001
0010
0001
0010
0100
1000
0100
1000
,
0010
1000
0010
1000
0001
0100
0001
0100
,
0001
1000
0001
0000
1000
0001
1000
0000
0010
0100
0010
0000
0100
0010
0100
0000
,
0020
0000
0000
0030
,
1001
0000
0000
0000
,
0000
0000
0000
0000
,
0000
0000
0000
0000
,
0000
0000
0000
0000
,
1000
0000
0001
0010
0001
0000
1000
0000
0010
0100
0010
0000
0100
0000
0000
0000
,
0001
0000
1000
0010
1000
0000
0001
0000
0010
0100
0010
0000
0100
0000
0000
0000
,
1000
0000
0001
0100
0001
0000
0010
0000
0100
1000
0001
0000
1000
0000
0000
0000
,
0001
0000
1000
0100
1000
0000
0010
0000
0100
0001
1000
0000
0001
0000
0000
0000
,
1000
0000
0100
0010
0001
0000
1000
0010
1000
0010
1000
0000
0010
0000
0100
0000
,
0001
0000
0010
0100
1000
0000
0001
0010
0001
0010
0001
0000
0010
0000
0100
0000
,
1000
0000
0001
0100
0010
0000
1000
0100
0010
0100
1000
0000
0010
0000
0100
0000
,
0001
0000
1000
0010
0100
0000
0001
0010
0100
0010
0001
0000
1000
0000
0010
0000
,
0100
0001
0010
0001
0100
0010
1000
0010
,
0100
0001
0010
0000
0100
1000
0010
0000
,
1000
0001
0100
0010
1000
0001
0010
0100
,
1000
0001
1000
0001
0010
0001
0010
0001
0010
0000
0001
0000
1000
0000
0000
0000
,
0100
1000
0010
1000
0100
0010
0001
0010
,
0100
1000
0010
0000
0100
0001
0010
0000
,
0001
1000
0100
0010
0001
1000
0010
0100
,
0001
1000
0001
1000
0010
1000
0010
1000
0010
0000
1000
0000
0001
0000
0000
0000
,
2000
3002
0203
0320
2030
3200
0320
0032
,
2003
3200
0302
0203
2300
3020
0230
0300
,
0002
0203
0320
2030
3200
0320
0032
2003
,
3100
0010
0100
0010
0001
0010
0001
0010
0001
0000
1000
0000
0001
0000
0000
0000
,
1000
0010
0110
0100
0001
0010
1000
0001
,
0100
1000
1100
0100
1000
0010
1010
1000
,
0001
0010
0110
0100
0001
1000
0010
0001
,
1000
0100
1000
0100
0010
0001
0010
0001
0010
0000
0001
0000
0100
0000
0001
0000
,
0011
0011
0101
0101
,
0011
0011
0101
0101
,
1010
1010
1100
1100
,
1010
1010
1100
1100
,
0001
0010
0100
1000
0001
1000
0100
0010
,
0001
0100
0010
1000
0001
1000
0010
0100
,
0001
0100
0001
0000
0100
0010
0100
0000
0010
1000
0010
0000
1000
0001
1000
0000
,
0001
0001
2000
3000
,
1010
0000
0000
0000
0101
0000
0000
0000
1010
0000
0000
0000
1000
0000
0100
0010
,
0001
0000
0001
1000
1001
0000
0110
0000
,
0001
0100
1000
0100
0000
0000
1001
0000
0000
1000
0000
0100
,
0010
0000
1001
0000
0110
0110
1001
0000
,
0001
0000
0000
0000
0010
0000
0000
0000
0100
0000
0000
0000
1000
0000
0000
0000
0000
0000
0000
0000
0000
0000
0000
0000
1001
0000
0000
0000
0000
0000
0000
0000
0000
0000
0000
0000
1000
0000
0000
0000
0000
0000
0010
0000
0000
0100
0000
0000
,
0010
0000
0000
0000
0000
0000
1000
0000
0000
0001
0000
0000
0011
0000
0000
0000
0000
0000
1000
0000
0100
0000
1000
0000
,
0100
0110
0011
1001
,
0002
0000
0203
0000
0010
0010
0310
0000
,
0110
0000
0000
1010
0000
0000
1100
0000
0000
0011
0000
0001
,
1000
0000
0000
0000
1100
0000
0000
0000
0011
0000
0000
0000
0001
1000
0001
1000
,
0001
0000
1000
0100
0001
0100
1000
0100
,
0001
0100
1000
0100
0010
0010
0020
0000
,
0032
0000
0000
1003
0000
0000
1100
0000
0000
0101
0000
0001
,
0010
0011
0101
1100
,
1001
0000
0001
0000
0100
0000
0001
0000
1000
0000
0100
0010
0100
0000
1000
0000
,
0001
0001
0011
0011
0101
0101
,
1001
0000
0000
0000
1000
0000
0000
0010
0000
0001
0000
0000
0010
0000
1000
0010
,
1000
0000
0100
0000
0010
0000
0001
0000
0000
0100
0000
0000
1000
0000
0100
0000
,
0001
0000
0000
0000
1000
0000
0000
0100
0000
0001
0000
0000
0100
0000
1000
0100
,
1000
0000
0010
0000
0100
0000
0001
0000
0000
0010
0000
0000
1000
0000
0010
0000
,
0001
0100
0100
1000
0100
0100
,
0001
0000
0000
0000
0010
0000
0000
0000
0001
0000
0000
0000
1000
0000
0000
0010
0000
0000
0100
0000
0000
0010
0000
0000
,
1000
0000
0100
0000
0010
0001
0010
0000
0100
0000
1000
0010
0100
0000
0001
0010
,
0100
0000
1000
0100
0010
0000
0001
0100
0010
1000
0010
1000
0001
0100
0001
0100
,
0010
0000
0000
1000
0010
0000
1000
0000
0100
0010
0100
0000
1000
0100
0010
0001
,
0010
0000
0000
0001
0100
0000
0001
0000
0010
0100
0010
0000
0001
1000
0100
1000
,
0001
0000
0000
0100
0010
0000
1000
0000
0001
0100
0010
0000
0100
0001
1000
0100
,
1000
0000
0000
0010
0100
0000
0010
0000
1000
0100
0010
0000
0001
1000
0010
1000
,
0001
0000
0000
0100
0010
0000
1000
0000
0001
0010
0100
0000
0010
1000
0010
0000
,
0001
0000
0000
1000
0010
0000
0100
0000
0010
1000
0100
0000
0001
0100
0001
0000
,
0100
1000
0001
0000
0100
0010
1000
0000
0001
0010
0100
0000
1000
0001
0100
0000
,
0010
0000
0000
1000
0000
0000
0010
0000
0000
1000
0000
0000
0001
0000
0000
0000
0100
0000
0000
0000
0001
0000
0000
0000
0100
0000
0000
0000
0000
0000
0000
0000
0000
0000
0000
0000
0000
0000
0000
0000
0000
0000
0000
0000
0000
0000
0000
0000
,
1001
0000
0000
0000
,
0000
0000
0000
0000
;
#NOTES:
     dance-single:
     :
     Challenge:
     18:
     :
0000
0000
0000
0000
,
0000
0000
0000
0000
,
0000
0000
0000
0000
,
0000
0000
0000
0000
,
0000
0000
0000
0000
,
0000
0000
0000
0000
,
0001
MMMM
MMMM
MMMM
,
0001
MMMM
MMMM
MMMM
,
0001
MMMM
MMMM
MMMM
,
0110
MMMM
MMMM
MMMM
,
1001
0000
0000
0010
0001
0000
1000
0000
0001
0100
0000
0000
0011
0000
0010
0000
,
1001
0000
0000
0010
1000
0000
0001
0000
1000
0100
0000
0000
1010
0000
0010
0000
,
1001
0000
0000
0100
0001
0000
1000
0000
0001
0010
0000
0000
0101
0000
0100
0000
,
1001
0000
0000
0100
1000
0000
0001
0000
1000
0010
0000
0000
1100
0000
0100
0000
,
1000
1000
0100
0100
0010
0010
0001
0001
,
1000
1000
0100
0100
0010
0010
0001
0001
,
1000
0001
1000
0001
1000
0001
1000
0001
1000
0001
1000
0001
1000
0001
1000
0002
,
2000
0000
0000
3003
,
1001
0000
0000
0000
,
0000
0000
0000
0000
,
MMMM
0000
0000
MMMM
0000
0000
0000
0000
0000
MMMM
0000
0000
MMMM
0000
0000
0000
MMMM
0000
0000
0000
MMMM
0000
0000
0000
,
MMMM
0000
0000
0000
0000
0000
0000
0000
0000
0000
MMMM
0000
MMMM
0000
0000
0000
0000
0000
0000
0000
MMMM
0000
0000
0000
0000
MMMM
0000
0000
0000
0000
0000
0000
,
1000
0000
0100
0010
0100
0000
1000
0000
0010
0100
0010
0000
1000
0100
0010
0001
,
1000
0000
0100
0010
0100
0000
1000
0000
0010
0100
0010
0000
1000
0010
0100
0000
,
0001
0000
0100
0010
0100
0000
0001
0000
0010
0100
0010
0000
0001
0100
0010
1000
,
0001
0000
0100
0010
0100
0000
0001
0000
0010
0100
0010
0000
0001
0010
0100
0000
,
1000
0000
0100
0010
0001
0010
0001
0000
0100
0010
1000
0010
0100
0001
0010
0100
,
1000
0000
0001
0010
0100
0010
0100
0000
1000
0010
0100
0001
0010
0100
1000
0000
,
0001
0000
0100
0010
1000
0010
1000
0000
0100
0010
0001
0010
0100
1000
0010
0100
,
0001
0000
1000
0010
0100
0010
0100
0000
0001
0010
0100
1000
0010
0100
0001
0000
,
0011
MMMM
0001
1000
1100
MMMM
0010
0100
,
1100
MMMM
1010
0010
0110
MMMM
0101
MMMM
,
1001
MMMM
0010
0100
0110
MMMM
0001
1000
,
0001
0010
0100
1000
0001
1000
0100
0010
0001
0000
MMMM
0000
1001
0000
MMMM
0000
,
1010
MMMM
1000
0001
0101
MMMM
0010
0100
,
0101
MMMM
0011
0010
0110
MMMM
1100
MMMM
,
1001
MMMM
0010
0100
0110
MMMM
1000
0001
,
1000
0010
0100
0001
1000
0001
0100
0010
1000
0000
MMMM
0000
0001
0000
MMMM
0000
,
2000
0010
3001
0000
0002
0010
1003
0000
,
2000
0100
3001
0000
0002
0100
1003
0000
,
2000
0010
3100
0000
0002
0010
0103
0000
,
1000
0100
0010
0001
0100
0010
1000
0100
0010
0000
0001
0000
1000
0000
0000
0000
,
0001
0000
0100
0000
0010
0000
1000
0100
1000
0100
1000
0000
0001
0000
0100
0000
,
0010
0000
1000
0000
0100
0000
0010
0001
0010
0001
0010
0000
0100
0000
1000
0000
,
0010
0000
0100
0000
0001
0000
1000
0001
1000
0001
1000
0000
0100
0000
0010
0000
,
0001
1000
0100
0010
0001
0010
0100
1000
0002
0000
0103
0000
0020
0000
1030
0000
,
0001
0000
0001
1000
0001
0000
0001
0000
,
0001
0000
0001
1000
0001
0000
0001
0000
,
1000
0000
1000
0001
1000
0000
1000
0000
,
1000
1000
1010
1100
,
1000
1000
0010
0010
0100
0100
0001
0001
,
1000
1000
0100
0100
0010
0010
0001
0001
,
0100
0010
0100
0010
0100
0010
0100
0010
0100
0010
0100
0010
0100
0010
0100
0010
,
0100
0100
MMMM
MMMM
,
1010
0000
1010
0000
1100
0000
1100
0000
0011
0000
MMMM
0000
0101
0000
0001
0100
,
0010
0000
0000
MMMM
0000
0000
0110
0000
0000
0110
0000
0000
1001
0000
0000
MMMM
0000
0000
1001
0000
0000
0000
1000
0000
,
0100
0000
0010
0000
0001
0000
0100
0000
0000
0000
0010
0000
0001
0000
0000
MMMM
0000
0000
0001
0000
0010
0000
1000
0000
,
0001
0000
MMMM
0000
1001
0000
MMMM
0000
1001
0000
0110
0000
1001
0000
MMMM
1000
,
0010
0000
0000
0000
0100
0000
0000
0000
0001
0000
0000
0000
1000
0000
0000
0000
0000
0000
MMMM
0000
0000
0000
0000
0000
1001
0000
0000
0000
0000
0000
MMMM
0000
0000
0000
0000
0000
1000
0000
0000
0000
0000
0000
0010
0000
0000
0100
0000
0000
,
0010
0000
0000
MMMM
0000
0000
0110
0000
0000
1010
0000
0000
1001
0000
0000
MMMM
0000
0000
1001
0000
0001
0000
0010
0000
,
0110
MMMM
1001
MMMM
0011
MMMM
1100
MMMM
,
0100
0000
0100
0000
0100
0100
0100
0000
,
MMMM
MMMM
MMMM
0000
0011
0000
0011
0000
0101
0000
MMMM
0000
1010
0000
0010
1000
,
0100
0000
MMMM
0000
1100
0000
1100
0000
0101
0000
1100
0000
0001
1000
0001
1000
,
0002
0000
1003
0110
0001
0110
1000
0110
,
0001
0110
1000
0110
0001
0001
2000
3000
,
MMMM
0000
0000
MMMM
0000
0000
MMMM
0000
0000
0000
0000
0000
1100
0000
0000
0000
0000
0000
0110
0000
0000
0000
0000
0000
0011
0000
0000
0000
0000
0000
MMMM
0000
0000
0000
0000
0000
0101
0000
0000
0000
0000
0000
0000
0000
1000
0000
0000
0000
,
0010
0000
0000
MMMM
0000
0000
0110
0000
0000
0110
0000
0000
2002
0000
0000
3003
0000
0000
MMMM
0000
MMMM
0000
MMMM
0000
,
1001
0000
0001
0000
0100
0000
0001
0000
1000
0000
0100
0010
0001
0000
0100
0000
,
0010
1010
1001
0010
0011
1001
,
0110
0000
0000
0000
0011
0000
0000
0011
0000
0011
0000
0000
0101
0000
0101
0101
,
0101
0000
0101
0000
0110
0000
0110
0000
0000
1010
0000
0000
1001
0000
1001
0000
,
1001
0000
0000
0000
1100
0000
0000
0110
0000
0110
0000
0000
1100
0000
1100
1100
,
1100
0000
1100
0000
1010
0000
1010
0000
0000
0110
0000
0000
0101
0000
0101
0000
,
1001
0011
0101
1001
1010
1100
,
0110
0000
0000
0000
0011
0000
0000
0000
0101
0000
0000
0000
0110
0000
0000
1010
0000
0000
1100
0000
0000
1001
0000
0000
,
0001
0000
0100
0000
1000
0100
0001
0000
1000
0000
0100
0001
0100
0000
1000
0001
,
0010
0000
0100
1000
0010
0000
0100
0001
0010
0100
1000
0100
0010
0100
1000
0100
,
0010
0000
0001
0100
0010
0000
1000
0010
1000
0100
1000
0100
0010
0001
0010
0001
,
1000
0000
0010
0100
0001
0000
0100
0010
1000
0010
1000
0010
1000
0001
1000
0001
,
1000
0000
0100
0010
0001
0000
0100
0010
0001
0010
0100
0010
0001
0010
0100
0010
,
1000
0000
0001
0010
0100
0000
1000
0100
0010
1000
0010
0100
1000
0100
0010
1000
,
0010
0000
0001
0100
0010
0000
1000
0001
0010
0100
0001
0100
0010
0001
1000
0010
,
0100
0000
1000
0100
0001
0000
1000
0100
0010
0001
0010
0001
1000
0010
1000
0010
,
0100
0001
1000
0100
0010
0001
0100
0001
0010
0100
1000
0010
0100
0001
1000
0100
,
0010
0100
0010
0100
0010
0100
0010
0000
0100
0000
0010
0000
0100
0000
0000
0000
0000
0000
0000
0000
0000
0000
0000
0000
,
0110
0000
0000
0000
,
0000
0000
0000
0000
;
#NOTES:
     dance-double:
     :
     Easy:
     8:
     :
00000000
00000000
00000000
00000000
,
00000000
00000000
00000000
00000000
,
00000000
00000000
00000000
00000000
,
00000000
00000000
00000000
00000000
,
00000000
00000000
00000000
00000000
,
00000000
00000000
00000000
00000000
,
00001000
00000000
00000000
00000000
,
00001000
00000000
00000000
00000000
,
00001000
00000000
00000000
00000000
,
00011000
00000000
00000000
00000000
,
00001000
00010000
00000010
00000010
,
00001000
00000100
00000010
00000000
,
00000001
00001000
00000100
00000100
,
00010000
00001000
00010000
00000000
,
00001000
00100000
00001000
00100000
,
00010000
01000000
00010000
01000000
,
00100000
00000000
00100000
00000000
10000000
00000000
01000000
00100000
,
02000000
00000000
00000000
03000000
,
10010000
00000000
00000000
00000000
,
00000000
00000000
00000000
00000000
,
00000000
00000000
00000000
00000000
,
00000000
00000000
00000000
00000000
,
10000000
01000000
10000000
01000000
,
00100000
00000000
00100000
00000000
00001000
00010000
00001000
00000000
,
00010000
00000100
00001000
00000100
,
00000010
00000001
00000010
00000000
00000001
00000000
00000000
00000000
,
00000001
00000100
00000001
00000100
,
00000010
00000000
00000010
00000000
00010000
00001000
00010000
00000000
,
00001000
01000000
00010000
01000000
,
00100000
10000000
00100000
00000000
10000000
00000000
00000000
00000000
,
10000000
01000000
00010000
00001000
,
00000010
00000000
00000001
00000000
00000100
00000010
00000100
00000000
,
00000001
00001000
00000100
00000010
,
00000001
00001000
00000001
00000000
00001000
00000000
00000000
00000000
,
00000001
00000100
00001000
00010000
,
00100000
00000000
10000000
00000000
01000000
00100000
01000000
00000000
,
10000000
00010000
01000000
00100000
,
10000000
00010000
10000000
00000000
00010000
00000000
00000000
00000000
,
20000000
00000000
00000000
30000000
,
02000000
00000000
00000000
03000000
,
00020000
00000000
00000000
00030000
,
00002000
00000000
00000000
00003000
,
00000010
00000001
00000010
00000001
,
00001000
00000000
00000010
00000000
00001000
00000100
00001000
00000000
,
00000100
00010000
00001000
00010000
,
00000100
00010000
00001000
00000000
,
00010000
00010000
00001000
00001000
,
01000000
01000000
00010000
00010000
,
10000000
10000000
01000000
01000000
,
00010000
00010000
00001000
00001000
,
00000010
00000001
00000010
00000000
00000001
00000000
00000000
00000000
,
00001000
00000100
00001000
00000000
00000100
00000000
00000000
00000000
,
00001000
00000100
00010000
00001000
,
00011000
00011000
00022000
00033000
,
00001000
01000000
01010000
00000000
,
00010000
01000000
00100000
00000000
,
10000000
10000000
10100000
00000000
,
10000000
00010000
00100000
00010000
,
10000000
01000000
01100000
00000000
,
00100000
00100000
00001000
00001000
,
00010000
00001000
00010000
00000000
,
00022000
00033000
00011000
00011000
,
00000000
00011000
00001000
00010000
,
00000010
00001000
00000010
00000000
,
00000200
00000000
00000000
00000300
,
00000002
00000000
00000000
00000003
,
00000000
00000001
00000100
00001000
,
00010000
00011000
00001000
00010000
,
00100000
10000000
00010000
10000000
,
02000000
00000000
00000000
03000000
,
01100000
00000000
10010000
00000000
,
10000000
01000000
00010000
00000000
,
00011000
00000000
00011000
00000000
,
00001000
00000010
00000001
00000000
,
00002000
00000000
00000000
00003000
,
00000002
00000000
00000000
00000003
,
00000001
00000100
00000010
00000100
,
00001000
00010000
00001000
00000000
,
00011000
00000000
00011000
00000000
,
00110000
00000000
00110000
00000000
,
10100000
00000000
10100000
00000000
,
10010000
00000000
10010000
00000000
,
10000000
01000000
00100000
00000000
00010000
00000000
00000000
00000000
,
00010000
00100000
00001000
00000000
00010000
00000000
00000000
00000000
,
00001000
00010000
00000100
00000000
00001000
00000000
00000100
00000000
,
00000020
00000000
00000000
00000030
,
00001001
00000000
00000000
00000000
,
00000000
00000000
00000000
00000000
;
#NOTES:
     dance-double:
     :
     Medium:
     13:
     :
00000000
00000000
00000000
00000000
,
00000000
00000000
00000000
00000000
,
00000000
00000000
00000000
00000000
,
00000000
00000000
00000000
00000000
,
00000000
00000000
00000000
00000000
,
00000000
00000000
00000000
00000000
,
00001000
00000000
00000000
00000000
,
00001000
00000000
00000000
00000000
,
00001000
00000000
00000000
00000000
,
00011000
00000000
00000000
00000000
,
00001000
00010000
00001000
00000000
00100000
00000000
00010000
00000000
,
01000000
00100000
01000000
00000000
00100000
00000000
10000000
00000000
,
01000000
00100000
01000000
00000000
00100000
00000000
00010000
00000000
,
00100000
00001000
00100000
00000000
00001000
00000000
00010000
00000000
,
00001000
00010000
00000010
00000000
00001000
00000010
00000100
00000000
,
00000001
00000010
00000001
00000000
00001000
00000100
00000010
00000000
,
00000100
00001000
00000100
00001000
00000100
00010000
00000100
00010000
,
00002000
00000000
00000000
00003000
,
00011000
00000000
00000000
00000000
,
00000000
00000000
00000000
00000000
,
00000000
00000000
00000000
00000000
,
00000000
00000000
00000000
00000000
,
00001000
00100000
00010000
00100000
01000000
00100000
00010000
00000000
,
10000000
01000000
00100000
01000000
10000000
00010000
00100000
00000000
,
01000000
00100000
00010000
00100000
00001000
00010000
00001000
00000000
,
00010000
00000100
00001000
00000100
00000010
00000100
00001000
00000000
,
00000001
00000100
00001000
00000100
00000001
00000100
00000010
00000000
,
00001000
00000010
00000100
00000010
00010000
00001000
00010000
00000000
,
00001000
00100000
00010000
00100000
01000000
00100000
00001000
00000000
,
01000000
00010000
00100000
00010000
10000000
00010000
01000000
00000000
,
00010000
01000000
00100000
00000000
10000000
01000000
00100000
00000000
,
00010000
00100000
00001000
00010000
00000100
00001000
00000010
00000000
,
00001000
00000010
00000100
00000000
00000001
00000010
00000100
00000000
,
00001000
00000100
00010000
00001000
00100000
00010000
01000000
00000000
,
00010000
01000000
10000000
00000000
01000000
00100000
10000000
00000000
,
01000000
00100000
01000000
00100000
00001000
00010000
00001000
00000000
,
00010000
00000100
00000010
00000000
00000100
00001000
00000010
00000000
,
00000100
00000001
00000100
00000001
00000100
00000010
00000100
00000000
,
00000002
00000203
00000320
00002030
,
00003010
00010000
00001000
00010000
00000010
00010000
00001000
00000000
,
00200000
00320000
20030000
32000000
,
03100000
00010000
01000000
00010000
10000000
00010000
00100000
00000000
,
00010000
00100000
00001000
00000000
00010000
00000100
00001000
00000000
,
00000100
00010000
00001000
01000000
00001000
00010000
00000100
00000000
,
00000010
00000100
00001000
00000000
00000010
00000100
00000001
00000000
,
00000010
00000100
00001000
00000100
00010000
00001000
00010000
00000000
,
00001000
00001000
00101000
00101000
,
00100000
00100000
00110000
00110000
,
00010000
00010000
01010000
01010000
,
01000000
01000000
01100000
01100000
,
10000000
00100000
10000000
00000000
00010000
00100000
00010000
00000000
,
00100000
00001000
00100000
00000000
00001000
00010000
00001000
00000000
,
00010000
00000100
00010000
00000100
00001000
00000100
00001000
00000100
,
00000010
00000010
00000002
00000003
,
00000011
00001100
00000011
00000001
,
00001001
00001000
00001100
00010100
,
00011000
01001000
01010000
01100000
,
00100000
10000000
01000000
00000000
00100000
00010000
01000000
00000000
,
00100000
01000000
10010000
01100000
,
10000000
10100000
00100000
01100000
,
01000000
00001000
00010000
00011000
,
00002000
00000000
00023000
00000000
00031000
00001000
00001000
00000000
,
00000000
00011000
00010010
00001010
,
00000101
00001010
00000101
00000002
,
00001003
00000000
00000000
00000001
00000000
00000001
00000000
00001000
,
00000000
00001000
00000000
00010000
00000000
00010000
20000000
00000000
,
30000000
10010000
01100000
10010000
,
11000000
01100000
00110000
00000000
,
00010000
00100000
00001000
00000000
00010000
00000100
00001000
00000000
,
00000100
00000100
00000100
00000010
00000010
00000010
,
00000110
00000000
00000000
00000000
00000001
00000000
00000000
00001000
00000000
00001000
00000000
00000000
00000010
00000000
00000000
00000000
,
00010000
00000000
00001000
00000000
00010000
00000000
00001000
00000000
00000000
01000000
00000000
00000000
01000000
00000000
00000000
00000000
,
01100000
00000000
00000000
00000000
10000000
00000000
00000000
00010000
00000000
00010000
00000000
00000000
00100000
00000000
00000000
00000000
,
00001000
00000000
00010000
00000000
00001000
00000000
00010000
00000000
00000000
00000010
00000000
00000000
00000010
00000000
00000000
00000000
,
00001001
00001000
00000100
00000010
00000001
00000100
,
00001000
00000000
00000000
00000000
00010000
00000000
00000000
00000000
00100000
00000000
00000000
00000000
10000000
00000000
00000000
00010000
00000000
00000000
10000000
00000000
00000000
01000000
00000000
00000000
,
10000000
00100000
01000000
00000000
00010000
00100000
01000000
00000000
,
10000000
01000000
00010000
00000000
00001000
00000010
00000001
00000000
,
00001000
00000000
00000000
00000010
00000000
00000000
00000100
00000000
00000000
00000010
00000000
00000000
00001000
00000000
00000000
00000000
,
00000100
00000000
00000000
00010000
00000000
00000000
00001000
00000000
00000000
00010000
00000000
00000000
00000100
00000000
00000000
00000000
,
00010000
00000000
00000000
00001000
00000000
00000000
01000000
00000000
00000000
00001000
00000000
00000000
00010000
00000000
00000000
00000000
,
00001000
00000000
00000000
00100000
00000000
00000000
00010000
00000000
00000000
00100000
00000000
00000000
01000000
00000000
00000000
00000000
,
10000000
00000000
00000000
00100000
00000000
00000000
10000000
00000000
00010000
00100000
00000000
00000000
00010000
00000000
00100000
00000000
,
00001000
00000000
00000000
00010000
00000000
00000000
00001000
00000000
00010000
00000010
00000000
00000000
00001000
00000000
00000010
00000000
,
00000100
00000001
00001000
00000100
00010000
00001000
01000000
00010000
,
20000000
00000000
00000000
30000000
,
10010000
00000000
00000000
00000000
,
00000000
00000000
00000000
00000000
;
#NOTES:
     dance-double:
     :
     Hard:
     16:
     :
00000000
00000000
00000000
00000000
,
00000000
00000000
00000000
00000000
,
00000000
00000000
00000000
00000000
,
00000000
00000000
00000000
00000000
,
00000000
00000000
00000000
00000000
,
00000000
00000000
00000000
00000000
,
00001000
00000000
00000000
00000000
,
00001000
00000000
00000000
00000000
,
00001000
00000000
00000000
00000000
,
00011000
00000000
00000000
00000000
,
00001000
00000000
00000000
00010000
00001000
00000000
01000000
00000000
00010000
00100000
00000000
00000000
00010000
00000000
00000000
00000000
,
10000000
00000000
00000000
01000000
00100000
00000000
01000000
00000000
00010000
00001000
00000000
00000000
00010000
00000000
00000000
00000000
,
00001000
00000000
00000000
00010000
00001000
00000000
00000010
00000000
00000001
00001000
00000000
00000000
00000001
00000000
00000000
00000000
,
00001000
00000000
00000000
00000010
00001000
00000000
00000100
00000000
00010000
00001000
00000000
00000000
00010000
00000000
00000000
00000000
,
00001000
00100000
00001000
00100000
00010000
01000000
00010000
01000000
,
00100000
10000000
00100000
10000000
01000000
00100000
01000000
00100000
,
00001000
00010000
00001000
00000000
00010000
00000100
00010000
00000000
00000100
00001000
00000100
00000000
00000010
00000000
00000100
00000000
,
00000220
00000000
00000000
00000330
,
00001001
00000000
00000000
00000000
,
00000000
00000000
00000000
00000000
,
00000000
00000000
00000000
00000000
,
00000000
00000000
00000000
00000000
,
00000001
00000000
00001000
00000010
00001000
00000000
00000100
00000000
00010000
00001000
00010000
00000000
00001000
00000000
00000000
00000000
,
00010000
00000000
00001000
00100000
00001000
00000000
00100000
00000000
00010000
01000000
00010000
00000000
01000000
00000000
00000000
00000000
,
00100000
00000000
10000000
01000000
10000000
00000000
00100000
00000000
01000000
00010000
01000000
00000000
00001000
00000000
00000000
00000000
,
00010000
00000000
00000100
00001000
00000100
00000000
00010000
00000000
00000010
00001000
00000010
00000000
00000100
00000000
00000000
00000000
,
00000001
00000000
00000010
00000100
00001000
00000000
00000010
00001000
00000010
00001000
00000010
00000000
00000100
00000000
00001000
00000000
,
00010000
00000000
00100000
01000000
00100000
00000000
10000000
00100000
10000000
00100000
10000000
00000000
00010000
00000000
00100000
00000000
,
01000000
00000000
10000000
00010000
10000000
00000000
01000000
00100000
00010000
00100000
00010000
00000000
00100000
00000000
00001000
00000000
,
00010000
00000000
00000100
00001000
00000100
00000000
00000010
00000000
00000002
00000000
00002003
00000000
00003020
00000000
00000230
00000000
,
00000301
00000010
00000100
00001000
00000001
00000100
00001000
00010000
,
00100000
01000000
00001000
00010000
00000100
00000010
00001000
00010000
,
00100000
10000000
01000000
00100000
00001000
00010000
00100000
01000000
,
00010000
01000000
00010000
00000000
00100000
00010000
00100000
00000000
00010000
00000000
10000000
00000000
01000000
00000000
00000000
00000000
,
10000000
00100000
01000000
00010000
10000000
01000000
00010000
00001000
,
00000010
00000100
00010000
00001000
01000000
00100000
00010000
00001000
,
00000010
00000001
00000100
00000010
00010000
00001000
00000010
00000100
,
00001000
00000100
00001000
00000000
00000010
00001000
00000010
00000000
00000100
00000000
00000001
00000000
00001000
00000000
00000000
00000000
,
00000002
00000023
00000230
00000320
00000032
00002003
00003020
00000230
,
00002300
00023000
00230000
20300000
30020000
02030000
03200000
00300000
,
20000000
32000000
03020000
02030000
23000000
30200000
02300000
03020000
,
00130000
00001000
00100000
00000000
00001000
00010000
00001000
00000000
00010000
00000000
00000100
00000000
00001000
00000000
00000000
00000000
,
00000010
00000100
00000101
00000001
00001000
00000100
00001100
00001000
,
00000010
00010000
00001000
00010000
01000000
00100000
00110000
00010000
,
01000000
00100000
10100000
10000000
00010000
00100000
00110000
00010000
,
01000000
00010000
01000000
00000000
00001000
00010000
00001000
00000000
00010000
00000000
00001000
00000000
00000010
00000000
00000100
00000000
,
00001000
00001100
00001000
00001010
,
00010000
01010000
00010000
00110000
,
00001000
00001100
00001000
00001010
,
00010000
01010000
00010000
00110000
,
10000000
01000000
10000000
01000000
00100000
00010000
00100000
00010000
,
00001000
00000100
00001000
00000100
00000010
00000001
00000010
00000001
,
00001000
00000001
00001000
00000000
00000010
00000100
00000010
00000000
00000100
00001000
00010000
00000000
00100000
00000000
10000000
00000000
,
00010000
00010000
20000000
30000000
,
10100000
00000000
00000000
00000000
01010000
00000000
00000000
00000000
10100000
00000000
00000000
00000000
10000000
00000000
01000000
00100000
,
00010000
00000000
00100000
00001000
00011000
00000000
00010000
00001000
,
00000010
00000001
00001000
00000001
00000000
00000000
00000110
00000000
00000000
00000001
00000000
00000100
,
00001000
00000000
00011000
00000000
00010000
00100000
10000000
00000000
,
00010000
00000000
00000000
00000000
10000000
00000000
00000000
00000000
00100000
00000000
00000000
00000000
01000000
00000000
00000000
00000000
00000000
00000000
00000000
00000000
00000000
00000000
00000000
00000000
10010000
00000000
00000000
00000000
00000000
00000000
00000000
00000000
00000000
00000000
00000000
00000000
10000000
00000000
00000000
00000000
00000000
00000000
01000000
00000000
00000000
00100000
00000000
00000000
,
01000000
00000000
00000000
00000000
00000000
00000000
10000000
00000000
00000000
01000000
00000000
00000000
00010000
00000000
00000000
00000000
00000000
00000000
00001000
00000000
00010000
00000000
00001000
00000000
,
00010000
00011000
00020000
00032000
,
00003020
00000000
00000032
00000000
00001000
00001000
00001003
00000000
,
00001001
00000000
00000000
00001100
00000000
00000000
00001010
00000000
00000000
00000010
00000000
00010000
,
00001000
00000000
00000000
00000000
00011000
00000000
00000000
00000000
01001000
00000000
00000000
00000000
01000000
00010000
01000000
00010000
,
01000000
00000000
00010000
01000000
10000000
01000000
00001000
01000000
,
10000000
01000000
00010000
01000000
00100000
00100000
00200000
00000000
,
20300000
00000000
00000000
30010000
00000000
00000000
00110000
00000000
00000000
00101000
00000000
00001000
,
00010000
00010100
00001100
00000110
,
00001001
00000000
00000001
00000000
00000010
00000000
00000001
00000000
00000100
00000000
00000010
00000100
00000010
00000000
00000100
00000000
,
00001000
00010000
00100000
00010000
00001000
00000010
,
00001000
00000000
00000000
00000000
00010000
00000000
00000000
01000000
00000000
00100000
00000000
00000000
00001000
00000000
00010000
00001000
,
00010000
00000000
00001000
00000000
00000010
00000000
00000100
00000000
00000000
00000010
00000000
00000000
00001000
00000000
00010000
00000000
,
00001000
00000000
00000000
00000000
00000100
00000000
00000000
00000010
00000000
00000100
00000000
00000000
00001000
00000000
00010000
00001000
,
00010000
00000000
00100000
00000000
01000000
00000000
00100000
00000000
00000000
00010000
00000000
00000000
00001000
00000000
00010000
00000000
,
00001000
00000100
00001000
00010000
01000000
00010000
,
00001000
00000000
00000000
00000000
00000010
00000000
00000000
00000000
00001000
00000000
00000000
00000000
00010000
00000000
00000000
00100000
00000000
00000000
00010000
00000000
00000000
00001000
00000000
00000000
,
00010000
00000000
00000100
00000000
00001000
00000010
00001000
00000000
00000001
00000000
00000100
00000010
00001000
00000000
00000001
00000010
,
00000100
00000000
00001000
00000100
00010000
00000000
00001000
00100000
00010000
00000000
01000000
00100000
10000000
01000000
00100000
00000000
,
00010000
00000000
00000000
10000000
01000000
00000000
00010000
00000000
00001000
00000010
00000000
00000000
00000001
00000100
00000010
00001000
,
00000001
00000000
00000000
00000100
00001000
00000000
00010000
00000000
00001000
00000010
00000000
00000000
00000001
00000010
00000100
00000000
,
00001000
00000000
00000000
00000001
00000100
00000000
00001000
00000000
00010000
00100000
00000000
00000000
10000000
01000000
00100000
00010000
,
10000000
00000000
00000000
01000000
00010000
00000000
00001000
00000000
00010000
00100000
00000000
00000000
10000000
00100000
01000000
00000000
,
00010000
00000000
00000000
01000000
00100000
00000000
00010000
00000000
00001000
00000100
00000000
00000000
00000010
00010000
00001000
00000000
,
00000010
00000000
00000000
00001000
00010000
00000000
00000010
00000000
00000100
00001000
00000000
00000000
00010000
00000000
00001000
00000000
,
00100000
00010000
01000000
00000000
01000000
00010000
00100000
00000000
00001000
00010000
00000100
00000000
00000100
00001000
00000010
00000000
,
00000100
00000000
00000000
00000010
00000000
00000000
00000100
00000000
00000000
00000010
00000000
00000000
00001000
00000000
00000000
00000000
00000001
00000000
00000000
00000000
00001000
00000000
00000000
00000000
00000001
00000000
00000000
00000000
00000000
00000000
00000000
00000000
00000000
00000000
00000000
00000000
00000000
00000000
00000000
00000000
00000000
00000000
00000000
00000000
00000000
00000000
00000000
00000000
,
00001001
00000000
00000000
00000000
,
00000000
00000000
00000000
00000000
;
#NOTES:
     dance-double:
     :
     Challenge:
     18:
     :
00000000
00000000
00000000
00000000
,
00000000
00000000
00000000
00000000
,
00000000
00000000
00000000
00000000
,
00000000
00000000
00000000
00000000
,
00000000
00000000
00000000
00000000
,
00000000
00000000
00000000
00000000
,
00001000
MMMMMMMM
MMMMMMMM
MMMMMMMM
,
00001000
MMMMMMMM
MMMMMMMM
MMMMMMMM
,
00001000
MMMMMMMM
MMMMMMMM
MMMMMMMM
,
00011000
MMMMMMMM
MMMMMMMM
MMMMMMMM
,
00011000
00000000
00000000
00001000
00100000
00000000
00001000
00000000
01000000
00001000
00000000
00000000
00011000
00000000
00001000
00010000
,
00001000
00000000
00000000
00010000
00000010
00000000
00010000
00000000
00000100
00010000
00000000
00000000
00011000
00000000
00001000
00010000
,
00001000
00000000
00000000
00100000
00001000
00000000
01000000
00000000
00001000
00100000
00000000
00000000
00011000
00000000
00010000
00001000
,
00010000
00000000
00000000
00000010
00010000
00000000
00000100
00000000
00010000
00000010
00000000
00000000
00011000
00000000
00001000
00010000
,
00001000
00000000
00100000
00010000
01000000
00000000
01000000
00010000
00100000
00000000
00001000
00010000
00000100
00000000
00000100
00001000
,
00000010
00000000
00001000
00000100
00010000
00000000
00010000
00001000
01000000
00000000
00010000
00100000
00001000
00000000
00001000
00010000
,
00000100
00001000
00000100
00001000
00000100
00001000
00000100
00001000
00000001
00000010
00000001
00000010
00000001
00000010
00000001
00000020
,
00000002
00000000
00000000
00000033
,
00002002
00000000
00000000
00000000
,
00000000
00000000
00000000
00000000
,
MMMM0000
00000000
00000000
MMMM0000
00000000
00000000
00000000
00000000
00000000
MMMM0000
00000000
00000000
MMMM0000
00000000
00000000
00000000
MMMM0000
00000000
00000000
00000000
MMMM0000
00000000
00000000
00000000
,
MMMM0000
00000000
00000000
00000000
00000000
00000000
00000000
00000000
00000000
00000000
MMMM0000
00000000
MMMM0000
00000000
00000000
00000000
00000000
00000000
00000000
00000000
MMMM0000
00000000
00000000
00000000
00000000
MMMM0000
00000000
00000000
00003003
00000000
00000000
00000000
,
00000001
00000000
00000100
00000010
00000100
00000000
00000001
00000000
00000010
00000100
00000010
00000000
00001000
00010000
00001000
00000000
,
00010000
00000000
00100000
01000000
00100000
00000000
10000000
00000000
01000000
00100000
01000000
00000000
10000000
00100000
10000000
00000000
,
00010000
00000000
01000000
00100000
01000000
00000000
00010000
00000000
00100000
01000000
00100000
00000000
00001000
00010000
00001000
00000000
,
00000010
00000000
00000001
00001000
00000001
00000000
00000100
00000000
00000010
00000100
00000010
00000000
00001000
00000001
00001000
00000000
,
00000001
00000000
00000010
00000100
00001000
00000100
00001000
00000000
00000010
00001000
00000010
00010000
00001000
00010000
00001000
00000000
,
00100000
00000000
00010000
01000000
00010000
01000000
00100000
00000000
10000000
01000000
00100000
00010000
01000000
00100000
10000000
00000000
,
00010000
00000000
01000000
00100000
10000000
00100000
10000000
00000000
01000000
00100000
00010000
00100000
00001000
00010000
00001000
00000000
,
00010000
00000000
00000100
00001000
00000010
00001000
00000010
00000000
00000100
00000001
00000010
00000100
00001000
00000001
00000100
00000000
,
00000110
MMMMMMMM
00000001
00000100
00001000
MMMMMMMM
00011000
00010000
,
0010MMMM
00010000
MMMM1000
00000010
MMMM1000
00010000
00011000
MMMMMMMM
,
00011000
MMMMMMMM
00001000
00010000
01000000
MMMMMMMM
10000000
00010000
,
01000000
00010000
01000000
00001000
00010000
00000010
00001000
00000010
00000100
00000000
MMMMMMMM
00000000
00000110
00000000
MMMMMMMM
00000000
,
00001001
MMMMMMMM
00000001
00000010
00001000
00010000
01000000
10000000
,
00010000
00000000
0010MMMM
00001000
0010MMMM
00000000
MMMM1000
00010000
MMMM1000
00000000
0001MMMM
00000100
0001MMMM
00000000
MMMM1000
00010000
,
MMMM1000
MMMMMMMM
00011000
MMMMMMMM
00010000
00001000
00000100
00000001
,
00000010
00000100
00001000
00000100
00010000
00001000
00010000
00001000
00100000
00000000
MMMMMMMM
00000000
01100000
00000000
MMMMMMMM
00000000
,
20000000
00000000
31000000
00010000
00002000
00000000
00013000
00100000
,
00020000
00000000
00031000
00000100
00000002
00000000
00002003
00000000
,
00003100
00000000
00000010
00000001
00002000
00000000
00003001
00000010
,
00001000
00010000
00001000
00100000
00010000
10000000
00100000
01000000
00010000
00000000
10000000
00000000
01000000
00000000
00000000
00000000
,
10000000
00000000
00100000
00000000
01000000
00000000
00010000
00100000
00010000
00100000
00010000
00000000
00100000
00000000
00001000
00000000
,
00010000
00000000
00001000
00000000
00000100
00000000
00000010
00001000
00000010
00001000
00000010
00000000
00000100
00000000
00000001
00000000
,
00000010
00000000
00000100
00000000
00001000
00000000
00000100
00010000
00000100
00010000
00000100
00000000
00010000
00000000
00001000
00000000
,
01000000
00010000
01000000
00010000
10000000
00100000
10000000
00100000
20000000
00000000
31000000
00000000
00200000
00000000
00301000
00000000
,
00010000
00000000
00010000
00100000
00010000
00000000
00010000
00001000
,
00010000
00000000
00010000
01000000
00010000
00000000
00011000
00000000
,
00001000
00000000
00001000
00000010
00001000
00000000
00001000
00010000
,
00001000
00000000
00001000
00000100
00001000
00000000
00011000
00000000
,
00010000
00010000
00000100
00000100
00001000
00001000
00000001
00000001
,
00000100
00000100
00001000
00001000
01000000
01000000
00010000
00010000
,
10000000
00010000
10000000
00010000
10000000
00010000
10000000
00010000
10000000
00010000
10000000
00010000
10000000
00010000
10000000
00010000
,
10000000
10000000
MMMMMMMM
MMMMMMMM
,
10100000
00000000
10010000
00000000
11000000
00000000
01000000
00100000
00010000
00000000
MMMMMMMM
00000000
00101000
00000000
00001000
00010000
,
00001000
00000000
00000000
MMMMMMMM
00000000
00000000
00011000
00000000
00000000
00010100
00000000
00000000
00001100
00000000
00000000
MMMMMMMM
00000000
00000000
00000110
00000000
00000000
00000000
00000001
00000000
,
00000010
00000000
00000100
00000000
00001000
00000000
00000001
00000000
00000000
00000000
00000100
00000000
00001000
00000000
00000000
MMMMMMMM
00000000
00000000
00011000
00000000
00000000
00000000
00010000
00000000
,
00100000
00000000
MMMMMMMM
00000000
01100000
00000000
MMMMMMMM
00000000
10010000
00000000
01100000
00000000
10010000
00000000
MMMMMMMM
10000000
,
00100000
00000000
00000000
00000000
00010000
00000000
00000000
00000000
00001000
00000000
00000000
00000000
00000100
00000000
00000000
00000000
00000000
00000000
MMMMMMMM
00000000
00000000
00000000
00000000
00000000
00001001
00000000
00000000
00000000
00000000
00000000
MMMMMMMM
00000000
00000000
00000000
00000000
00000000
00000001
00000000
00000000
00000000
00000000
00000000
00000100
00000000
00000000
00000010
00000000
00000000
,
00000100
00000000
00000000
MMMMMMMM
00000000
00000000
00000110
00000000
00000000
00000010
00000000
00000000
00001010
00000000
00000000
MMMMMMMM
00000000
00000000
00001100
00000000
00000100
00000000
00010000
00000000
,
00011000
MMMMMMMM
00011000
MMMMMMMM
01100000
MMMMMMMM
01100000
MMMMMMMM
,
10000000
00000000
10000000
00000000
10000000
10000000
10000000
00000000
,
MMMMMMMM
MMMMMMMM
MMMMMMMM
00000000
11000000
00000000
01100000
00000000
00110000
00000000
MMMMMMMM
00000000
00101000
00000000
00001000
00010000
,
00001000
00000000
MMMMMMMM
00000000
00011000
00000000
00010010
00000000
00001010
00000000
00001001
00000000
00000001
00001000
00000100
00001000
,
00000200
00000000
00010300
0100MMMM
00010000
MMMM0100
00010000
0100MMMM
,
00010000
MMMM0100
00010000
0100MMMM
00010000
MMMM0100
00020000
00030000
,
MMMMMMMM
00000000
00000000
MMMMMMMM
00000000
00000000
MMMMMMMM
00000000
00000000
00000000
00000000
00000000
00011000
00000000
00000000
00000000
00000000
00000000
00001000
00000000
00000000
00000000
00000000
00000000
01001000
00000000
00000000
00000000
00000000
00000000
MMMMMMMM
00000000
00000000
00000000
00000000
00000000
01100000
00000000
00000000
00000000
00000000
00000000
00000000
00000000
10000000
00000000
00000000
00000000
,
00010000
00000000
00000000
MMMMMMMM
00000000
00000000
00010000
00000000
00000000
00100000
00000000
00000000
00002000
00000000
00000000
00003000
00000000
00000000
MMMMMMMM
00000000
MMMMMMMM
00000000
MMMMMMMM
00000000
,
00011000
00000000
00010000
00000000
00000100
00000000
00001000
00000000
00000010
00000000
00000100
00000001
00001000
00000000
00000100
00000010
,
00000001
00000011
00001001
00001000
00001100
00001001
,
00000110
00000000
00000000
00000000
00000011
00000000
00000000
00000101
00000000
00001001
00000000
00000000
00001100
00000000
00001100
00001100
,
00001100
00000000
00010100
00000000
00010100
00000000
00011000
00000000
00000000
00110000
00000000
00000000
10100000
00000000
10100000
00000000
,
10010000
00000000
00000000
00000000
10100000
00000000
00000000
11000000
00000000
10010000
00000000
00000000
01010000
00000000
01010000
01010000
,
01010000
00000000
01001000
00000000
01001000
00000000
00011000
00000000
00000000
00001010
00000000
00000000
00000011
00000000
00000011
00000000
,
00001001
00000001
00000010
00001010
00001000
00010000
,
01010000
00000000
00000000
00000000
01000000
00000000
00000000
00000000
10000000
00000000
00000000
00000000
10100000
00000000
00000000
00100000
00000000
00000000
00110000
00000000
00000000
00010000
00000000
00000000
,
00011000
00000000
00001000
00000000
00010000
00001000
00000010
00000000
00000001
00000000
00000100
00001000
00000100
00000000
00000001
00000010
,
00000100
00000000
00001000
00000001
00000100
00000000
00001000
00010000
00100000
10000000
01000000
00100000
00010000
10000000
01000000
00010000
,
00001000
00000000
00000010
00000001
00000010
00000000
00000001
00001000
00000100
00001000
00000100
00001000
00000100
00010000
00000100
00010000
,
00001000
00000000
00010000
01000000
10000000
00000000
00100000
01000000
00010000
01000000
00010000
01000000
00100000
01000000
00100000
01000000
,
00010000
00000000
10000000
01000000
00010000
00000000
00001000
00000010
00000100
00000010
00000100
00000010
00000001
00000010
00000001
00000010
,
00000001
00000000
00001000
00000010
00000100
00000000
00000001
00001000
00000010
00000100
00001000
00000100
00000010
00001000
00000100
00010000
,
00001000
00000000
00100000
00010000
01000000
00000000
10000000
01000000
00010000
10000000
01000000
00010000
00001000
00000010
00000001
00001000
,
00000100
00000000
00001000
00000010
00000100
00000000
00001000
00010000
00001000
00010000
00000010
00001000
00000010
00001000
00000001
00000100
,
00000001
00000010
00001000
00000000
00010000
01000000
10000000
00000000
00100000
00010000
00001000
00000100
00000010
00001000
00000100
00010000
,
00001000
00010000
00001000
00010000
00001000
00010000
00001000
00000000
00010000
00000000
00001000
00000000
00010000
00000000
00000000
00000000
00000000
00000000
00000000
00000000
00000000
00000000
00000000
00000000
,
00011000
00000000
00000000
00000000
,
00000000
00000000
00000000
00000000
;
