#TITLE:tsunashimaEVOLVED ver. C;
#SUBTITLE:;
#ARTIST:Yamajet;
#TITLETRANSLIT:;
#SUBTITLETRANSLIT:;
#ARTISTTRANSLIT:;
#GENRE:;
#CREDIT:;
#MUSIC:tsunashimaEVOLVED ver.C.ogg;
#BANNER:;
#BACKGROUND:;
#CDTITLE:;
#SAMPLESTART:102.400;
#SAMPLELENGTH:6.400;
#SELECTABLE:YES;
#OFFSET:-0.007;
#BPMS:0.000=150.000;
#STOPS:270.500=0.400;
#DISPLAYBPM:150.000;
#BGCHANGES:;
#FGCHANGES:;

//--------------- dance-single - MEGAtive ----------------
#NOTES:
     dance-single:
     MEGAtive:
     Beginner:
     3:
     0,0,0,0,0:
0000
0000
0000
0000
,
0000
0000
0000
0000
,
0000
0000
0000
0000
,
0000
0000
0000
0000
,
0001
0000
0000
0000
,
1000
0000
0000
0000
,
0010
0000
0000
0000
,
0100
0000
0000
0000
,
0001
0000
0010
0000
,
0001
0000
0000
0000
,
1000
0000
0010
0000
,
1000
0000
0000
0000
,
0001
0000
0100
0000
,
0001
0000
0000
0000
,
1000
0000
0100
0000
,
2000
0000
3000
0000
,
0001
0001
0001
0000
,
0100
0100
0100
0000
,
0010
1000
1000
0000
,
0001
0010
0010
0000
,
0001
0001
0001
0000
,
0010
0010
0010
0000
,
0100
1000
1000
0000
,
0010
0100
0100
0000
,
0001
0000
0001
0000
,
1000
0000
1000
0010
,
0100
0000
0100
0000
,
0010
0000
0010
0000
,
1000
0000
1000
0000
,
0001
0000
0001
0010
,
0100
0000
0100
0000
,
2002
0000
3003
0000
,
1000
0000
0010
0000
,
1000
1000
1000
0000
,
0001
0000
0010
0000
,
0001
0001
0001
0000
,
1000
0000
0100
0000
,
1000
1000
1000
0000
,
0001
0000
0100
0000
,
0001
0001
0001
0000
,
1000
0000
0010
0000
,
1000
1000
1000
0000
,
0001
0000
0010
0000
,
0001
0001
0001
0000
,
1000
0000
0100
0000
,
1000
1000
1000
0000
,
0001
0000
0100
0000
,
0002
0000
0003
0000
,
1001
0000
0000
0000
,
0110
0000
0000
0000
,
1001
0000
0000
0000
,
0110
0000
0000
0000
,
0001
0000
0001
0000
,
1000
0000
1000
0000
,
0010
0000
0010
0000
,
0100
0000
0100
0000
,
2002
0000
0000
0000
,
3003
0000
0000
0000
,
0000
0000
0000
0000
,
0000
0000
0000
0000
,
0002
0000
0000
0000
,
0000
0000
0000
0000
,
0203
0000
0000
0000
,
0320
0000
0000
0030
,
0000
2002
0000
0000
0000
0000
0000
0000
0000
0000
3003
0000
0000
0000
0000
0000
,
0000
2002
0000
0000
0000
0000
0000
0000
0000
0000
3003
0000
0000
0000
0000
0000
,
0000
2002
0000
0000
0000
0000
0000
0000
0000
0000
3003
0000
0000
0000
0000
0000
,
0000
2002
0000
0000
0000
0000
0000
0000
0000
0000
3003
0000
1000
0000
0000
0000
,
1000
1000
0000
0010
,
0010
0010
0000
0100
,
0001
0001
0000
1000
,
0100
0100
0000
1000
,
1000
1000
0000
0100
,
0100
0100
0000
0010
,
0001
0001
0000
0100
,
0010
0010
0000
1000
,
0000
1000
0000
0001
,
0000
0001
0100
0010
,
0000
0010
0000
0100
,
0000
0100
0000
0001
,
0000
0001
0000
1000
,
0000
1000
0100
0010
,
0000
0010
0000
2002
,
0000
0000
0000
3003
;

//--------------- dance-single - MEGAtive ----------------
#NOTES:
     dance-single:
     MEGAtive:
     Easy:
     6:
     0,0,0,0,0:
0000
0000
0000
0000
,
0000
0000
0000
0000
,
0000
0000
0000
0000
,
0000
0000
0000
0000
,
0001
0000
0010
0000
,
0001
0000
0010
0001
,
1000
0000
0010
0000
,
1000
0000
0010
0100
,
0001
0000
0010
0000
,
0001
0000
0010
0100
,
1000
0000
0010
0000
,
1000
0000
0010
0100
,
0001
0000
0010
0000
,
0001
0000
0010
0001
,
1000
0000
0010
0000
,
2002
0000
3003
0000
,
0001
0010
0001
1000
,
0010
0100
1000
0100
,
0010
1000
0001
1000
,
0100
0010
0001
0000
,
1000
0010
1000
0001
,
0010
0100
0001
0100
,
0010
0001
1000
0001
,
0100
0010
1000
0000
,
0001
0100
1000
0000
,
1000
0100
0001
0000
,
0001
0010
1000
0000
,
1000
0010
0001
0000
,
1000
0100
0001
0000
,
0001
0100
1000
0000
,
1000
0010
0001
0000
,
0020
0000
0000
0030
,
1000
0000
0001
0000
,
0100
0010
1000
0001
,
1000
0000
0001
0000
,
0010
0100
0010
0001
,
1000
0000
0001
0000
,
0100
0010
1000
0001
,
1000
0000
0001
0000
,
0010
0100
0010
0001
,
1000
0000
0010
0000
,
0100
0001
0010
0100
,
1000
0000
0100
0000
,
0010
0001
0100
0010
,
1000
0000
0010
0000
,
0100
0001
0010
0100
,
1000
0000
0100
0000
,
2002
0000
0000
3003
,
1000
0000
0010
0000
,
0001
0010
1000
0000
,
0001
0000
0010
0000
,
1000
0010
0001
0000
,
1000
0000
0100
0000
,
0001
0100
1000
0000
,
0001
0000
0100
0000
,
1000
0100
0001
0000
,
2001
0000
0000
0000
,
0000
0000
0000
0000
,
3200
0000
0000
0000
,
0000
0000
0000
0000
,
0000
0000
0320
0000
,
0032
0000
2003
0000
,
3020
0000
0130
0001
,
1000
0001
0010
0100
,
0000
2002
0000
0000
0000
0000
0000
0000
0000
0000
0000
0000
3003
0000
0000
0000
,
0000
0220
0000
0000
0000
0000
0000
0000
0000
0000
0000
0000
0330
0000
0000
0000
,
0000
2002
0000
0000
0000
0000
0000
0000
0000
0000
0000
0000
3003
0000
0000
0000
,
0000
0220
0000
0000
0000
0000
0000
0000
0000
0000
0330
0000
1000
0000
0000
0000
,
0100
1000
0001
0100
,
0010
0001
0010
0100
,
0001
1000
0001
0010
,
0100
1000
0000
0001
,
0100
0001
1000
0100
,
0010
1000
0010
0100
,
1000
0001
1000
0010
,
0100
0001
0000
1000
,
0010
0001
0000
0001
,
0010
1000
0000
1000
,
0100
0001
0000
0001
,
0100
1000
0000
0001
,
0010
1000
0000
1000
,
0010
0001
0000
0001
,
0100
1000
0000
1000
,
0100
0001
1000
0001
;

//--------------- dance-single - MEGAtive ----------------
#NOTES:
     dance-single:
     MEGAtive:
     Medium:
     9:
     0,0,0,0,0:
0000
0000
0000
0000
,
0000
0000
0000
0000
,
0000
0000
0000
0000
,
0000
0000
0000
0000
,
0001
0010
0001
0010
,
0100
0000
1000
0000
0100
0000
1000
0010
,
0100
0001
0100
0001
,
1000
0000
0010
0000
1000
0001
0010
0000
,
0001
0010
0001
0010
,
0100
0000
1000
0000
0100
0000
1000
0001
,
0100
0001
0100
0001
,
1000
0000
0010
0000
1000
0000
0010
1000
,
0100
1000
0100
1000
,
0001
0000
0010
0000
0001
0000
0010
0001
,
0100
0010
0100
0010
,
2002
0000
0000
3003
,
0001
0010
1000
0000
0010
0000
0001
0000
,
1000
0100
0010
0000
1000
0000
0010
0000
,
0001
0100
1000
0000
0100
0000
0001
0000
,
1000
0010
0100
0000
1000
0000
0100
0010
,
1000
0100
0001
0000
0100
0000
1000
0000
,
0001
0010
0100
0000
0001
0000
0100
0000
,
1000
0010
0001
0000
0010
0000
1000
0000
,
0001
0100
0010
0000
1000
0100
0010
0000
,
0001
0010
0100
0010
0001
0000
1000
0000
,
0001
0100
0001
0000
1000
0100
1000
0000
,
0001
0010
0100
0010
0001
0000
1000
0000
,
0010
0000
0100
0000
0001
0000
0000
0000
0010
0000
0000
0010
0000
0000
0000
0000
,
0001
0100
0010
0100
0001
0000
1000
0000
,
0100
0010
0100
0000
1000
0010
1000
0000
,
0001
0100
0010
0100
0001
0000
1000
0000
,
2002
0000
3003
1000
,
1001
0001
0010
0100
,
1000
0010
0100
0000
0001
0010
0100
0000
,
1000
0001
0100
0010
,
1000
0100
0010
0000
0001
0010
0001
1000
,
0001
1000
0010
0100
,
0001
0010
0100
0000
1000
0010
0100
0000
,
0001
1000
0100
0010
,
0001
0100
0010
0000
1000
0010
0100
0000
,
1001
0001
0010
0100
,
1000
0010
0100
0000
0001
0010
0100
0000
,
1000
0001
0100
0010
,
1000
0100
0010
0000
0001
0010
0001
1000
,
0001
1000
0010
0100
,
0001
0010
0100
0000
1000
0010
0100
0000
,
0001
1000
0100
0010
,
0002
0000
0000
0100
,
0103
1000
0100
0001
,
0010
0100
0010
0000
0001
1000
0001
0000
,
0010
1000
0010
0001
,
0100
0010
0100
0000
0001
0000
1000
0100
,
0010
1000
0010
0001
,
0100
0010
0100
0000
0001
1000
0001
0000
,
0100
1000
0100
0001
,
0010
0100
0010
0000
0001
0000
1000
0010
,
0200
0000
0000
0010
0000
0000
0000
0010
,
0000
0000
0000
0001
0000
0000
0000
0301
,
2000
0000
0000
0100
0000
0000
0000
0100
,
0000
0000
0000
0001
0000
0000
0000
3001
,
1000
0010
0100
0001
,
1000
0100
0010
0001
,
1000
0010
0100
0000
0001
0010
0100
0000
,
1000
0010
0100
0000
0001
0010
0100
1000
,
0000
0100
0000
0000
0100
0000
0000
0100
0000
0000
0100
0000
1000
0000
0001
0000
,
0000
0100
0000
0000
0100
0000
0000
0100
0000
0000
0100
0000
0001
0000
1000
0000
,
0000
0010
0000
0000
0010
0000
0000
0010
0000
0000
0010
0000
1000
0000
0001
0000
,
0000
0010
0000
0010
0000
0000
0010
0000
0001
0000
1000
0000
1000
0000
0010
0000
,
0001
0000
0010
0000
1000
0000
0001
0100
,
0010
0000
0001
0000
0010
0000
1000
0100
,
0001
0000
0100
0000
1000
0000
0001
0010
,
0100
0000
0001
0000
0100
0010
0001
0100
,
1000
0000
0100
0000
0001
0000
1000
0010
,
0100
0000
1000
0000
0100
0000
0001
0010
,
1000
0000
0010
0000
0001
0000
1000
0100
,
0010
0000
0001
0100
0010
0000
1000
0010
,
0100
0010
1000
0000
0001
0000
1000
0100
,
1000
0000
0001
0100
0001
0000
1000
0010
,
0100
0010
1000
0000
0001
0000
0010
0100
,
1000
0000
0000
0000
0010
0000
0000
0010
0000
0000
0000
0000
1000
0000
0100
0000
,
0010
0100
1000
0000
0001
0000
0100
0010
,
0100
0000
0001
0010
0001
0000
1000
0100
,
0010
0000
0001
0100
0010
0000
1000
0100
,
0001
0000
1000
0010
0001
0000
1001
0000
;

//--------------- dance-single - MEGAtive ----------------
#NOTES:
     dance-single:
     MEGAtive:
     Hard:
     12:
     0,0,0,0,0:
0000
0000
0000
0000
,
0000
0000
0000
0000
,
0000
0000
0000
0000
,
0000
0000
0000
0000
,
1000
0010
1000
0000
0001
0010
0001
0000
,
1000
0010
0100
0010
0100
0001
1000
0000
,
0001
0010
0001
0000
1000
0010
1000
0000
,
0001
0010
0100
0010
0100
1000
0001
0000
,
1000
0010
0100
0000
0001
0010
0100
0000
,
1000
0010
0100
0001
1000
0100
0010
0000
,
0001
0100
0010
0000
1000
0100
0010
0000
,
0001
0100
0010
1000
0001
0010
0100
0000
,
1000
0100
0010
0000
0001
0100
0010
0000
,
1000
0100
0010
0001
1000
0010
0100
0000
,
0010
1000
0100
0000
0010
0001
0100
0000
,
2002
0000
0000
0000
0000
3003
1000
0000
,
1010
0000
0000
1000
0010
0000
0100
0000
0001
0000
0000
0001
0000
0000
0010
0000
,
0100
0000
0000
1000
0100
0000
0010
0000
0100
0000
0000
0100
0000
0000
1000
0000
,
0010
0000
0000
0010
0100
0000
0001
0000
0010
0000
0000
0010
0001
0000
1000
0000
,
0100
0000
0000
0100
1000
0000
0010
0000
0100
0000
0000
0100
0002
0000
0000
0000
,
0013
0000
0000
0001
0010
0000
0100
0000
1000
0000
0000
1000
0000
0000
0010
0000
,
0100
0000
0000
0001
0100
0000
0010
0000
0100
0000
0000
0100
0000
0000
0001
0000
,
0010
0000
0000
0010
0100
0000
1000
0000
0010
0000
0000
0010
1000
0000
0001
0000
,
0100
0000
0000
0100
0001
0000
0010
0000
0100
0000
0000
0100
2000
0000
0000
0000
,
3001
0100
0001
0100
1000
0100
0001
0000
,
1000
0100
1000
0100
0001
0100
1000
0000
,
0001
0100
0001
0100
1000
0100
0001
1000
,
0100
0000
0010
0000
0100
0000
0010
0000
0001
0000
0000
0002
0000
0000
0000
0000
,
1003
0010
1000
0010
0001
0010
1000
0000
,
0001
0010
0001
0010
1000
0010
0001
0000
,
1000
0010
1000
0010
0001
0010
1000
0000
,
0001
0010
0000
0010
0000
0100
0000
0100
0000
1000
0000
0000
0001
0000
0100
0000
,
0001
0000
0000
0010
0000
0000
0100
0000
0001
0000
0000
0100
0000
0000
0010
0000
,
0001
0000
0000
0020
0000
0000
1000
0000
0000
0000
0100
0000
0000
0000
0001
0000
,
0031
0000
0000
0100
0000
0000
0010
0000
0001
0000
0000
0010
0000
0000
0100
0000
,
0001
0000
0000
0200
0000
0000
1000
0000
0000
0000
0010
0000
0000
0000
0301
0000
,
1000
0000
0000
0100
0000
0000
0010
0000
1000
0000
0000
0010
0000
0000
0100
0000
,
1000
0000
0000
0200
0000
0000
0001
0000
0000
0000
0010
0000
0000
0000
1000
0000
,
1300
0000
0000
0010
0000
0000
0100
0000
1000
0000
0000
0100
0000
0000
0010
0000
,
1000
0000
0000
0020
0000
0000
0001
0000
0000
0000
0100
0000
0130
0000
0000
0000
,
0001
0000
0000
0010
0000
0000
0100
0000
0001
0000
0000
0100
0000
0000
0010
0000
,
0001
0000
0000
0020
0000
0000
1000
0000
0000
0000
0100
0000
0000
0000
0001
0000
,
0031
0000
0000
0100
0000
0000
0010
0000
0001
0000
0000
0010
0000
0000
0100
0000
,
0001
0000
0000
0200
0000
0000
1000
0000
0000
0000
0010
0000
0000
0000
0301
0000
,
1000
0000
0000
0100
0000
0000
0010
0000
1000
0000
0000
0010
0000
0000
0100
0000
,
1000
0000
0000
0200
0000
0000
0001
0000
0000
0000
0010
0000
0000
0000
1000
0000
,
1300
0000
0000
0010
0000
0000
0100
0000
1000
0000
0000
0100
0000
0000
0010
0000
,
1000
0000
0000
0020
0000
0000
0001
0000
0000
0000
0000
0000
0130
0000
0001
0000
,
1000
0000
0001
0010
0000
0000
0100
0010
0000
0000
0001
0010
0000
0000
0100
0010
,
0000
0000
0001
0100
0000
0000
0010
0100
0000
0000
0001
0100
0000
0000
0010
0000
,
0010
0000
1000
0100
0000
0000
0010
0100
0000
0000
1000
0100
0000
0000
0010
0100
,
0000
0000
1000
0010
0000
0000
0100
0010
0000
0000
1000
0010
0000
0000
0100
0000
,
0001
0000
0010
0100
0000
0000
0010
0001
0000
0000
0010
0100
0000
0000
0010
0001
,
0000
0000
0100
0010
0000
0000
1000
0010
0000
0000
0100
0010
0000
0000
1000
0000
,
1000
0000
0100
0010
0000
0000
0100
1000
0000
0000
0100
0010
0000
0000
0100
1000
,
0000
0000
0010
0100
0000
0000
0001
0100
0000
0000
0010
0100
0000
0000
0001
0000
,
0002
0000
0000
0010
0000
0000
0000
0010
,
2003
0000
0000
0010
0000
0000
0000
0010
,
3002
0000
0000
0100
0000
0000
0000
0100
,
2003
0000
0000
0100
0000
0000
0000
0100
,
3001
0010
0001
0010
0100
1000
0100
1000
,
0010
0100
0010
0100
0001
0100
0001
0100
,
0001
0010
0100
1000
0010
0100
0001
0010
,
0100
1000
0100
0010
0001
0100
1000
0100
,
0000
0210
0000
0000
0010
0000
0000
0010
0000
0000
0310
0000
0100
0000
0100
0000
,
0000
0102
0000
0000
0100
0000
0000
0100
0000
0000
0103
0000
0001
0000
0001
0000
,
0000
1002
0000
0000
1000
0000
0000
0010
0000
0000
0013
0000
0001
0000
0001
0000
,
0000
1000
0000
1000
0000
0000
1000
0000
0100
0000
0001
0000
1100
0000
0000
1000
,
0100
0000
0010
0000
0001
0000
0000
0001
0000
0000
0100
0000
0010
0000
0000
1000
,
0010
0000
0100
0000
0010
0000
0000
0010
0000
0000
1000
0000
0100
0000
0000
0100
,
0010
0000
0001
0000
0100
0000
0000
0100
0001
0000
1000
0000
0010
0000
0000
0010
,
1000
0000
0100
0000
0010
0000
0000
0010
0002
0000
0000
0000
0103
0000
0000
0001
,
0100
0000
0010
0000
1000
0000
0000
1000
0000
0000
0100
0000
0010
0000
0000
0001
,
0010
0000
0100
0000
0010
0000
0000
0010
0000
0000
0001
0000
0100
0000
0000
0100
,
0010
0000
1000
0000
0100
0000
0000
0100
1000
0000
0001
0000
0010
0000
0000
0010
,
0001
0000
0100
0000
0010
0000
0000
0010
2000
0000
0000
0000
3001
0000
0010
0000
,
0001
0010
1000
0010
0001
0000
1000
0010
,
1000
0010
0001
0010
1000
0000
0001
0010
,
0001
0010
1000
0010
0001
1000
0010
0100
,
0010
0000
0100
0000
0001
0000
0000
0001
0000
0000
0000
0000
1000
0000
0100
0000
,
1000
0100
0001
0100
1000
0000
0001
0100
,
0001
0100
1000
0100
0001
0000
1000
0100
,
0010
0001
0100
0010
0100
0010
1000
0200
,
0310
0200
0301
0100
0010
0100
1000
0000
;

//--------------- dance-single - MEGAtive ----------------
#NOTES:
     dance-single:
     MEGAtive:
     Challenge:
     15:
     0,0,0,0,0:
0000
0000
0000
0000
,
0000
0000
0000
0000
,
0000
0000
0000
0000
,
0000
0000
0000
0000
,
0001
0010
0001
1000
0100
0010
0100
0000
,
1000
0010
1000
0001
0100
0010
0100
0100
,
0001
0010
0001
1000
0100
0010
0100
0000
,
1000
0000
0010
0000
1000
0000
0001
1000
0001
0000
0100
0000
0010
0000
0000
0000
,
1000
0100
1000
0001
0010
0100
0010
0000
,
0001
0100
0001
1000
0010
0100
0010
0010
,
1000
0100
1000
0001
0010
0100
0010
0000
,
0001
0000
0100
0000
0001
0000
1000
0000
0010
0000
0100
0010
0100
0000
0010
0000
,
1000
0100
1000
0001
0010
0100
0010
0000
,
0001
0100
0001
1000
0010
0100
0010
0010
,
1000
0100
1000
0001
0010
0100
0010
0000
,
1002
0000
0000
0000
0000
0000
0000
0000
0000
0000
0000
0103
0010
0000
1000
0000
,
1100
0000
0000
0100
1000
0000
0010
0000
0020
0000
0000
0001
0000
0000
0100
0000
,
0130
0000
0000
0100
0001
0000
0010
0000
0020
0000
0000
1000
0000
0000
0100
0000
,
0130
0000
0000
1000
0100
0000
0010
0000
0100
0000
0000
1000
0010
0000
0100
0000
,
0010
0000
0000
1000
0100
0000
0010
0000
0001
0000
0000
1000
0001
0000
0100
0000
,
0101
0000
0000
0100
0001
0000
0010
0000
0020
0000
0000
1000
0000
0000
0100
0000
,
0130
0000
0000
0100
1000
0000
0010
0000
0020
0000
0000
0001
0000
0000
0100
0000
,
0130
0000
0000
0001
0100
0000
0010
0000
0100
0000
0000
0001
0010
0000
0100
0000
,
0010
0000
0000
0001
0100
0000
0010
0100
0010
0000
1000
0000
0100
0000
0010
0000
,
0001
0020
0000
1000
0000
0030
0010
0000
0001
0020
0000
1000
0000
0030
0010
0000
,
0001
0020
0000
0100
0000
0030
0010
0000
0001
0020
0000
0100
0000
0030
0010
0000
,
0001
0200
0000
1000
0000
0300
0100
0000
0001
0200
0000
1000
0000
0300
0100
0000
,
0001
0200
0000
0010
0000
0300
0100
0000
0001
0200
0000
1000
0300
0000
0110
0000
,
1000
0200
0000
0001
0000
0300
0100
0000
1000
0200
0000
0001
0000
0301
0100
0000
,
1000
0200
0000
0010
0000
0300
0100
0000
1000
0200
0000
0010
0000
0310
0100
0000
,
1000
0020
0000
0001
0000
0030
0010
0000
1000
0020
0000
0001
0000
0031
0010
0000
,
1000
0010
0000
0100
0000
0100
0000
0001
0000
0001
1000
0000
0100
0000
0010
0000
,
0011
0000
0000
1000
0001
0000
0100
0000
0010
0000
0000
0100
0001
0000
0010
0000
,
1010
0000
0000
0010
0001
0000
0100
0000
0010
0000
0010
0000
0100
0000
0100
0000
,
1010
0000
0000
0010
1000
0000
0100
0000
0001
0000
0000
1000
0010
0000
0100
0000
,
0110
0000
0000
0010
0001
0000
1000
0000
0010
0000
0100
0010
0100
0000
0001
0000
,
0011
0000
0000
0010
0001
0000
0100
0000
1000
0000
0000
0100
0010
0000
1000
0000
,
1010
0000
0000
0010
0100
0000
0001
0000
0010
0000
0010
0000
0100
0000
1000
0000
,
1100
0000
0000
0001
1000
0000
0100
0000
0010
0000
0000
0010
0100
0000
1000
0000
,
1010
0000
0000
0010
1000
0000
0100
0000
0011
0000
0001
0000
1000
0000
0010
0000
,
0101
0000
0000
0001
1000
0000
0010
0000
1010
0000
0000
0010
0100
0000
0001
0000
,
0011
0000
0000
0010
0001
0000
0100
0000
0010
0000
0001
0000
0010
0000
0000
0000
,
0101
0000
0000
0100
0001
0000
0010
0000
0011
0000
0000
0010
0100
0000
1000
0000
,
1010
0000
0000
0010
1000
0000
0100
0000
0010
0000
1000
0010
0100
0000
1000
0000
,
1100
0000
0000
0100
1000
0000
0010
0000
1010
0000
0000
0010
0100
0000
0001
0000
,
0011
0000
0000
0001
0010
0000
0010
0000
0100
0000
0010
0000
0001
0000
0000
0000
,
0101
0000
1000
0001
1000
0000
0010
0000
1010
0000
0001
1000
0001
0000
0100
0000
,
2010
0000
0000
0001
0000
0000
3001
0000
0000
0000
1000
0001
0010
0000
0100
0000
,
2000
3020
0230
0302
,
0023
0032
0203
0320
,
2030
3002
0203
0320
,
2030
3200
0320
0032
,
1003
0100
1000
0001
0100
0010
1000
0100
,
0010
0001
1000
0010
0001
0010
1000
0100
,
0010
0001
0100
0010
0100
0001
1000
0010
,
0100
0001
0010
0001
0100
0001
1000
0001
,
0012
1000
1000
1000
,
1000
0000
0010
0000
0010
0000
0010
2000
,
0003
0010
0010
0010
,
0001
0001
0001
0001
,
3001
0100
0010
1000
0001
0010
1000
0010
,
0001
1000
0010
0100
1000
0001
0010
0100
,
0001
0010
0001
0000
0100
0000
0010
0000
1000
0100
1000
0000
0010
0000
0100
0000
,
0001
0010
0100
0000
1000
0010
0100
0000
0001
1000
0100
1000
0010
1000
0100
1000
,
0000
1200
0000
0000
0001
0000
0000
1000
0000
0000
0301
0000
0100
0000
0100
1000
,
0000
1020
0000
0000
0001
0000
0000
1000
0000
0000
0031
0000
0010
0000
0010
1000
,
0000
1100
0000
0000
0011
0000
0000
1100
0000
0000
0011
0000
0001
0000
1000
0010
,
0000
0100
0000
0101
0000
0000
1001
0000
1100
0000
1001
0000
1010
0000
0000
0010
,
1000
0000
0100
0000
0200
0000
0000
0001
0000
0000
0010
0000
0310
0000
0000
0010
,
0001
0000
0100
0000
0200
0000
0000
1000
0000
0000
0010
0000
0310
0000
0000
1000
,
0010
0000
0100
0000
0010
0000
0000
1000
0100
0000
0010
0000
0100
0000
0000
1000
,
0010
0000
0100
0000
0001
0000
0000
1000
0001
0000
0010
0000
0011
0000
0000
0010
,
0001
0000
0100
0000
0200
0000
0000
1000
0000
0000
0010
0000
0310
0000
0000
0010
,
1000
0000
0100
0000
0200
0000
0000
0001
0000
0000
0010
0000
0310
0000
0000
0001
,
0010
0000
0100
0000
0010
0000
0000
0001
0100
0000
0010
0000
0100
0000
0000
0001
,
0010
0000
0100
0000
1000
0001
1000
0000
0010
0000
0100
0000
1000
0200
0000
0001
,
0000
0300
0100
0000
1000
0200
0000
0001
0000
0300
0100
0000
1000
0200
0000
0010
,
0000
0300
0100
0000
1000
0200
0000
0010
0000
0300
0100
0000
1000
0002
0000
0010
,
0000
0003
1000
0000
1000
0002
0000
0010
0000
0003
1000
0000
1000
0020
0000
0100
,
0000
0030
1000
0000
1000
0020
0000
0100
0030
0000
0101
0000
0001
0020
0000
0100
,
0000
0030
0010
0000
0001
0020
0000
0100
0000
0130
0010
0000
0001
2000
0000
0010
,
0000
3000
0100
0000
0001
2000
0000
0010
0000
3010
0100
0000
0001
0000
1000
0000
,
0100
0000
0010
0000
0001
0000
0100
0000
0010
0000
1000
0100
0010
0000
0100
1000
,
0010
0000
0100
0001
0010
0000
0100
0010
0001
1000
0001
1000
0020
0000
0000
0000
,
0000
0000
0000
0000
,
0000
0000
0000
0030
;
