#TITLE:tsunashimaEVOLVED ver. B;
#SUBTITLE:;
#ARTIST:Yamajet;
#TITLETRANSLIT:;
#SUBTITLETRANSLIT:;
#ARTISTTRANSLIT:;
#GENRE:;
#CREDIT:;
#MUSIC:tsunashimaEVOLVED ver. B.ogg;
#BANNER:;
#BACKGROUND:;
#CDTITLE:;
#SAMPLESTART:96.001;
#SAMPLELENGTH:6.400;
#SELECTABLE:YES;
#OFFSET:1.599;
#BPMS:0.000=150.000;
#STOPS:;
#BGCHANGES:;
#FGCHANGES:;

//--------------- dance-single - forcednature ----------------
#NOTES:
     dance-single:
     forcednature:
     Beginner:
     3:
     0,0,0,0,0:
0000
0000
0000
0000
,
0000
0000
0000
0000
,
0000
0000
0000
0000
,
0000
0000
0000
0000
,
0000
0000
0000
0000
,
0010
0000
0000
0000
,
0010
0000
0000
0000
,
0100
0000
0000
0000
,
0100
0000
0000
0000
,
0001
0000
0000
0000
,
0001
0000
0000
0000
,
1000
0000
0000
0000
,
1000
0000
0000
0000
,
0100
0000
0000
0000
,
0100
0000
0000
0000
,
0010
0000
0000
0000
,
0100
0000
0000
0000
,
1000
0000
0000
0000
,
0001
0000
0000
0000
,
0100
0000
0000
0000
,
0010
0000
0000
0000
,
1001
0000
0000
0000
,
0000
0000
0000
0000
,
0000
0000
0000
0000
,
0000
0000
0000
0000
,
0001
0000
0000
0000
,
0100
0000
0000
0000
,
0010
0000
0000
0000
,
1000
0000
0000
0000
,
1001
0000
0000
0000
,
1000
0000
0000
0000
,
0001
0000
0000
0000
,
0100
0000
0000
0000
,
0010
0000
0000
0000
,
0010
0000
0000
0000
,
0010
0000
0010
0000
,
0010
0000
0000
0000
,
1001
0000
0000
0000
,
0001
0000
0000
0000
,
0100
0000
0000
0000
,
0010
0000
0000
0000
,
1000
0000
0000
0000
,
0100
0000
0000
0000
,
1000
0000
1000
0000
,
1000
0000
0000
0000
,
1001
0000
0000
0000
,
0001
0000
0000
0000
,
0100
0000
0000
0000
,
0010
0000
0000
0000
,
1000
0000
0000
0000
,
0100
0000
0000
0000
,
0010
0000
0000
0000
,
0001
0000
0001
0000
,
0001
0000
0000
0000
,
0100
0000
0000
0000
,
0010
0000
0000
0000
,
1000
0000
0000
0000
,
0100
0000
0000
0000
,
0010
0000
0000
0000
,
0100
0000
0000
0000
,
1000
0000
0000
0000
,
0001
0000
0000
0000
,
0100
0000
0000
0000
,
0010
0000
0000
0000
,
1000
0000
0000
0000
,
1001
0000
0000
0000
,
0001
0000
0001
0000
,
0001
0000
0000
0000
,
1000
0000
1000
0000
,
1000
0000
0000
0000
,
0010
0000
0010
0000
,
0010
0000
0000
0000
,
0100
0000
0100
0000
,
0100
0000
0000
0000
,
0000
0000
0000
0000
,
0001
0000
0000
0000
,
0000
0000
0000
0000
,
1000
0000
0000
0000
,
0000
0000
0000
0000
,
0100
0000
0000
0000
;

//--------------- dance-single - forcednature ----------------
#NOTES:
     dance-single:
     forcednature:
     Easy:
     6:
     0,0,0,0,0:
0000
0000
0000
0000
,
0000
0000
0000
0000
,
0000
0000
0000
0000
,
0000
0000
0000
0000
,
0000
0000
0000
0000
,
1000
0001
0000
0001
,
0000
0001
0000
0001
,
0000
1000
0000
1000
,
0000
1000
0000
1000
,
0100
0100
0100
0100
,
0000
0010
0001
0010
,
0000
0100
0100
0100
,
0000
1000
0010
1000
,
0000
0001
0001
0001
,
0000
0100
1000
0100
,
0000
0010
0010
0010
,
1001
0000
0000
0100
,
0000
0001
0000
0000
0001
0000
0000
0001
0000
0000
0001
0000
0000
0000
0000
0000
,
0000
1000
0000
0000
1000
0000
0000
1000
0000
0000
1000
0000
0000
0000
0000
0000
,
0000
0100
0000
0000
0100
0000
0000
0100
0000
0000
0100
0000
0000
0000
0000
0000
,
0000
0010
0000
0000
0000
0000
0010
0000
0000
0000
0010
0000
0000
0000
0000
0000
,
1001
0000
0000
0000
0000
0000
0000
0001
,
0000
0000
0000
0000
,
0100
0000
0000
0000
0000
0000
0000
0010
,
0000
0000
0000
0000
,
1000
0000
0000
0000
0000
0000
0000
0100
,
0000
0000
0000
0000
,
0010
0000
0000
0000
0000
0000
0000
0001
,
0000
0000
0000
0000
,
0100
0000
0100
0000
,
0100
0000
0100
0010
,
0100
0000
0100
0000
,
0100
0000
0100
0010
,
1000
0000
0001
0010
,
0001
0000
1000
0010
,
0100
0000
0001
0000
,
1000
0000
0000
0100
,
1001
0000
0001
0100
,
0001
0000
1000
0010
,
0100
0000
0001
0010
,
0100
1000
0100
0010
,
0001
0000
1000
0010
,
0100
0000
0001
1000
,
0100
0000
0010
0001
,
0100
0000
0010
1000
,
0001
0001
0010
0000
,
0100
0010
0001
0100
,
0010
1000
0001
0000
,
1000
0100
0010
0100
,
1000
0010
0100
0001
,
0010
0010
0010
0010
,
0200
0000
1300
0001
,
0000
0100
0000
0100
0000
0100
0000
0100
0000
0000
0010
0000
0010
0000
0000
0000
,
1001
0000
0001
0000
,
0100
0000
0010
0000
,
1000
0000
0100
0000
,
0010
0000
0000
0000
,
0100
0000
1000
0000
,
0001
0000
0100
0000
,
2002
0000
0000
3003
,
0100
0100
0010
0010
,
0000
1000
0000
0000
1000
0000
0000
1000
0000
0000
1000
0000
0000
0000
0000
0000
,
0000
0001
0000
0000
0001
0000
0000
0001
0000
0000
0001
0000
0000
0000
0000
0000
,
0000
0010
0000
0000
0010
0000
0000
0010
0000
0000
0010
0000
0000
0000
0000
0000
,
0000
0100
0000
0100
0000
0000
0100
0000
0100
0000
0000
0000
0000
0000
0000
0000
,
1000
0001
1000
0001
,
1000
0001
0000
0100
,
0001
1000
0001
1000
,
0001
1000
0000
0100
,
1000
0010
1000
0010
,
1000
0010
0000
0100
,
0001
0010
0001
0010
,
0001
0010
0000
0100
,
1001
0000
1000
0000
,
0010
0000
0000
0000
,
0100
0000
0001
0000
,
0010
0000
0000
0000
,
0100
0000
1000
0000
,
0001
0000
0000
0000
,
0100
0000
0001
0000
,
0010
0000
0000
0000
;

//--------------- dance-single - forcednature ----------------
#NOTES:
     dance-single:
     forcednature:
     Medium:
     9:
     0,0,0,0,0:
0000
0000
0000
0000
,
0000
0000
0000
0000
,
0000
0000
0000
0000
,
0000
0000
0000
0000
,
0000
0000
0000
0000
,
1000
0100
1000
0100
,
0010
0001
0010
0001
,
0100
0001
0100
0001
,
1000
0010
1000
0010
,
1001
0000
0001
0000
0100
0000
0001
0100
,
0001
1000
0100
0000
,
1000
0000
0100
0000
1000
0000
0010
0100
,
0010
1000
0001
0000
,
0010
0000
0001
0000
0010
0000
0100
1000
,
0100
0010
0001
0000
,
1000
0000
0010
0000
1000
0000
0001
0100
,
0002
0000
0000
0000
1000
0000
1003
0001
,
0000
0010
0000
0000
0010
0000
0000
0010
0000
0000
0010
0000
0000
0000
0000
0000
,
0000
0100
0000
0000
0100
0000
0000
0100
0000
0000
0100
0000
0000
0000
0000
0000
,
0000
1000
0000
0000
1000
0000
0000
1000
0000
0000
1000
0000
0000
0000
0000
0000
,
0000
0001
0000
0001
0000
0000
0001
0000
0001
0000
0001
0000
0000
0000
0000
0000
,
0100
0000
0000
0000
0000
0000
0000
0010
,
0000
0000
0000
0000
,
1000
0000
0000
0000
0000
0000
0000
0001
,
0000
0000
0000
0000
,
0010
0000
0000
0000
0010
0000
0000
0010
0000
0000
0010
0000
0000
0000
0100
0000
,
0000
0000
0000
0000
,
1000
0000
0000
0000
1000
0000
0000
1000
0000
0000
1000
0000
0000
0000
0001
0000
,
0000
0000
0000
0000
0000
0000
0000
0100
,
0100
0010
0100
0010
,
1000
0000
0001
0000
1000
0000
0001
0010
,
0100
0010
0100
1000
,
0001
0000
1000
0000
0001
0000
0100
0010
,
0100
0000
0001
0000
1000
0000
0100
0010
,
0100
0000
1000
0000
0001
0000
0100
0001
,
0100
0000
0001
0000
1001
0000
1000
0100
,
1000
0010
0100
1001
,
0001
0000
0000
0000
0010
0000
0000
0001
0000
0000
0100
0000
0000
0000
0010
0000
,
0000
0000
0000
0000
1000
0000
0000
0000
0001
0000
0000
1000
0000
0000
0100
0000
,
0010
0000
0000
0000
0100
0000
0000
1000
0000
0000
0010
0000
0000
0000
0100
0000
,
0000
0000
0000
0000
0001
0000
0000
0000
0010
0000
0000
0100
0000
0000
0010
0000
,
0001
0000
0000
0000
0100
0000
0000
0010
0000
0000
1000
0000
0000
0000
0001
0000
,
0000
0000
0010
0000
0000
0100
0000
0010
,
0001
0000
0000
0000
0100
0000
0000
0010
0000
0000
1000
0000
0000
0000
0001
0000
,
0000
0000
0000
0000
1000
0000
0000
0100
0000
0000
0010
0000
0100
0000
1000
0000
,
0001
0000
0001
0000
0100
0000
0000
0001
0000
0000
1000
0000
0000
0000
0010
0000
,
0000
0000
0000
0000
0100
0000
0000
0001
0000
0000
0010
0000
0000
0000
0100
0000
,
1000
0000
0000
0000
0010
0000
0000
1000
0000
0000
0001
0000
0000
0000
0010
0000
,
0000
0000
0000
0000
0010
0000
0000
0000
0100
0000
0000
0010
0000
0000
0001
0000
,
0100
0100
0100
0000
0010
1000
0001
0010
,
0100
0100
0100
0000
0010
0001
1000
0010
,
0200
0302
2003
3200
,
0300
0010
0000
0010
0000
0001
0000
0001
0000
1000
0001
0000
0100
0000
0100
0000
,
0010
0010
1000
1000
,
0001
0000
0001
0010
,
0100
0010
0001
0100
,
0010
0000
1000
0001
,
1001
0000
0000
0000
0000
0000
0000
0001
0000
0000
0001
0000
0000
0000
0000
0000
,
0000
0100
0000
0000
0000
0010
0000
1000
,
0002
0000
0000
0003
,
0000
1000
0000
0100
0000
0000
0010
0000
0001
0000
0100
0000
0010
0000
1000
0000
,
0000
0001
0000
0000
1000
0000
0000
0001
0000
0000
1000
0000
0000
0000
0000
0000
,
0000
0100
0000
0000
0010
0000
0000
0100
0000
0000
0010
0000
0000
0000
0000
0000
,
0000
0001
0000
0000
0100
0000
0000
0001
0000
0000
0100
0000
0000
0000
0000
0000
,
0000
0010
0000
1000
0000
0000
0010
0000
1000
0000
0010
0000
0000
0000
0000
0000
,
1000
0100
1000
0010
,
1000
0000
0100
0000
0000
0010
0000
0010
,
0001
0100
0001
0010
,
0001
0000
0000
0000
0100
0000
0000
0000
0000
0000
0010
0000
0000
0010
0000
0000
,
1000
0100
0010
0001
,
1000
0000
0100
0000
0000
0010
0000
0010
,
0001
0100
0010
1000
,
0001
0000
0000
0000
0100
0000
0000
0000
0000
0000
0010
0000
0000
0010
0000
0000
,
1000
1000
0000
0001
,
0000
1000
0000
0001
,
0000
0100
0000
0010
,
0000
0100
0000
0000
,
0000
0010
0000
1000
,
0000
0001
0000
0010
,
0000
0100
0000
0010
,
0001
0000
0000
0001
0000
0000
0001
0000
0000
0000
1000
0000
0000
0010
0000
0000
;

//--------------- dance-single - forcednature ----------------
#NOTES:
     dance-single:
     forcednature:
     Hard:
     12:
     0,0,0,0,0:
0000
0000
0000
0000
,
0000
0000
0000
0000
,
0000
0000
0000
0000
,
0000
0000
0000
0000
,
0000
0000
0000
0000
,
0001
0100
0010
1000
,
0001
0000
1000
0000
0100
0000
0010
0010
,
0010
0001
0100
0010
,
1000
0000
0000
0000
0001
0000
0000
0001
0100
0000
0100
0000
0100
0000
0000
0000
,
0010
1000
0001
0100
0001
1000
0010
0000
,
1000
0100
0010
0001
,
0100
0001
1000
0010
1000
0001
0010
0000
,
0100
0000
0001
0000
0100
0000
1000
1000
,
1000
0010
1000
0001
0010
0001
0100
0000
,
0010
0000
1000
0000
0001
0000
0010
0010
,
0010
0100
1000
0010
0100
0001
0010
0000
,
1001
0000
1000
0000
0001
0000
0100
0100
,
0000
0001
0000
0000
1000
0000
0000
0100
0000
0000
0010
0000
0100
0000
0100
0000
,
0000
1000
0000
0000
0001
0000
0000
0100
0000
0000
0010
0000
0100
0000
0100
0000
,
0000
0001
0000
0000
1000
0000
0000
0100
0000
0000
0010
0000
0001
0000
0001
0000
,
0000
0100
0000
0100
0000
0010
1000
0000
0100
0000
0100
0000
0000
0000
0000
0000
,
1001
0000
0000
0000
0001
0000
0000
0100
0000
0000
0001
0000
0000
0000
1000
0000
,
0000
0000
0000
0000
0010
0000
0000
1000
0000
0000
0100
0000
0000
0000
0100
0000
,
0010
0000
0000
0000
0001
0000
0000
0100
0000
0000
0001
0000
0000
0000
1000
0000
,
0000
0000
0000
0000
0010
0000
0000
0100
0000
0000
0001
0000
0000
0000
0001
0000
,
0010
0000
0000
0000
0100
0000
0000
1000
0000
0000
0001
0000
0000
0000
1000
0000
,
0000
0000
0000
0000
0010
0000
0000
0100
0000
0000
0001
0000
0000
0000
0001
0000
,
0010
0000
0000
0000
0100
0000
0000
0010
0000
0000
0001
0000
0000
0000
0100
0000
,
0000
0000
0000
0000
0010
0000
0000
1000
0000
0000
0001
0000
0000
0000
1000
0000
,
0200
0010
0010
0010
,
0010
0000
0010
0000
0010
0000
0310
0100
,
2000
0001
0001
0001
,
0001
0000
0001
0000
0001
0000
3001
1000
,
0020
0100
0100
0100
,
1000
0000
1000
0000
1000
0000
1030
0001
,
0010
0100
1001
0010
,
2002
0000
0000
0000
3003
0000
0000
0000
0001
0100
0000
0010
1000
0000
0000
0000
,
0100
0010
0100
1000
0010
0100
0001
0000
,
0010
0000
0100
0000
0010
0000
0001
0000
0100
0000
0000
0010
0000
0000
1000
0000
,
0001
1000
0100
0010
0001
0100
0010
0000
,
1000
0001
0010
0001
0100
0010
1000
0000
,
0100
0010
0100
1000
0010
0100
0001
0000
,
0010
0001
0100
0010
1000
0001
0010
0000
,
0100
1000
0001
1000
0010
0100
0001
1000
,
0100
0010
0001
0100
0010
1000
0001
1000
,
0010
0100
0001
0010
0100
0010
0001
0000
,
0100
0000
0010
0000
1000
0000
0001
0000
0010
0000
0000
0100
0000
0000
0010
0000
,
0001
1000
0010
1000
0001
0100
0001
0000
,
1000
0000
0100
0000
0010
0000
0001
0000
0010
0000
0000
0100
1000
0000
1000
0000
,
0010
0010
1000
1000
0001
0001
0010
0010
,
0100
0100
0010
0010
0001
0001
1000
1000
,
0010
0100
0010
0100
0001
1000
0001
1000
,
0000
0100
0000
0010
0000
0100
0000
0010
0000
0001
1000
0000
0001
1000
0001
0000
,
0100
0001
1000
0010
,
0100
0001
1000
0010
,
1000
0100
0010
0001
,
1000
0100
0010
0001
,
0110
0000
0000
0000
0000
0000
0000
0001
0000
0000
1000
0000
0000
0000
0000
0000
,
0000
0010
0000
0000
0000
0100
0000
0001
,
1000
0000
0000
0000
,
1000
0100
0000
0100
0000
0000
0010
0000
0001
0000
0100
0000
0010
0000
0000
0000
,
0000
1000
0000
0000
0001
0000
0000
0100
0000
0000
0010
0000
1000
0000
0001
0000
,
0000
0010
0000
0000
0100
0000
0000
1000
0000
0000
0010
0000
0100
0000
0001
0000
,
0000
1000
0000
0000
0100
0000
0000
1000
0000
0000
0001
0000
0100
0000
0001
0000
,
0000
0010
0000
0100
0000
0010
0001
0000
0100
0000
0010
0000
0000
0000
0000
0000
,
1001
0000
0000
1000
0000
0000
0010
0000
0100
0000
0000
0001
0000
0000
0010
0000
,
0100
0000
0000
0010
0000
0000
0001
0000
0000
0000
0100
0000
0000
0000
0010
0000
,
1000
0000
0000
0001
0000
0000
1000
0000
0100
0000
0000
0010
0000
0000
0100
0000
,
1000
0000
0000
0001
0000
0000
0100
0000
0000
0000
0010
0000
0000
0010
0000
0000
,
1000
0000
0000
0001
0000
0000
0010
0000
0001
0000
0000
0100
0000
0000
0010
0000
,
1000
0000
0000
0100
0000
0000
0010
0000
0000
0000
0100
0000
0000
0000
1000
0000
,
0001
0000
0000
1000
0000
0000
0010
0000
0100
0000
0000
0001
0000
0000
0010
0000
,
0100
0000
0000
0010
0000
0000
0001
0000
0000
0000
1000
0000
0000
0010
0000
0000
,
1000
0000
0000
1000
0000
0000
0000
0000
0001
0000
0000
0001
0000
0000
0000
0000
,
0100
0000
0000
0100
0000
0000
0100
0000
0000
0000
0010
0000
0000
0000
0010
0000
,
1000
0000
0000
1000
0000
0000
0000
0000
0001
0000
0000
0001
0000
0000
0000
0000
,
0010
0000
0000
0010
0000
0000
0010
0000
0000
0000
0100
0000
0000
0100
0000
0000
,
1000
0000
0000
1000
0000
0000
0000
0000
0001
0000
0000
0001
0000
0000
0000
0000
,
0100
0000
0000
0100
0000
0000
0100
0000
0000
0000
0010
0000
0000
0000
0010
0000
,
1000
0000
0000
1000
0000
0000
0000
0000
0001
0000
0000
0001
0000
0000
0000
0000
,
0010
0000
0000
0010
0000
0000
0010
0000
0000
0000
0100
0000
0000
0100
0000
0000
;

//--------------- dance-single - forcednature ----------------
#NOTES:
     dance-single:
     forcednature:
     Challenge:
     15:
     0,0,0,0,0:
0000
0000
0000
0000
,
0000
0000
0000
0000
,
0000
0000
0000
0000
,
0000
0000
0000
0000
,
0000
0000
0000
0000
,
0001
0100
1000
0100
,
0010
0000
1000
0000
0001
0000
0010
0100
,
0010
0001
0100
0010
,
1000
0000
0000
0000
0100
0000
0000
0010
0001
0000
0001
0000
0001
0000
0000
0000
,
0100
0000
0001
1000
0000
0100
0000
0010
0000
0000
0100
1000
0000
0010
0000
0100
,
0000
0000
0001
0000
0010
0000
0001
0100
,
0000
0000
0010
1000
0000
0001
0000
1000
0000
0000
0100
0010
0000
0001
0000
1000
,
0000
0000
0000
0000
0010
0000
0000
0000
0100
0000
0000
0001
1000
0000
0100
0000
,
0000
0000
0010
0000
0001
0100
0000
0001
0000
0000
1000
0000
0010
1000
0000
0100
,
0000
0000
0010
0000
0100
0000
1000
0001
,
0000
0000
0100
0000
0001
1000
0000
0010
0000
0000
1000
0000
0001
0010
0000
0100
,
0020
0000
0000
0000
0100
0000
0000
0000
0100
0000
0000
0031
1000
0001
1000
0001
,
0000
0101
0000
0000
1001
0000
0000
1100
0000
0000
0011
0000
0001
0000
1000
0001
,
0000
1010
0000
0000
1001
0000
0000
0101
0000
0000
1001
0000
1000
0000
1000
0100
,
0000
0110
0000
0000
0011
0000
0000
1001
0000
0000
0101
0000
0010
0000
0010
1000
,
0000
1001
0000
1100
0000
0001
0100
0000
1001
0000
0101
0000
0000
0000
0000
0000
,
1001
0000
0000
0000
1000
0000
0000
0100
0000
0000
0010
0000
0000
0000
0100
0000
,
0000
0000
0000
0000
1000
0000
0000
0001
0000
0000
0100
0000
0000
0000
0010
0000
,
1000
0000
0000
0000
0001
0000
0000
0010
0000
0000
0100
0000
0000
0000
0010
0000
,
0000
0000
0000
0000
0001
0000
0000
0100
0000
0000
0010
0000
0000
0000
1000
0000
,
0001
0000
0000
0000
0010
0000
0000
0100
0000
0000
0010
0000
0000
0000
0001
0000
,
0000
0000
0000
0000
0100
0000
0000
1000
0000
0000
0100
0000
0000
0000
0010
0000
,
1000
0000
0000
0000
0001
0000
0000
1000
0000
0000
0100
0000
0000
0000
0010
0000
,
0000
0000
0000
0000
0100
0000
0000
0001
0000
0000
0100
0000
0000
0000
0010
0001
,
0010
0010
0010
0010
,
0010
0000
0000
0000
0010
0000
0000
0000
0010
0000
0000
0000
0010
0000
0100
1000
,
0010
0010
0010
0010
,
0010
0000
0000
0000
0010
0000
0000
0000
0010
0000
0100
0000
0010
0000
0100
0001
,
0010
0000
0000
0000
0010
0000
0000
0000
0010
0000
0000
0000
0010
0000
0100
1000
,
0010
0000
0000
0000
0010
0000
0000
0000
0010
0000
0000
0000
0010
0000
0100
0001
,
0010
0000
0000
0000
1001
0000
0100
0010
,
1001
0000
0000
0000
0000
0000
0000
0000
0001
0100
0000
0010
1000
0010
0000
0000
,
1000
0000
0000
0100
1000
0000
0000
0100
0010
0000
0001
0000
0100
0000
0010
0000
,
1000
0000
0000
0001
0100
0000
0000
0001
0010
0000
0100
0010
0000
0001
0100
0010
,
1000
0000
0000
0100
0010
0000
0000
0001
1000
0000
0010
0000
0100
0000
0001
0000
,
0010
0000
0000
0100
1000
0000
0000
0010
1000
0010
0000
0100
0001
0000
0001
0000
,
0001
0000
0000
0001
0010
0000
0000
0010
0100
0000
1000
0000
0010
0000
0100
0000
,
0001
0000
0000
1000
0100
0000
0000
0010
0001
0100
0000
0010
1000
0000
0001
0000
,
1000
0000
0000
0010
0100
0000
0000
0001
0010
0000
0100
0000
0010
0000
0001
0000
,
0100
0000
0000
0010
1000
0000
0000
0001
0010
0100
0010
0001
0100
0000
0100
0001
,
0100
0000
0100
0000
0100
0000
0000
0010
1000
0000
0100
0000
0010
0000
0100
0000
,
1000
0000
0000
0010
0100
0000
0000
0001
0010
0001
0000
0100
0010
0000
1000
0000
,
0001
0000
0001
0000
0001
0000
0000
1000
0010
0000
0000
1000
0100
0000
0010
0000
,
0001
0000
0100
0000
0010
0000
0000
1000
0001
1000
0000
0100
0010
0000
0010
0000
,
0001
0001
0001
0001
1000
1000
1000
1000
,
0010
0000
0010
0000
0010
0000
0010
0000
0100
0001
0100
0000
0100
0000
0100
0000
,
0010
1000
0010
0000
0100
0000
0001
0000
1000
0100
1000
0000
0010
0000
0100
0000
,
0000
0001
0000
0010
0000
1000
0000
0010
0000
0100
1000
0000
0001
0100
0001
0000
,
1001
1000
0100
0010
,
0001
0000
0100
0000
0010
0000
1000
0001
,
1000
0010
0100
0001
,
0010
0000
0000
0000
0100
0000
0000
0100
1000
0000
0000
1000
0010
0000
0100
0000
,
0010
0000
0000
0000
0100
0000
0000
0101
0000
0000
1001
0000
0000
0000
0000
0000
,
0010
0000
0100
0000
0000
0000
0000
0000
0000
0001
1000
0000
0000
0000
0100
0000
,
1001
0000
0000
0000
0010
0000
0000
0010
0000
0000
0010
0000
0000
0000
0100
0000
,
1000
0010
0000
0100
0000
0000
0001
0000
0001
0000
0001
0000
0010
0001
0010
0001
,
0000
0101
0000
0000
1001
0000
0000
1100
0000
0000
0110
0000
0010
0000
0010
0001
,
0000
0101
0000
0000
1001
0000
0000
1010
0000
0000
1001
0000
1000
0000
1000
0100
,
0000
0110
0000
0000
1100
0000
0000
0101
0000
0000
0110
0000
0001
0000
0001
1000
,
0000
1010
0000
0011
0000
0001
1000
0000
1010
0000
0101
0000
0000
0000
0000
0000
,
0001
0000
0100
0001
0000
1000
0010
0000
1000
0000
0100
0010
0000
0100
1000
0000
,
0010
0000
0100
0001
0000
0010
0100
0000
0010
0001
0010
0000
0100
0000
1000
0000
,
0010
0000
0100
0001
0000
1000
0010
0000
1000
0000
0100
0010
0000
0100
1000
0000
,
0010
0000
0100
0001
0000
0010
0001
1000
0010
1000
0000
1000
0100
0000
0010
0000
,
0001
0000
0100
0010
0000
1000
0001
0000
1000
0000
0100
1000
0000
0010
0100
0000
,
0001
0000
0010
0001
0000
0100
0010
0000
1000
0100
1000
0000
0010
0000
0100
0000
,
0001
0000
0010
0100
0000
0010
0001
0000
0100
0000
0010
1000
0000
0001
1000
0000
,
1001
0000
0000
0000
0001
0000
0000
0100
0010
0000
1000
0000
0001
0000
1000
0000
,
1100
0000
0000
1000
0000
0000
0001
0000
0100
0000
0000
0100
0000
0000
0001
0000
,
1000
0000
0000
1000
0000
0000
0010
0000
0000
0000
0100
0000
0000
0000
0100
0000
,
0001
0000
0000
0001
0000
0000
0010
0000
0100
0000
0000
0100
0000
0000
0010
0000
,
0001
0000
0000
0001
0000
0000
1000
0000
0000
0000
0010
0000
0000
0010
0000
0000
,
0100
0000
0000
0100
0000
0000
0001
0000
1000
0000
0000
1000
0000
0000
0100
0000
,
0010
0000
0000
0010
0000
0000
0100
0000
0000
0000
1000
0000
0000
0000
1000
0000
,
0010
0000
0000
0010
0000
0000
0010
0000
0100
0000
0000
0100
0000
0000
0100
0000
,
0001
0000
0000
0001
0000
0000
1000
0000
0000
0000
0100
0000
0000
0010
0000
0000
;
