#TITLE:tsunashimaEVOLVED ver. A;
#SUBTITLE:;
#ARTIST:Yamajet;
#TITLETRANSLIT:;
#SUBTITLETRANSLIT:;
#ARTISTTRANSLIT:;
#GENRE:;
#CREDIT:;
#MUSIC:tsunashimaEVOLVED ver. A.mp3;
#BANNER:;
#BACKGROUND:;
#CDTITLE:;
#SAMPLESTART:102.427;
#SAMPLELENGTH:6.400;
#SELECTABLE:YES;
#OFFSET:1.573;
#BPMS:0.000=150.000
,80.000=300.000
,81.000=150.000
,96.000=300.000
,97.000=150.000
,111.750=300.000
,113.000=150.000
,205.000=300.000
,209.000=150.000
,221.000=300.000
,225.000=150.000
,237.000=300.000
,241.000=150.000
,271.000=300.000
,272.000=150.000
,287.000=300.000
,288.000=150.000
,303.000=300.000
,304.000=150.000
,318.750=300.000
,320.000=150.000
;
#STOPS:64.000=1.200
,80.000=0.100
,80.500=0.100
,96.000=0.100
,96.500=0.100
,111.750=0.150
,112.500=0.100
,205.000=0.100
,205.500=0.100
,206.000=0.100
,206.500=0.100
,207.000=0.100
,207.500=0.100
,208.000=0.100
,208.500=0.100
,221.000=0.100
,221.500=0.100
,222.000=0.100
,222.500=0.100
,223.000=0.100
,223.500=0.100
,224.000=0.100
,224.500=0.100
,237.000=0.100
,237.500=0.100
,238.000=0.100
,238.500=0.100
,239.000=0.100
,239.500=0.100
,240.000=0.100
,240.500=0.100
,269.750=0.200
,271.000=0.400
,287.000=0.100
,287.500=0.100
,303.000=0.100
,303.500=0.100
,318.750=0.150
,319.500=0.100
;
#DISPLAYBPM:150.000;
#LASTBEATHINT:1.422500;
#BGCHANGES:;
#FGCHANGES:;

//--------------- dance-single - about-blank ----------------
#NOTES:
     dance-single:
     about-blank:
     Beginner:
     3:
     0,0,0,0,0:
0000
0000
0000
0000
,
0000
0000
0000
0000
,
0000
0000
0000
0000
,
0000
0000
0000
0000
,
0000
0000
0000
0000
,
1000
0000
0000
0000
,
0000
0000
0000
0000
,
0001
0000
0000
0000
,
0000
0000
0000
0000
,
0100
0000
0000
0000
,
0000
0000
0000
0000
,
0010
0000
0000
0000
,
0000
0000
0000
0000
,
1000
0000
0000
0000
,
0000
0000
0000
0000
,
0001
0000
0000
0000
,
0010
0001
0000
0001
,
0000
1000
0000
0000
,
0000
0010
0000
0010
,
0000
0100
0000
0000
,
0000
0001
0000
0001
,
0000
0100
0000
0000
,
0000
1000
0000
1000
,
0000
0010
0000
0000
,
0000
0100
0000
0100
,
0000
0100
0000
0000
,
0000
0010
0000
0010
,
0000
0010
0000
0000
,
0000
0001
0000
0001
,
0000
0001
0000
0000
,
0000
1000
0000
1000
,
0000
1000
0000
0000
,
0000
0010
0000
1000
,
0000
0100
0000
0000
,
0000
0010
0000
0001
,
0000
0100
0000
0000
,
0000
1001
0000
0000
,
0000
0110
0000
0000
,
0000
0001
0000
1000
,
0000
0001
0000
0000
,
0000
1000
0000
0100
,
0000
0010
0000
0000
,
0000
0001
0000
0010
,
0000
0100
0000
0000
,
0000
1001
0000
0000
,
0000
0110
0000
0000
,
0000
0010
0000
1000
,
0000
0100
0000
0000
,
0000
0001
0000
0100
,
0000
1000
0000
0100
,
0000
0001
0000
0100
,
0000
1000
0000
0000
,
0000
0001
0000
0010
,
0000
1000
0000
0010
,
0000
0001
0000
0010
,
0000
1000
0000
0000
,
0000
0001
0000
0000
,
0100
0000
1000
0000
,
0100
0000
0001
0000
,
0100
0000
0000
0000
,
0000
1000
0000
0000
,
0010
0000
0001
0000
,
0010
0100
0000
0000
,
0000
0000
0000
0000
,
0000
1000
1000
1000
,
0000
0001
0001
0001
,
0000
1000
1000
1000
,
0000
1001
0000
0000
,
0001
0000
0010
0000
,
0100
0000
0000
0000
,
1000
0000
0100
0000
,
0010
0000
0010
0000
,
0001
0000
1000
0000
,
0010
0000
0000
0000
,
1000
0000
0001
0000
,
0010
0000
0010
0000
,
0100
0000
0100
0000
,
0100
0000
0000
0000
,
0010
0000
0010
0000
,
0010
0000
0000
0000
,
0001
0000
0001
0000
,
0001
0000
0000
0000
,
1000
0000
1000
0000
,
1001
0000
0000
0000
;

//--------------- dance-single - about-blank ----------------
#NOTES:
     dance-single:
     about-blank:
     Easy:
     6:
     0,0,0,0,0:
0000
0000
0000
0000
,
0000
0000
0000
0000
,
0000
0000
0000
0000
,
0000
0000
0000
0000
,
0000
0000
0000
0000
,
1000
0000
0000
0000
,
0000
0000
0000
0000
,
0001
0000
0000
0000
,
0000
0000
0000
0000
,
0110
0010
0010
0000
,
1000
1000
1000
0000
,
1001
0001
0001
0000
,
0100
0100
0100
0000
,
0011
0100
1000
0000
,
1010
0100
0001
0000
,
1000
0001
1000
0001
,
1000
0010
0100
0001
,
0010
0100
1000
0001
,
0001
1000
0100
0010
,
0001
0100
0010
1000
,
0000
0001
0010
0100
,
0010
0001
0100
0010
,
1000
0100
0010
0100
,
1000
0010
0100
0001
,
0000
1000
0100
0001
,
0100
1000
0100
0010
,
0000
0001
0100
1000
,
0100
0001
0100
0010
,
0000
1000
0010
0001
,
0010
1000
0100
0010
,
0000
0001
0010
1000
,
0010
1001
0000
0000
,
0000
0010
0010
0100
,
0000
0001
1000
0001
,
0000
1000
0100
1000
,
0000
0010
0000
0010
,
0100
0001
0010
0100
,
0000
1000
0010
0100
,
0000
0001
0000
0001
,
0000
0001
1000
0001
,
0010
0100
1000
0010
,
0000
0100
0001
0010
,
0000
0100
1000
0100
,
0010
0001
0000
1001
,
0000
0101
0100
0010
,
0000
1000
0010
0100
,
1000
0001
0010
1000
,
0000
1000
0100
0001
,
0000
0110
0000
0001
,
0000
1000
0001
1000
,
0000
0010
0000
1000
,
0000
0100
0100
0100
,
0000
0010
0000
0001
,
0000
0100
1000
0100
,
0000
0001
0000
0010
,
0000
0100
1000
0100
,
0000
1010
0000
0001
,
0000
1100
0000
0010
,
0000
1001
0000
0110
,
0000
0001
0010
0001
,
0000
0011
0000
0100
,
0000
1010
0000
0100
,
0000
1001
0000
0000
,
0000
1000
0001
1000
,
0000
0010
0010
0010
,
0000
0100
0100
0100
,
0000
0001
1000
0001
,
0000
0000
1000
0000
0000
1001
0000
0000
,
0001
0010
0001
0010
,
0100
1000
0001
0000
,
1000
0010
1000
0010
,
0100
0001
0100
0010
,
0010
1000
0100
0010
,
0001
0100
0010
0000
,
1000
0010
0100
0001
,
1000
0100
1000
1000
,
0001
0010
0100
0000
,
1000
0010
0100
0000
,
0001
0100
0010
0000
,
1000
0100
0010
0000
,
0001
1000
0010
0000
,
0100
0000
0100
0000
,
0001
1000
0100
0010
,
0001
0100
0010
1000
,
1001
0000
0000
0000
;

//--------------- dance-single - about-blank ----------------
#NOTES:
     dance-single:
     about-blank:
     Medium:
     9:
     0,0,0,0,0,0,0,0,0,0,0,0,0,0,0,0,0,0,0,0,0,0:
0000
0000
0000
0000
,
0000
0000
0000
0000
,
0000
0000
0000
0000
,
0000
0000
0000
0000
,
0000
0000
0000
0000
,
1000
0000
1000
0000
,
0010
0000
0010
0000
,
0100
0000
0100
0000
,
0001
0000
1000
0001
,
0011
0010
0010
0010
,
0100
0000
0100
0000
0100
0000
0100
0001
,
1000
1000
1000
1000
,
0010
0000
0010
0000
0010
0000
0010
0001
,
0100
0000
0100
0000
0100
0000
0100
1000
,
0010
0000
0010
0000
0010
0000
0010
1000
,
0001
0000
0010
0001
1000
0000
0010
1000
,
1001
0001
0001
0100
,
0100
0000
1000
0000
1000
0000
0010
0100
,
1000
0100
0010
0000
0010
0000
1000
0000
,
1000
0000
0100
0000
0100
0000
0100
0010
,
0001
0010
0001
0000
0001
0000
1000
0000
,
1000
0000
0010
0000
0010
0000
0100
0001
,
0010
0001
0100
0000
0100
0000
0001
0000
,
0001
0000
0010
0000
0010
0000
0001
0100
,
0001
0100
0010
0000
0010
0000
1000
0000
,
1000
0100
0100
0001
,
0001
0010
0010
0001
,
0001
0000
0000
0000
0100
0000
0000
0000
0100
0000
0000
0000
1001
0000
0000
0001
,
0000
1000
0010
0000
0010
0000
1000
0000
,
1000
0100
0100
0001
,
0001
0100
0100
1000
,
1000
0000
0000
0000
0010
0100
0000
0000
0001
0000
1000
0000
0001
0000
0000
0000
,
0110
1001
0001
0100
,
1000
0000
0100
0000
0010
0000
1000
0100
,
0010
0100
1000
1000
,
0001
0000
0100
0000
1000
0000
0100
0010
,
0100
1000
0100
0001
,
0001
0000
0100
0000
0010
0000
0001
1000
,
0001
0000
0010
0000
0100
0000
0010
0010
,
0010
0001
1000
0100
,
0100
0010
1001
0000
0001
0000
1000
0000
,
0010
0000
0100
0000
1000
0000
0001
0010
,
0001
0010
1000
0100
,
0010
0000
0100
0000
0100
0000
1000
0001
,
1000
0010
0100
0001
,
0010
0001
1000
0100
,
0010
0100
1000
0000
1000
0000
0001
0000
,
0001
0000
0101
0000
1100
0000
0001
0010
,
0100
1000
0100
0000
,
0100
1000
0010
0000
,
0010
1000
0001
0000
0010
0000
0000
0000
,
0010
0000
0001
0010
0001
0010
0002
0000
,
0000
0013
0100
0000
,
0100
1000
0100
0000
,
0100
0010
0001
0000
,
0001
0000
1000
0010
1000
0010
2000
0000
,
0000
0000
3010
0000
0100
0000
0000
0010
,
0100
0000
0000
0000
0000
0000
0001
0000
1000
0000
0000
1000
0000
0000
0001
0000
,
1000
0000
0010
0000
0100
0000
0000
0010
,
0100
0000
0010
1000
0010
1000
0020
0000
,
0000
0000
0130
0000
0001
0000
1000
0100
,
0001
0000
0100
0000
1000
0000
0001
0100
,
1000
0220
0000
0000
,
0000
0000
0000
0330
,
0000
0000
0000
0000
0001
0100
0000
0000
0001
0000
0000
0000
0001
0000
0000
0000
,
0000
0000
0000
0000
1000
0010
0000
0000
1000
0000
0000
0000
1000
0000
0000
0000
,
0000
0000
0000
0000
0100
0010
0000
0000
0010
0000
0000
0000
0010
0000
0000
0000
,
0000
0000
0000
0000
0001
0010
0000
0010
0000
0000
0100
0000
0100
0000
0000
0000
,
1000
0001
1000
0100
,
0010
0000
0001
0000
0100
1000
0100
0000
,
0001
0010
0100
0010
,
0001
0000
1000
0000
0001
0100
0001
0100
,
0001
0010
0100
1000
,
0010
0000
1000
0000
0100
0010
0100
0000
,
1000
0010
0100
1000
,
0001
0000
0010
0000
1000
0001
1000
0001
,
1000
0100
0001
0010
,
1000
0100
0001
0010
,
1000
0010
0001
0100
,
1000
0000
0000
0000
0010
0000
0000
0000
0001
0000
0000
0001
0000
0000
0001
0000
,
1000
0010
0100
0100
,
0001
0010
0100
0100
,
1000
0010
0001
0010
,
1000
0100
0001
0100
,
1001
0000
0000
0000
;

//--------------- dance-single - about-blank ----------------
#NOTES:
     dance-single:
     about-blank:
     Hard:
     12:
     0,0,0,0,0,0,0,0,0,0,0,0,0,0,0,0,0,0,0,0,0,0:
0000
0000
0000
0000
,
0000
0000
0000
0000
,
0000
0000
0000
0000
,
0000
0000
0000
0000
,
0000
0000
0000
0000
,
1000
0000
0000
0000
,
0001
0000
0000
0000
,
0100
0000
0000
0000
,
0110
0000
0000
0000
,
1000
0000
1000
0000
1000
0000
1000
0001
,
1000
0000
1000
0000
1000
0000
1000
0100
,
0110
0000
0010
0000
0010
0000
0010
0001
,
0010
0000
0010
0000
0010
0000
0010
0001
,
1001
0000
0001
0000
0001
0000
0001
0100
,
0110
0000
0010
0000
0010
0000
0010
1000
,
1100
0000
1000
0100
0110
0000
0010
0001
,
1001
0000
0001
0000
0101
0000
1000
0100
,
0001
0100
1000
0000
1000
0000
0010
0100
,
0001
0000
0010
0000
0010
0000
0100
0010
,
0001
0100
0010
0000
0010
0000
1000
0001
,
1000
0001
0100
0000
0100
0000
0010
0100
,
1000
0100
0010
0000
0010
0000
1000
0001
,
1001
0000
0001
0000
0010
0000
0100
0010
,
0001
0010
0100
0000
0100
0000
1000
0010
,
1000
0010
0100
0001
0100
0000
0100
1000
,
0100
0000
0001
0010
0001
0000
0010
1000
,
0010
0000
0100
0010
0100
0000
0100
1000
,
0100
0000
0000
0000
0010
0000
0001
0000
0010
0000
0000
0000
0001
0000
0000
1000
,
0000
0001
0100
0010
0100
0000
0001
0010
,
0001
0000
1000
0010
1000
0000
1000
0100
,
1000
0000
0100
0010
0001
0000
0100
0010
,
1000
0000
0000
0000
0000
0001
0000
0100
0000
0001
0000
1000
0000
0000
0010
0000
,
0100
0001
0021
0000
0130
0000
1020
0000
,
0130
0000
0001
1000
0001
0000
0010
1000
,
0010
0100
1001
0010
,
1001
0000
0001
0100
1000
0000
0010
0000
,
0010
0000
1000
0000
1100
0000
0100
0010
,
0001
0000
0001
0000
0100
1000
0000
1000
,
0100
0000
0000
0000
0010
0000
0000
1000
0100
0000
0000
0000
0010
0000
0000
0001
,
0100
0000
0001
0010
1000
0000
1000
0010
,
0001
0000
0101
0000
0001
0000
1000
0010
,
0100
0000
1000
0100
0001
0000
0001
0010
,
1000
0010
1100
0010
,
0001
1000
0020
0000
0100
0000
0130
0000
,
1001
0000
0001
0000
0010
0000
0100
1000
,
0100
0020
0032
0203
,
2300
3010
0101
0010
,
1100
0000
0001
0001
0001
0000
1000
0100
,
0010
0000
0001
0000
0100
0000
0010
0100
,
1000
0000
1000
0100
0001
0000
0001
0010
,
0100
0000
0010
0000
1001
0000
1000
0010
,
0100
0000
0001
1000
0001
1000
0001
1000
,
0001
0000
0110
0000
0001
0000
1000
0010
,
0100
0000
0000
0000
1000
0000
0100
0000
0010
0000
0000
0010
0001
0000
1000
0000
,
0100
0000
0001
0020
0001
0030
1000
0010
,
1000
0000
0001
0100
0001
0100
0001
0100
,
0001
0000
1000
0000
0110
0000
0000
0001
,
0010
0000
0000
0100
1000
0000
1000
0100
,
0010
0000
1001
0000
0100
0000
0001
0010
,
0001
0000
1000
0100
1000
0100
1000
0100
,
1000
0000
0000
0000
1001
0000
0000
0000
0010
0000
0000
0100
0000
0000
0001
0000
,
1000
0000
0100
0010
0010
0000
0001
1000
,
0001
0220
0000
0000
,
0000
0000
0000
0330
,
0011
0000
0000
0000
0000
0001
0000
0000
0001
0000
0000
0001
0000
0000
0001
0000
,
1010
0000
0000
0000
0000
1000
0000
0000
1000
0000
0000
1000
0000
0000
1000
0000
,
1100
0000
0000
0000
0000
0100
0000
0000
0100
0000
0000
0100
0000
0000
0100
0000
,
0011
0000
0000
0000
0000
0010
0000
0010
0001
0000
1000
0000
0001
0000
0000
0000
,
0100
0000
0100
0000
0001
1000
0001
0000
,
0010
0000
0100
0000
1000
0100
0010
0100
,
1000
1000
0100
0100
,
0001
0000
0001
0000
0010
0001
1001
0000
,
0001
0000
0001
0000
0100
0010
0100
0000
,
0010
0000
0010
0000
1000
0100
0110
0000
,
0001
0000
0001
0000
1000
0001
0100
0000
,
0010
0000
0010
0000
1000
0010
0110
0000
,
0001
0100
0101
0000
1000
0010
1010
0000
,
0001
0100
0101
0000
1000
0010
1010
0000
,
0010
1000
1010
0000
0100
0001
0101
0000
,
0010
0000
1000
0000
1010
0000
0000
0000
1000
0000
0000
0001
0000
0000
0001
0000
,
0100
0001
0110
0000
0010
1000
0110
0000
,
0100
0001
0110
0000
0010
1000
0110
0000
,
0001
0010
1001
0000
1000
0100
1001
0000
,
1000
0000
0000
0100
0000
0000
0010
0000
0001
0000
0000
0100
0000
0000
0010
0000
,
0110
0000
0000
0000
;

//--------------- dance-single - about-blank ----------------
#NOTES:
     dance-single:
     about-blank:
     Challenge:
     15:
     0.703859,0.799318,0.394725,0.697817,0.704866,699,643,56,99,0,0,0.703859,0.799318,0.394725,0.697817,0.704866,699,643,56,99,0,0:
0000
0000
0000
0000
,
0000
0000
0000
0000
,
0000
0000
0000
0000
,
0000
0000
0000
0000
,
0000
0000
0000
0000
,
2000
0000
0000
0000
3001
0000
0000
0001
0000
0000
0001
0000
1000
0000
0020
0000
,
0000
0000
0030
0000
0100
0000
0000
0100
0000
0000
0100
0000
0000
0000
0001
0000
,
0020
0000
0000
0000
0130
0000
0000
1000
0000
0000
0001
0000
0100
0000
0020
0000
,
0000
0000
1030
0000
0001
0000
1000
0100
0000
1000
0100
0000
0000
0000
0110
0000
,
0012
0000
1003
0000
0010
0000
1000
0001
,
0200
0000
0000
0000
0301
0000
0000
0001
0000
0000
0001
0000
0100
0000
0010
0000
,
2001
0000
3010
0000
0100
0001
1000
0010
,
0200
0000
0000
0000
0310
0000
0000
0010
0000
0000
0010
0000
1000
0000
0001
0000
,
1200
0000
0310
0000
0001
1000
0001
0100
,
0021
0000
0000
0000
0130
0000
0000
0000
1000
0000
0000
0001
0000
0000
0100
0000
,
0010
0000
0100
0000
0010
0000
0100
0000
0001
1000
0001
1000
0001
1000
0001
1000
,
0001
0000
0000
0000
0101
0000
0000
0100
1000
0000
0100
0000
0020
0000
0000
2030
,
0000
0000
3002
0000
1003
0100
0000
1000
0100
0000
0010
0000
0001
1000
0001
0000
,
0100
0000
0100
0000
0010
0000
0000
0010
1000
0000
0001
0000
2000
0000
0000
3200
,
0000
0000
0302
0000
0103
1000
0000
0100
0010
0000
0001
0000
0100
0001
0100
0000
,
0010
0000
0010
0000
1000
0000
0000
0010
0100
0000
0001
0000
0020
0000
0000
0230
,
0000
0000
2300
0000
3001
0010
0000
0001
0010
0000
1000
0000
0001
0100
0010
0000
,
0010
0000
0001
0000
1000
0000
0000
0010
0001
0000
1000
0000
0200
0000
0000
0302
,
0000
0000
0023
0000
0130
1000
0000
1000
0001
0000
0010
0001
0010
0100
0000
1000
,
0100
0000
0010
0000
0001
0100
0000
0010
0000
0010
1000
0000
0002
0000
0023
0000
,
0230
0000
2300
0000
3010
1000
0000
0001
0000
0001
0100
0000
0020
0000
2030
0000
,
3200
0000
0320
0000
0031
0100
0000
0001
0000
0001
1000
0000
0200
0000
2300
0000
,
3002
0000
2003
0000
3010
0100
0000
0001
0000
0100
0010
1000
0100
0010
0001
1000
,
0000
0000
1001
0000
0001
0010
0000
0100
0000
0100
1000
0000
0020
0000
0032
0000
,
2003
0000
3020
0000
0130
0001
0000
1000
0000
1000
0010
0000
0200
0000
2300
0000
,
3002
0000
0023
0000
1030
0100
0000
0100
0000
0010
0001
0000
0100
0001
0100
0010
,
0000
1000
0010
0000
2000
0001
0000
0001
0000
3001
0000
1001
0000
1000
0001
0000
,
0010
0100
0101
0200
1300
0000
1010
0020
,
0031
0000
0000
0000
0001
1000
0001
0000
0100
0000
0000
0100
0010
0000
1000
0000
,
0001
0000
0000
0000
0011
0000
0000
1000
0010
0000
0200
0000
1000
0000
0000
0000
,
0301
0000
0010
0000
0200
0000
0000
0001
0000
0000
1300
0000
0000
0000
0010
0000
,
0010
0100
0000
0000
1001
0000
0020
0000
1030
0000
0000
0000
1001
0000
0200
0000
,
0301
0000
0000
0000
1000
0010
1000
0000
0001
0000
0010
0100
0000
0000
1000
0000
,
0000
0001
0100
0000
0002
0000
0003
0020
0000
0030
0200
0000
1300
0000
1000
0000
,
0001
0000
0001
0000
0200
0000
0300
0002
0000
0003
2000
0100
3000
0100
0002
0000
,
1003
0010
0101
0020
0001
0030
1010
0200
,
1000
0000
0300
0000
0011
0000
0001
0010
1000
0000
0000
0001
0100
0000
1000
0000
,
1100
0000
0000
0000
0110
0000
0000
1000
0020
0000
0001
0000
0031
0000
0000
0000
,
1000
0000
0200
0000
0001
0000
0000
1000
0000
0000
0310
0000
0000
0000
0101
0000
,
0000
1100
0000
0000
0110
0000
0001
0000
0100
0000
0000
0000
1001
0000
0001
0010
,
0000
0000
0100
0010
2000
0000
3000
1000
0020
0000
0030
0010
0002
0000
0003
0001
,
0200
0000
1300
0000
0001
0010
0000
0010
1000
0000
0001
0000
1000
0100
0000
0100
,
0001
0000
1000
0000
0020
0000
0000
0001
0000
0000
1030
0000
0001
0000
0100
0000
,
0010
0001
1000
0000
1010
0000
0000
0000
0011
0000
0100
1000
0000
0000
0010
0000
,
1001
0000
0010
0000
0000
0000
0100
0000
1001
0000
0000
0001
0000
0001
0100
0000
,
0000
0100
0001
0000
1001
0000
0000
1000
0100
0000
0100
0000
0010
0000
0001
0000
,
0010
1000
0001
0001
0100
0100
1000
1000
,
0010
0010
1001
0000
0001
1000
0020
0000
,
0130
0000
0001
1000
0001
0000
0010
0000
0100
0000
0000
1000
0001
0000
1000
0000
,
0100
0000
0100
0010
0000
0000
1002
0000
0000
0000
0103
0010
0100
0000
0001
0000
,
1000
0010
0100
0100
0001
0001
1000
1000
,
0010
0000
0010
0000
1001
0000
0000
0000
0011
0000
0000
0110
0000
0000
1100
0000
,
0101
0000
0000
0000
0000
0000
0010
0000
1100
0000
0000
0010
0000
0100
0010
0000
,
2000
0001
0000
3000
0110
0000
0000
1000
0100
0000
0000
0100
0010
0000
0001
0000
,
1010
0001
0010
0010
0100
0100
1000
1000
,
0010
0000
0010
0000
0101
0000
0000
0000
0001
1000
0100
0000
0010
0000
0011
0000
,
0000
0000
1010
0000
0000
0000
0001
0000
0100
0000
0000
0010
1000
0000
1000
0000
,
0001
0000
0010
0100
2000
0000
0001
0000
0000
0001
0000
0000
0001
0000
0000
0001
,
0000
0000
3001
0000
0000
0110
0000
1001
0000
0001
0100
0000
1010
0000
1001
0000
,
0001
0010
0001
0010
0200
1000
0300
0200
1000
0300
0200
1000
0300
0200
1000
0300
,
0011
0000
0010
0000
0020
0001
0030
0020
0001
0030
0020
0001
0030
0020
0001
0030
,
0101
0000
0100
0000
0200
0001
0300
0200
1000
0300
0200
0001
0300
0200
1000
0300
,
1010
0000
0010
0000
0020
1000
0030
1000
0110
0000
0011
0000
1001
0000
0000
0000
,
0101
0000
0000
1000
0100
0000
0001
0000
0200
0000
0000
2300
0000
0000
3020
0000
,
0130
0001
0000
0100
0001
0000
1000
0000
0001
0010
0001
0000
0100
0000
0100
0000
,
0010
0000
0000
0010
1000
0000
0001
0000
2000
0000
0000
3200
0000
0000
0320
0000
,
0031
1000
0000
0010
0100
0000
0010
0001
0010
0100
0000
0001
1000
0000
0010
0000
,
1010
0000
0000
0001
1000
0000
0010
0000
0200
0000
0000
0320
0000
0000
0032
0000
,
1003
0100
0000
1000
0100
0000
0001
0000
0010
0100
0010
0000
0100
0000
1000
0000
,
0001
0000
0000
0001
1000
0000
0010
0000
0200
0000
0000
0302
0000
0000
2003
0000
,
3010
0100
0000
0010
1000
0000
0001
0010
0100
0010
0000
0010
0001
0000
1000
0000
,
0010
1000
0000
0001
0000
0001
0100
0000
0010
1000
0010
0000
0100
0001
0100
0000
,
0001
0010
0000
0100
0000
0100
1000
0000
0001
0010
0001
0000
1000
0100
1000
0000
,
0001
1000
0000
0100
0000
0100
0010
0000
0001
1000
0001
0000
0100
0010
0100
0000
,
0001
1000
0000
0010
0000
0100
1000
0100
0010
0100
0000
0011
0000
0000
1100
0000
,
0001
1000
0000
0010
0000
0100
0010
0000
0001
1000
0100
0010
0000
0010
1000
0000
,
0001
0010
0000
0100
0000
1000
0010
0000
0010
0100
0001
1000
0000
0100
0010
0000
,
0001
0100
0000
0010
0000
1000
0010
0000
0010
1000
0100
0010
0001
0100
0010
1000
,
0002
0000
0003
2000
0000
3000
0020
0000
0230
0000
0300
0002
0000
0003
0110
0000
,
1001
0000
0000
0000
;
