#TITLE:polychrome;
#SUBTITLE:;
#ARTIST:FAT☆MAN;
#TITLETRANSLIT:;
#SUBTITLETRANSLIT:;
#ARTISTTRANSLIT:;
#GENRE:;
#CREDIT:;
#MUSIC:polychrome.mp3;
#BANNER:;
#BACKGROUND:;
#CDTITLE:;
#SAMPLESTART:81.074;
#SAMPLELENGTH:13.714;
#SELECTABLE:YES;
#OFFSET:1.212;
#BPMS:0.000=140.000;
#STOPS:;
#BGCHANGES:;
#FGCHANGES:;

//--------------- dance-single - OrangeRight ----------------
#NOTES:
     dance-single:
     OrangeRight:
     Beginner:
     3:
     0,0,0,0,0:
0000
0000
0000
0000
,
0000
0000
0000
0000
,
0000
0000
0000
0000
,
0000
0000
0000
0000
,
0000
0000
0000
0000
,
0000
0000
0000
0000
,
1000
0000
0100
0000
,
0100
0000
1000
0000
,
0001
0000
0000
0000
,
0100
0000
0010
0000
,
1000
0000
0010
0000
,
0100
0000
0001
0000
,
0010
0000
0100
0000
,
0010
0000
0000
0000
,
0001
0000
0100
0000
,
0100
0000
0001
0000
,
1000
0000
0100
0000
,
0010
0000
0000
0000
,
0010
0000
0001
0000
,
1000
0000
0010
0000
,
0100
0000
0001
0000
,
1000
0000
0001
0000
,
1000
1000
1000
1000
,
0001
0001
0001
0001
,
1000
0000
0100
0000
,
0010
0000
0010
0000
,
0001
0000
1000
0000
,
0001
0000
0000
0000
,
0001
0000
0100
0000
,
0010
0000
0010
0000
,
1000
0000
0001
0000
,
1000
0000
0000
0000
,
1000
0000
0010
0000
,
0100
0000
0100
0000
,
0001
0000
1000
0000
,
0001
0000
0000
0000
,
0001
0000
0010
0000
,
0100
0000
0100
0000
,
1000
0000
0001
0000
,
1000
0000
0000
0000
,
1000
0000
0000
0000
,
0001
0000
0000
0000
,
1000
0000
0000
0000
,
0001
0000
0000
0000
,
1000
0000
0010
0000
,
0100
0000
0001
0000
,
1000
0000
0001
0000
,
1000
0001
1000
0001
,
1000
0000
1000
1000
,
1000
0000
1000
0000
,
0001
0000
0001
0001
,
0001
0000
0001
0000
,
1000
0000
1000
0010
,
1000
0000
0001
0000
,
0001
0000
0001
0010
,
0100
0000
1000
0001
,
2000
0000
0000
0000
,
0000
0000
0000
3000
0000
0000
0000
0000
;

//--------------- dance-single - OrangeRight ----------------
#NOTES:
     dance-single:
     OrangeRight:
     Easy:
     6:
     0,0,0,0,0:
0000
0000
0000
0000
,
0000
0000
0000
0000
,
0000
0000
0000
0000
,
0000
0000
0000
0000
,
0000
0000
0000
0000
,
0000
0000
0000
0000
,
1000
0001
0100
0000
,
0001
1000
0100
0000
,
1000
0002
0100
1003
,
0010
0100
1001
0110
,
1000
0001
0001
0000
,
0001
0100
0010
1000
,
0001
0001
1000
0000
,
0010
0100
0110
1001
,
0001
0100
0010
0000
,
1000
0100
0010
0000
,
0001
2000
0100
3100
,
0010
0100
1001
0110
,
0001
1000
1000
0000
,
1000
0010
0100
0001
,
1000
1000
0001
0000
,
0100
0010
0110
1001
,
1000
1000
1000
1000
,
0001
0001
0002
1003
,
1000
0100
0010
0001
,
1000
0001
0100
0010
,
0200
0010
0000
0310
,
0010
1000
1001
1001
,
0001
0100
0010
1000
,
0001
0010
0100
1000
,
0002
1000
0000
0103
,
0010
1000
1001
0110
,
0001
0010
1000
0010
,
0001
1000
0010
0100
,
0020
0100
0000
0130
,
0100
0001
1001
1001
,
1000
0100
0001
0100
,
1000
0100
0010
0001
,
2000
0001
0000
3010
,
0100
0001
1001
0110
,
1000
0001
0100
0100
,
0001
1000
0100
0010
,
0001
1000
0010
0010
,
1000
0001
0010
0100
,
1000
0100
1000
1000
,
0001
0100
0001
0100
,
0010
1000
0010
0010
,
0100
0000
0010
0000
1000
0001
1000
0000
,
0001
0100
0100
0010
,
1000
0100
0100
0010
,
0001
0010
0010
0100
,
1000
0000
0100
0000
0010
0001
0010
0000
,
0100
1000
0010
0010
,
0100
0001
0010
0010
,
0100
1000
0001
0010
,
0100
0010
0100
0000
1000
0001
1000
0000
,
0000
0000
0000
1000
0000
0000
0000
0001
0000
0000
0000
1000
0000
0000
0000
0001
,
0000
0000
0000
0200
0000
0000
0300
0000
0000
0000
0000
0000
0000
0000
0000
0000
;

//--------------- dance-single - OrangeRight ----------------
#NOTES:
     dance-single:
     OrangeRight:
     Medium:
     11:
     0,0,0,0,0:
0000
0000
0000
0000
,
0000
0000
0000
0000
,
0000
0000
0000
0000
,
0000
0000
0000
0000
,
0000
0000
0000
0000
,
0000
0000
0000
0000
,
1000
0100
0010
0000
0002
0000
0103
0000
,
0001
0100
0010
0000
2000
0000
3100
0000
,
1000
0002
0100
0000
0010
0000
0103
0000
,
1000
0100
0010
0000
0110
0000
1001
0000
,
0001
0000
0000
0100
0000
0000
0020
0000
1000
0000
0000
0000
1030
0000
0000
0000
,
1000
0100
0010
0000
0001
0000
1000
0000
,
0010
0000
0000
0100
0000
0000
0002
0000
0100
0000
0000
0000
1003
0000
0000
0000
,
1000
0001
1000
0000
1001
0000
0110
0000
,
0001
0100
0010
0000
2000
0000
3100
0000
,
1000
0100
0010
0000
0002
0000
0103
0000
,
0001
2000
0100
0000
0010
0000
3001
0000
,
0001
0100
0010
0000
0110
0000
1001
0000
,
1000
0000
0000
0100
0000
0000
0020
0000
0001
0000
0000
0000
0031
0000
0000
0000
,
0001
0100
0010
0000
1000
0000
0001
0000
,
0010
0000
0000
0100
0000
0000
2000
0000
0100
0000
0000
0000
3001
0000
0000
0000
,
0001
1000
0001
0000
1001
0000
0110
0000
,
1002
1000
1000
1003
,
2001
0000
3001
0000
1000
0001
1000
0000
,
1000
0000
0000
1000
0000
0000
0100
0000
0000
0100
0000
0000
0010
0000
0000
0000
,
0001
0100
0010
0000
1000
0100
0010
0000
,
0001
2000
0010
0000
0001
0000
3100
0000
,
1000
0000
0001
0000
0100
0000
0010
0000
1000
0100
0000
0000
0100
0010
0000
0000
,
0010
0000
0000
0010
0000
0000
0001
0000
0000
0001
0000
0000
0100
0000
0000
0000
,
0010
1000
0100
0000
0010
0001
0100
0010
,
2000
0001
0010
3100
,
1000
0000
0100
0000
0010
0000
0001
0000
0100
0010
0000
0000
0010
0100
0000
0000
,
0001
0000
0000
0001
0000
0000
0100
0000
0000
0100
0000
0000
0010
0000
0000
0000
,
1000
0100
0010
0000
0001
0100
0010
0000
,
1000
0002
0010
0000
1000
0000
0103
0000
,
0001
0000
1000
0000
0100
0000
0010
0000
0001
0100
0000
0000
0100
0010
0000
0000
,
0010
0000
0000
0010
0000
0000
1000
0000
0000
1000
0000
0000
0100
0000
0000
0000
,
0010
0001
0100
0000
0010
1000
0100
0010
,
0002
1000
0010
0103
,
0001
0000
0100
0000
0010
0000
1000
0000
0001
1000
0000
0000
1000
0001
0000
0000
,
1000
0000
0100
0000
0010
0000
0000
0010
0001
0000
0100
0000
0001
0000
0010
0000
,
0001
0000
0100
0000
0010
0000
0000
0010
1000
0000
0001
0000
0000
1000
0000
0000
,
0001
0000
0010
0000
0100
0000
0000
0100
1000
0000
0010
0000
1000
0000
0100
0000
,
1000
0000
0010
0000
0100
0000
0000
0100
0001
0000
0000
1000
0000
0000
0001
0000
,
1000
0010
0100
0001
1000
0100
1000
0010
,
1000
0000
0100
0000
0010
0000
0001
0000
1000
0000
0001
0000
0000
1000
0000
0000
,
0001
0010
0100
1000
0001
0100
0001
0010
,
0100
0000
1000
0000
0010
0000
0100
0000
0001
0000
1000
0001
1000
0000
0001
0000
,
1000
0100
0010
0000
0100
0100
1000
0000
,
0100
0010
0001
0000
0001
0001
1000
0000
,
1000
0010
0100
0000
0010
0010
0100
0000
,
0001
0100
0010
1000
0001
0001
1000
0001
,
1000
0100
0010
0100
1000
1000
0001
1000
,
0001
0100
0010
0100
0001
0001
0100
0010
,
1000
0100
0010
0001
1000
1000
0001
0100
,
0001
0000
1000
0000
0000
1000
0000
1000
0000
0000
0001
0000
0000
0001
0000
0001
,
0000
0000
0000
1000
0000
0000
0000
0001
0000
0000
0000
1000
0000
0000
0000
0001
,
0000
0000
0000
0100
0000
0010
0000
0000
0000
0000
0000
0000
0000
0000
0000
0000
;

//--------------- dance-single - OrangeRight ----------------
#NOTES:
     dance-single:
     OrangeRight:
     Hard:
     13:
     0,0,0,0,0:
0000
0000
0000
0000
,
0000
0000
0000
0000
,
0000
0000
0000
0000
,
0000
0000
0000
0000
,
0000
0000
0000
0000
,
0000
0000
0000
0000
,
1000
0100
0010
0001
2000
0000
3010
0000
,
0100
0001
0010
0100
2000
0000
3010
0000
,
1000
0000
0010
0000
0100
0000
0001
0010
0001
0000
0100
0000
0010
0000
0000
1000
,
0001
0000
1000
0000
0100
0000
1000
0000
0010
0000
0000
0010
1000
0000
0000
1000
,
0001
0000
0000
0100
0000
0000
0010
0000
2000
0000
0000
0000
0001
0000
0000
0000
,
3010
0000
0000
0000
1000
0000
0100
1000
0100
0000
1000
0000
0010
0000
0100
0000
,
0001
0000
0000
0010
0000
0000
0200
0000
1000
0000
0000
0000
1300
0000
0000
0000
,
0001
0000
1000
0000
0001
0000
0010
0000
0001
0000
0000
0001
0100
0000
0000
0100
,
0010
1000
0001
1000
0200
0000
0310
0000
,
0010
0001
1000
0001
0200
0000
0310
0000
,
1000
0000
0100
0000
0010
0000
0001
0100
0001
0000
0010
0000
0100
0000
0000
1000
,
0001
0000
0100
0000
0010
0000
1000
0000
0100
0000
0000
1000
0010
0000
0000
0100
,
0001
0000
0000
0010
0000
0000
0100
0000
2000
0000
0000
0000
0100
0000
0000
0000
,
3010
0000
0000
0000
0010
0000
1000
0100
1000
0000
0010
0000
0100
0000
0000
0001
,
1000
0000
0000
0010
0000
0000
0100
0000
0002
0000
0000
0000
0100
0000
0000
0000
,
0013
0000
0001
0000
1000
0000
0010
0000
0100
0000
0000
0100
0001
0000
0000
0001
,
2000
0010
0100
3001
,
1002
0000
0000
0000
0013
0000
0000
0000
0001
0100
0000
0010
1000
0000
0001
0000
,
1000
0000
0000
1100
0000
0000
0110
0000
0000
0011
0000
0000
1001
0000
0000
0000
,
0010
0000
0001
0000
0100
0000
0010
1000
0010
0000
0100
0000
0001
0000
0100
0000
,
1000
0200
0010
0000
0001
0000
1000
0000
,
0310
0000
0100
0000
0001
0000
0010
0000
0100
0000
0000
0100
1000
0000
0000
0001
,
1000
0000
0000
1010
0000
0000
0110
0000
0000
0000
0101
0000
1001
0000
0000
0000
,
0100
0000
0001
0000
0010
0000
0100
1000
0100
0000
0010
0000
0001
0000
0010
0000
,
1000
0020
0100
0000
0001
0000
1000
0000
,
0130
0000
0010
0000
0001
0000
0100
0000
0001
0100
0000
0010
1000
0000
0001
1000
,
0010
0000
0000
1010
0000
0000
1100
0000
0000
0110
0000
0000
1001
0000
0000
0000
,
0001
0000
0100
0000
0010
0000
1000
0100
0010
0100
1000
0000
0010
0000
0100
0000
,
0001
2000
0010
0000
0001
0000
0100
0000
,
3010
0000
0100
0000
0001
0000
0100
0001
0100
0000
0000
0001
1000
0000
0000
1000
,
0100
0000
0000
0110
0000
0000
0011
0000
0000
0000
1001
0000
0110
0000
0000
0000
,
1000
0000
0010
0000
0100
0000
0001
0010
0001
0100
0010
0000
1000
0000
0100
0000
,
0010
0002
0010
0000
1000
0000
0100
0000
,
0013
0000
0100
0000
1000
0000
0001
0000
1000
0100
0000
0010
0001
0000
1000
0001
,
1000
0000
0100
0000
0010
0000
0001
1000
0001
0000
0100
0000
0010
0000
1000
0000
,
0001
0000
0010
0000
0100
0000
1000
0001
0100
0010
1000
0000
1000
0010
0000
0100
,
0001
0000
0100
0000
0010
0000
1000
0001
1000
0000
0010
0000
1000
0000
0100
0000
,
1000
0000
0010
0000
0100
0000
0001
1000
0100
0010
0000
0010
0001
0000
1000
0001
,
1000
0000
0100
0000
0010
0000
0100
1000
0010
1000
0100
0000
0010
0001
0010
0000
,
0001
0000
0100
0000
0010
0000
0100
0001
0010
0001
0100
0000
0010
1000
0000
1000
,
0100
0000
1000
0000
0010
0000
0100
0001
1000
0001
0010
0000
0001
1000
0001
0000
,
1000
0100
0010
0000
0001
0100
0010
0000
1000
0000
0001
1000
0001
1000
0000
0001
,
1000
0000
0010
0000
0100
0000
0001
0000
0010
0100
0010
0000
0001
0000
1000
0000
,
0100
0000
0001
0000
0100
0000
1000
0000
0010
0100
0010
0000
1000
0000
0100
0000
,
0010
0000
0001
0000
0100
0000
0010
0000
1000
0001
1000
0000
0100
0000
0010
0000
,
0001
0000
0100
0000
1000
0000
0100
0000
0001
1000
0001
0000
1000
0000
0010
0000
,
1000
0000
0100
0000
0010
0000
0001
0000
0100
0010
1000
0000
0001
0000
1000
0000
,
0010
0000
0001
0000
0010
0000
1000
0000
0100
0010
0001
0000
1000
0000
0100
0000
,
0001
0000
0100
0000
1000
0000
0010
0000
0100
0001
0010
0000
0100
0000
1000
0000
,
0010
1000
0100
0000
0010
0001
0000
0001
0100
0010
1000
0000
0001
1000
0000
0001
,
0000
0000
0001
1000
0000
0000
1000
0100
0000
0000
0100
0010
0000
0000
0010
0001
,
0000
0000
0001
1000
0010
0100
0001
0000
0000
0000
0000
0000
0000
0000
0000
0000
;

//--------------- dance-double - OrangeRight ----------------
#NOTES:
     dance-double:
     OrangeRight:
     Easy:
     6:
     0,0,0,0,0:
00000000
00000000
00000000
00000000
,
00000000
00000000
00000000
00000000
,
00000000
00000000
00000000
00000000
,
00000000
00000000
00000000
00000000
,
00000000
00000000
00000000
00000000
,
00000000
00000000
00000000
00000000
,
10000000
01000000
00100000
00000000
,
00100000
00010000
01000000
00000000
,
00100000
02000000
00010000
03010000
,
00100000
00001000
00011000
00011000
,
00010000
00000100
00001000
00000000
,
00000100
00000010
00000001
00000100
,
00000010
00000100
00000001
00000000
,
00001000
00000001
00001001
00001001
,
00000001
00000010
00000100
00000000
,
00000100
00001000
00000010
00000000
,
00000100
00000020
00001000
00001030
,
00000100
00010000
00011000
00011000
,
00001000
01000000
00001000
00000000
,
00010000
00001000
00100000
01000000
,
10000000
00010000
10000000
00000000
,
00100000
01000000
01100000
10010000
,
10000000
10000000
01000000
01000000
,
00100000
00100000
00010000
10000000
,
00010000
00100000
00001000
00010000
,
00000100
00000000
00001000
00000100
,
00010000
00002000
00010000
00013000
,
00010000
00000100
00010100
00001100
,
00001000
00000010
00010000
00001000
,
01000000
00000000
00100000
01000000
,
00020000
00100000
01000000
00130000
,
00100000
01000000
01100000
10010000
,
10000000
00100000
01000000
00010000
,
01000000
00000000
00010000
01000000
,
00002000
00010000
01000000
00013000
,
00010000
00000010
00010010
00001010
,
00001000
00000010
00000100
00000001
,
00000010
00000000
00000100
00001000
,
00000002
00000100
00001000
00001003
,
00001000
00000001
00000110
00001001
,
00000001
00001000
00000100
00000100
,
00001000
00000001
00000100
00000010
,
00001000
00000001
00000100
00000100
,
00000010
00001000
00000100
00010000
,
00001000
00100000
00010000
00010000
,
00100000
00001000
00010000
00000100
,
00010000
00001000
01000000
01000000
,
00010000
00000000
10000000
00000000
00010000
10000000
00010000
00000000
,
10000000
01000000
00100000
00010000
,
01000000
10000000
01000000
00010000
,
00100000
00001000
00010000
00000100
,
00001000
00000000
00000100
00000000
00000010
00000001
00000010
00000000
,
00000001
00000100
00000010
00001000
,
00000010
00000001
00000010
00001000
,
00000100
00010000
00001000
00100000
,
00010000
10000000
00010000
00000000
10000000
00010000
10000000
00000000
,
00000000
00000000
00000000
10000000
00000000
00000000
00000000
00010000
00000000
00000000
00000000
10000000
00000000
00000000
00000000
00010000
,
00000000
00000000
00000000
02000000
00000000
00000000
03000000
00000000
00000000
00000000
00000000
00000000
00000000
00000000
00000000
00000000
;

//--------------- dance-double - OrangeRight ----------------
#NOTES:
     dance-double:
     OrangeRight:
     Medium:
     11:
     0,0,0,0,0:
00000000
00000000
00000000
00000000
,
00000000
00000000
00000000
00000000
,
00000000
00000000
00000000
00000000
,
00000000
00000000
00000000
00000000
,
00000000
00000000
00000000
00000000
,
00000000
00000000
00000000
00000000
,
10000000
01000000
00100000
00000000
00020000
00000000
01030000
00000000
,
00100000
01000000
00010000
00000000
00200000
00000000
00301000
00000000
,
00010000
00002000
00010000
00000000
01000000
00000000
01003000
00000000
,
00010000
01000000
00001000
00010000
00011000
00000000
00011000
00000000
,
00001000
00000000
00000000
00010000
00000000
00000000
00000200
00000000
00001000
00000000
00000000
00000000
00001300
00000000
00000000
00000000
,
00000010
00000100
00000001
00000010
00000200
00000000
00001300
00000000
,
00000010
00000000
00000000
00000100
00000000
00000000
00000002
00000000
00001000
00000000
00000000
00000000
00001003
00000000
00000000
00000000
,
00001000
00000100
00000010
00000001
00001001
00000000
00000110
00000000
,
00000001
00000010
00000100
00000000
00002000
00000000
00003010
00000000
,
00000100
00000010
00001000
00000000
00000200
00000000
00010300
00000000
,
00001000
00020000
00001000
00000000
00000010
00000000
00030010
00000000
,
00001000
00000010
00010000
00001000
00011000
00000000
00011000
00000000
,
00010000
00000000
00000000
00001000
00000000
00000000
02000000
00000000
00010000
00000000
00000000
00000000
03010000
00000000
00000000
00000000
,
01000000
00100000
10000000
01000000
00200000
00000000
00310000
00000000
,
01000000
00000000
00000000
00100000
00000000
00000000
20000000
00000000
00010000
00000000
00000000
00000000
30010000
00000000
00000000
00000000
,
00010000
10000000
01000000
10000000
10010000
00000000
01100000
00000000
,
20000000
00100000
00100000
30100000
,
02000000
00010000
00010000
03010000
,
10000000
00000000
00000000
00010000
00000000
00000000
01000000
00000000
00000000
00010000
00000000
00000000
00100000
00000000
00000000
00000000
,
00010000
00100000
00001000
00000000
00010000
00000100
00001000
00000000
,
00000001
00002000
00000100
00000000
00000010
00000000
00003001
00000000
,
00000001
00000100
00000010
00001000
00001001
00000000
00000110
00000000
,
00000001
00000000
00000000
00001000
00000000
00000000
00000010
00000000
00000000
00000000
00001000
00000000
00000100
00000000
00000000
00000000
,
00001000
00000100
00010000
00000000
00001000
00100000
00010000
00000000
,
10000000
00020000
00100000
00000000
01000000
00000000
10030000
00000000
,
10000000
00100000
01000000
00010000
10010000
00000000
01100000
00000000
,
10000000
00000000
00000000
00100000
00000000
00000000
00010000
00000000
00000000
00100000
00000000
00000000
10000000
00000000
00000000
00000000
,
00010000
00100000
00010000
00000000
01000000
00001000
01000000
00000000
,
00001000
00020000
00000100
00000000
00001000
00000000
00030010
00000000
,
00000010
00000100
00000001
00000010
00000110
00000000
00001001
00000000
,
00000001
00000000
00000000
00000100
00000000
00000000
00001000
00000000
00000000
00000000
00000100
00000000
00000001
00000000
00000000
00000000
,
00001000
00000100
00001000
00000000
00000010
00010000
00000010
00000000
,
00010000
00002000
00100000
00000000
00010000
00000000
01003000
00000000
,
01000000
00100000
10000000
01000000
01100000
00000000
10010000
00000000
,
10000000
00000000
01000000
00000000
00100000
00000000
00000000
00010000
10000000
00000000
00100000
00000000
10000000
00000000
00100000
00000000
,
01000000
00000000
00010000
00000000
00100000
00000000
00000000
00100000
00001000
00000000
00010000
00000000
00000000
00001000
00000000
00000000
,
00010000
00000000
00000100
00000000
00001000
00000000
00000000
00001000
00000010
00000000
00000100
00000000
00000010
00000000
00000100
00000000
,
00000001
00000000
00001000
00000000
00000010
00000000
00000000
00000010
00000100
00000000
00000000
00000001
00000000
00000000
00001000
00000000
,
00000001
00000000
00000010
00000000
00000100
00000000
00000000
00001000
00000001
00000000
00000100
00000000
00000001
00000000
00000100
00000000
,
00000010
00000000
00001000
00000000
00000100
00000000
00000000
00000100
00010000
00000000
00001000
00000000
00000000
00010000
00000000
00000000
,
00001000
00000000
00100000
00000000
00010000
00000000
00000000
00010000
01000000
00000000
00100000
00000000
01000000
00000000
00100000
00000000
,
10000000
00010000
10000000
00010000
01000000
00100000
01000000
00100000
,
10000000
00000000
01000000
00000000
00100000
00100000
00010000
10000000
,
00010000
00000000
00100000
00000000
00001000
00001000
01000000
00001000
,
00010000
00000000
00000100
00000000
00001000
00001000
00000001
00000100
,
00000001
00000010
00000100
00001000
00000001
00001000
00000010
00000100
,
00000001
00000000
00000100
00000000
00000001
00000001
00001000
00000100
,
00010000
00000000
00001000
00000000
00010000
00010000
00000100
00010000
,
00001000
00000000
00010000
00000000
00001000
00001000
01000000
00010000
,
01000000
00000000
00100000
00000000
00000000
10000000
00000000
00010000
00000000
00000000
01000000
00000000
00000000
00010000
00000000
10000000
,
00000000
00000000
00000000
10000000
00000000
00000000
00000000
00010000
00000000
00000000
00000000
10000000
00000000
00000000
00000000
00010000
,
00000000
00000000
00000000
01000000
00000000
00100000
00000000
00000000
00000000
00000000
00000000
00000000
00000000
00000000
00000000
00000000
;

//--------------- dance-double - OrangeRight ----------------
#NOTES:
     dance-double:
     OrangeRight:
     Hard:
     14:
     0,0,0,0,0:
00000000
00000000
00000000
00000000
,
00000000
00000000
00000000
00000000
,
00000000
00000000
00000000
00000000
,
00000000
00000000
00000000
00000000
,
00000000
00000000
00000000
00000000
,
00000000
00000000
00000000
00000000
,
10000000
00100000
01000000
00010000
20000000
00000000
31000000
00000000
,
10000000
00100000
01000000
00010000
00200000
00000000
00301000
00000000
,
00010000
00001000
00100000
00010000
01000000
00100000
01000000
00010000
,
00100000
00000000
00001000
00000000
00010000
00000000
00000100
00000000
00001000
00000000
00000000
00001000
00000100
00000000
00000000
00000100
,
00000010
00000000
00000000
00000011
00000000
00000000
00000201
00000000
00000010
00000000
00000000
00000000
00001000
00000000
00000000
00000000
,
00000310
00000000
00001000
00000000
00000001
00000000
00000010
00000000
00000100
00001000
00000100
00000000
00010000
00000000
00001000
00000000
,
00011000
00000000
00000000
00101000
00000000
00000000
00010200
00000000
00001000
00000000
00000000
00000000
00000010
00000000
00000000
00000000
,
00001300
00000000
00000010
00000000
00000100
00000000
00000001
00000000
00001000
00000000
00000000
00001000
00000100
00000000
00000000
00000010
,
00000001
00000010
00000100
00001000
00000002
00000000
00000103
00000000
,
00000001
00000010
00000100
00001000
00000020
00000000
00010030
00000000
,
00001000
00010000
00000010
00001000
00000100
00000010
00000100
00001000
,
00000010
00000000
00010000
00000000
00001000
00000000
01000000
00000000
00010000
00000000
00000000
00010000
01000000
00000000
00000000
01000000
,
00100000
00000000
00000000
01100000
00000000
00000000
02010000
00000000
00100000
00000000
00000000
00000000
10000000
00000000
00000000
00000000
,
03100000
00000000
10000000
00000000
01000000
00000000
00100000
00000000
00010000
01000000
00010000
00000000
00100000
00000000
00001000
00000000
,
00011000
00000000
00000000
00010010
00000000
00000000
02001000
00000000
00010000
00000000
00000000
00000000
00100000
00000000
00000000
00000000
,
03010000
00000000
00100000
00000000
01000000
00000000
10000000
00000000
00010000
00000000
00000000
00010000
01000000
00000000
00000000
00100000
,
20000000
00010000
00010000
30010000
,
00200000
00000000
00000000
00000000
01000000
00000000
00000000
00000000
01300000
00100000
00000000
00100000
00010000
00000000
10000000
00000000
,
10010000
00000000
00000000
11000000
00000000
00000000
01100000
00000000
00000000
00110000
00000000
00000000
00101000
00000000
00000000
00000000
,
00100000
00000000
00001000
00000000
00010000
00000000
00000100
00001000
00000010
00000100
00000001
00000000
00000100
00000000
00000001
00000000
,
00001000
00000020
00000001
00000000
00000100
00000000
00001000
00000000
,
00000130
00000000
00000001
00000000
00000010
00000000
00000100
00000000
00001000
00000000
00000000
00001000
00000010
00000000
00000000
00000010
,
00000100
00000000
00000000
00001010
00000000
00000000
00001100
00000000
00000000
00000000
00010100
00000000
00011000
00000000
00000000
00000000
,
00001000
00000000
00100000
00000000
00010000
00000000
01000000
00100000
10000000
00010000
10000000
00000000
01000000
00000000
00010000
00000000
,
01000000
20000000
00010000
00000000
00100000
00000000
01000000
00000000
,
30100000
00000000
01000000
00000000
00010000
00000000
10000000
00000000
00010000
10000000
00000000
00100000
01000000
00000000
00010000
10000000
,
00010000
00000000
00000000
01010000
00000000
00000000
01001000
00000000
00000000
00101000
00000000
00000000
00011000
00000000
00000000
00000000
,
00001000
00000000
00010000
00000000
00000010
00000000
00001000
00000000
00000001
00000100
00000001
00000000
00000100
00000000
00000010
00000000
,
00001000
00000200
00000001
00000000
00000010
00000000
00001000
00000000
,
00000301
00000000
00000100
00000000
00001000
00000000
00000001
00000000
00000100
00000000
00000000
00000100
00000001
00000000
00000000
00000001
,
00001000
00000000
00000000
00001100
00000000
00000000
00010100
00000000
00000000
00000000
00011000
00000000
00011000
00000000
00000000
00000000
,
00000100
00000000
00010000
00000000
00001000
00000000
01000000
00000000
00010000
01000000
00010000
00000000
00100000
00000000
01000000
00000000
,
10000000
02000000
00010000
00000000
00100000
00000000
10000000
00000000
,
03010000
00000000
01000000
00000000
10000000
00000000
00100000
00000000
01000000
00010000
01000000
00000000
00100000
10000000
00100000
00000000
,
10000000
00000000
10000000
00000000
00100000
00000000
01000000
00010000
01000000
00000000
00100000
00000000
10000000
00000000
00010000
00000000
,
00100000
00000000
00001000
00000000
00010000
00000000
00000100
00010000
00001000
00010000
00000100
00000000
00001000
00000100
00000000
00000010
,
00000100
00000000
00000100
00000000
00000010
00000000
00000001
00000100
00000001
00000000
00000100
00000000
00000010
00000000
00001000
00000000
,
00000010
00000000
00000010
00000000
00000100
00000000
00000001
00000010
00000100
00001000
00000000
00000010
00000100
00000000
00000001
00001000
,
00000001
00000000
00000100
00000000
00000010
00000000
00000100
00000010
00000100
00000010
00000100
00000000
00000001
00000100
00000010
00000000
,
00001000
00000000
00000100
00000000
00010000
00000000
00001000
00100000
00001000
00100000
00001000
00000000
00100000
00010000
00000000
01000000
,
00100000
00000000
10000000
00000000
01000000
00000000
00100000
00010000
01000000
00001000
00010000
00000000
00000100
00010000
00001000
00000000
,
00010000
00000100
00010000
00000000
00001000
00100000
00001000
00000000
00010000
00000000
00001000
00010000
00001000
00010000
00000000
00001000
,
00010000
00001000
00000100
00001000
00010000
01000000
10000000
00100000
,
01000000
00000000
10000000
00000000
01000000
00000000
00010000
00000000
00100000
00001000
00010000
00000000
00000100
00000000
00010000
00000000
,
00001000
00010000
00100000
00010000
00001000
00000010
00000001
00000100
,
00001000
00000000
00000100
00000000
00000001
00000000
00000010
00000000
00000100
00010000
00001000
00000000
00010000
00000000
00000100
00000000
,
00010000
00000000
00001000
00000000
00100000
00000000
00010000
00000000
01000000
00010000
01000000
00000000
00010000
00000000
00100000
00000000
,
00001000
00000000
00010000
00000000
00000100
00000000
00001000
00000000
00000010
00001000
00000010
00000000
00001000
00000000
00000100
00000000
,
00010000
00000000
00001000
00000000
01000000
00000000
00001000
00000000
00100000
00001000
00010000
00000000
00000100
00000000
00010000
00000000
,
00001000
00010000
00001000
00000000
00100000
00010000
00000000
01000000
00100000
01000000
00100000
00000000
10000000
00010000
00000000
10000000
,
00000000
00000000
00010000
01000000
00000000
00000000
01000000
00001000
00000000
00000000
00001000
00010000
00000000
00000000
00010000
00000100
,
00000000
00000000
00000100
00001000
00000010
00000100
00000001
00000000
00000000
00000000
00000000
00000000
00000000
00000000
00000000
00000000
;
