#TITLE:pi-rho-maniac;
#SUBTITLE:;
#ARTIST:DM Ashura;
#TITLETRANSLIT:;
#SUBTITLETRANSLIT:;
#ARTISTTRANSLIT:;
#GENRE:;
#CREDIT:;
#MUSIC:pi-rho-maniac.ogg;
#BANNER:pi-rho-maniac.png;
#BACKGROUND:;
#CDTITLE:;
#SAMPLESTART:0.000;
#SAMPLELENGTH:0.000;
#SELECTABLE:YES;
#OFFSET:-0.405;
#BPMS:0.000=148.000;
#STOPS:;
#BGCHANGES:;
#FGCHANGES:;

//--------------- dance-single - aboutblank ----------------
#NOTES:
     dance-single:
     aboutblank:
     Beginner:
     2:
     0,0,0,0,0:
0000
0000
0000
0000
,
0000
0000
0000
0000
,
0000
0000
0000
0000
,
0000
0000
0000
0000
,
1000
0000
0000
0000
,
0001
0000
0000
0000
,
0010
0000
0000
0000
,
0110
0000
0000
0000
,
1001
0000
0000
0000
,
0000
0000
0000
0000
,
1000
0000
0000
0000
,
0001
0000
0000
0000
,
0010
0000
0000
0000
,
0100
0000
0000
0000
,
1000
0000
0000
0000
,
0010
0000
0000
0000
,
0100
0000
0000
0000
,
0001
0000
0000
0000
,
1000
0000
1000
0000
,
1000
0000
0000
0000
,
0001
0000
0001
0000
,
0001
0000
0000
0000
,
0010
0000
0010
0000
,
0010
0000
0000
0000
,
0100
0000
0100
0000
,
1001
0000
0000
0000
,
1000
1000
0000
0000
,
1000
1000
0000
0000
,
0001
0001
0000
0000
,
1001
0000
0000
0000
,
0001
0000
0100
0000
,
0010
0010
0010
0000
,
1000
0000
0100
0000
,
0010
0010
0010
0000
,
0001
0000
1000
0000
,
0001
0001
0100
0000
,
0001
0000
1000
0000
,
1000
1000
0100
0000
,
0110
0000
0010
0000
,
1001
0000
0100
0000
,
0001
0001
1000
0000
,
1000
1000
0001
0000
,
0110
0000
1000
0000
,
0110
0000
0001
0000
,
1000
1000
0100
0000
,
0001
0001
0100
0000
,
1001
0000
0000
0000
,
0000
0000
0000
0000
,
0000
0000
0000
0000
,
0000
0000
0000
0000
,
0110
0000
0000
0000
,
0110
0000
0000
0000
,
1000
0000
1000
0000
,
0001
0000
0001
0000
,
0010
0010
0010
0000
,
0100
0100
0100
0000
,
0010
0010
0010
0000
,
1001
0000
0000
0000
,
1000
0000
0100
0000
,
0001
0000
0100
0000
,
1000
0000
0100
0000
,
0001
0000
0000
0000
,
0001
0000
0010
0000
,
1000
0000
0010
0000
,
0001
0000
0010
0000
,
1000
0000
0000
0000
,
1000
0000
0100
0000
,
0010
0000
0001
0000
,
1000
0000
0100
0000
,
0010
0000
0000
0000
,
0001
0000
0100
0000
,
0010
0000
1000
0000
,
0001
0000
0100
0000
,
0010
0000
0000
0000
,
1001
0000
0000
0000
,
1000
0000
1000
0000
,
0001
0000
0001
0000
,
0010
0000
0000
0000
,
0100
0000
0100
0000
,
1000
0000
1000
0000
,
0010
0000
0100
0000
,
0001
0001
0001
0000
;

//--------------- dance-single - aboutblank ----------------
#NOTES:
     dance-single:
     aboutblank:
     Easy:
     7:
     0,0,0,0,0:
0000
0000
0000
0000
,
0000
0000
0000
0000
,
0000
0000
0000
0000
,
0000
0000
0000
0000
,
1000
0000
0000
0000
,
0001
0000
0000
0000
,
0010
0000
0000
0000
,
0110
0000
0000
0000
,
1000
0000
0001
0000
,
1000
0001
1001
0000
,
1000
0000
1000
0000
0100
0000
0100
0010
,
0001
0000
0001
0000
0010
0000
0010
0100
,
1000
0000
1000
0000
0001
0000
0001
0100
,
0010
0010
1010
0101
,
1000
0000
1000
0000
0001
0000
0001
0010
,
0100
0000
0100
0000
0010
0000
0010
0001
,
1000
0000
1000
0000
0010
0000
0100
0010
,
1000
0001
1001
1001
,
0001
0000
0001
0000
1000
0000
1000
0010
,
0100
0000
0100
0000
0001
0000
0001
0010
,
0100
0000
0100
0000
0010
0000
0010
0001
,
1000
1000
0001
0110
,
0001
0000
0001
0000
1000
0000
1000
0100
,
0010
0000
0010
0000
0001
0000
0001
1000
,
0010
0000
0010
0000
0100
0000
0100
0001
,
1000
1000
0001
0001
,
0010
0000
0010
0010
,
0100
0000
0100
0100
,
1000
0000
1000
1000
,
1001
0000
0000
0000
,
0001
0000
0001
0000
0001
1000
0100
0000
,
0110
1001
0110
0000
,
1000
0000
1000
0000
1000
0001
0100
0000
,
0110
1001
0110
0000
,
1000
0000
1000
0000
0010
0100
0001
0000
,
1001
0110
1001
0000
,
0001
0000
0001
0000
0010
0100
1000
0000
,
1001
0110
1001
0000
,
1000
1000
0110
0110
,
0001
0001
0110
0110
,
0001
0110
1000
0110
,
0001
0000
0110
0000
1000
0001
1000
0000
,
0010
0010
1001
1001
,
0100
0100
1001
1001
,
0010
1001
0100
1001
,
0010
1000
0010
0000
0100
0001
0100
0000
,
1001
0000
0000
0000
,
0000
0000
0000
0000
,
1000
0000
0000
0000
,
0001
0000
0000
0000
,
0010
0010
0010
0000
,
0100
0100
0100
0000
,
1000
1000
1000
0000
,
0001
0001
0001
0000
,
1001
0000
0010
0000
,
1001
0000
0100
0000
,
1000
0001
1000
0001
,
1001
0000
0000
0000
,
1000
0100
0010
0001
,
1000
0000
0010
0000
0100
0000
0001
1000
,
0001
0010
0100
1000
,
0001
0100
0010
0010
,
0000
1000
0010
0100
,
0001
0000
0010
0000
0100
0000
1000
0001
,
1000
0100
0010
0001
,
1001
0110
1001
0000
,
0001
0001
0100
0100
,
0010
1000
0100
0100
,
0010
0100
1000
0010
,
0100
0000
0001
0000
1000
0000
0001
0010
,
0001
0001
0100
0100
,
0010
0010
1000
1000
,
0100
0100
0010
0010
,
0001
1000
0001
1000
0001
1000
0001
0000
,
0010
0010
1100
1100
,
0010
0010
0101
0101
,
0001
0001
1100
1100
,
1000
1000
0011
0011
,
1000
0010
0100
0000
0001
0100
0010
0000
,
1000
0100
0010
0000
0001
0010
0100
0000
,
1000
0000
0001
0000
0100
0010
1000
0000
,
0001
0000
1000
0000
0100
0010
0001
0000
,
1001
0000
0000
0000
;

//--------------- dance-single - aboutblank ----------------
#NOTES:
     dance-single:
     aboutblank:
     Medium:
     10:
     0,0,0,0,0:
0000
0000
0000
0000
,
0000
0000
0000
0000
,
0000
0000
0000
0000
,
0000
0000
0000
0000
,
2000
0000
0000
0000
,
3002
0000
0000
0000
,
0023
0000
0000
0000
,
0230
0000
0000
0000
,
1300
0000
0001
0000
,
1001
0000
0110
0000
1001
0000
1000
0001
,
1000
0000
0000
0100
0000
0000
0010
0000
0000
0001
0000
0000
1000
0000
0010
0000
,
0100
0000
0000
0010
0000
0000
1000
0000
0000
0001
0000
0000
0010
0000
0100
0000
,
1000
0000
0000
0001
0000
0000
1000
0000
0000
0100
0000
0000
0010
0000
0001
0000
,
1000
0000
0000
0001
0000
0000
0100
0000
0000
0010
0000
0000
1000
0000
1000
0000
,
0001
0000
0000
0010
0000
0000
0100
0000
0000
1000
0000
0000
0100
0000
0010
0000
,
0001
0000
0000
1000
0000
0000
0001
0000
0000
0100
0000
0000
0010
0000
1000
0000
,
0001
0000
0000
0010
0000
0000
0001
0000
0000
0010
0000
0000
0100
0000
1000
0000
,
0001
0000
0000
1000
0000
0000
0010
0000
0000
0100
0000
0000
0001
0000
0001
0000
,
1000
0000
0000
1000
0000
0000
0100
0000
0000
0100
0000
0000
0010
0000
0001
0000
,
1000
0000
0000
1000
0000
0000
0010
0000
0000
0010
0000
0000
0100
0000
0001
0000
,
0010
0000
0000
0100
0000
0000
1000
0000
0000
0001
0000
0000
0100
0000
0010
0000
,
1000
0000
0000
0001
0000
0000
1000
0000
0000
0001
0000
0000
1000
0000
0000
0000
,
0010
0000
0000
0100
0000
0000
0010
0000
0000
1000
0000
0000
0001
0000
0010
0000
,
0100
0000
0000
0010
0000
0000
0001
0000
0000
1000
0000
0000
0010
0000
0100
0000
,
0001
0000
0000
0100
0000
0000
0010
0000
0000
1000
0000
0000
0001
0000
0010
0000
,
0100
0000
0000
1000
0000
0000
0100
0000
0000
0001
0000
0000
0100
0000
0100
0000
,
0010
0011
0101
1100
,
0001
1000
0100
0001
0100
0010
0001
0000
,
1000
0010
0100
0000
0001
0010
0100
0000
,
1001
0000
0000
0000
,
1010
0000
0000
1010
0000
0000
1010
0000
1000
0000
0001
0000
0100
0000
0000
0000
,
0010
0100
1000
0100
0001
0010
0100
0000
,
0011
0000
0000
0011
0000
0000
0011
0000
1000
0000
0001
0000
0100
0000
0000
0000
,
0010
1000
0010
0100
0001
0010
0100
0000
,
0110
0000
0000
0110
0000
0000
0110
0000
1000
0000
0001
0000
1000
0000
0000
0000
,
0100
0010
0001
1000
0100
0010
0001
0000
,
1100
0000
0000
1100
0000
0000
1100
0000
0001
0000
1000
0000
0010
0000
0000
0000
,
0100
0010
0001
0010
1000
1000
0001
0000
,
1100
0000
1100
0000
1000
0100
0001
0000
,
0011
0000
0011
0000
0001
0010
1000
0000
,
1010
0000
1010
0000
1000
0100
0010
0000
,
0001
0010
0100
0000
1000
1000
0001
0001
,
0101
0000
0101
0000
0100
0001
1000
0000
,
0011
0000
0011
0000
0010
0001
1000
0000
,
1010
0000
0100
0001
0010
0000
0100
1000
,
0010
0100
0001
0010
0100
1000
0010
0100
,
0002
0000
0000
0000
,
2003
0000
0000
0000
,
3200
0000
0000
0000
,
0320
0000
0000
0000
,
0031
0001
1000
1000
,
0010
0010
0100
0100
,
0001
1000
0100
0001
,
0100
1000
0010
0001
,
1000
0001
1000
0000
0001
0000
0100
0000
,
0010
0100
0010
0000
1000
0000
0010
0000
,
0100
0001
0100
0000
0010
1000
0010
0000
,
1001
0000
0000
0000
,
0011
0000
0010
0000
0100
0010
0001
0000
,
1000
0000
0010
0000
0100
0001
0010
0000
,
1000
0000
0010
0000
0001
0100
0010
0000
,
1000
0100
0010
0000
1001
0000
0101
0000
,
0100
0000
0010
0000
1000
0100
0010
0000
,
0001
0000
1000
0000
0001
0010
0100
0000
,
0010
0100
1000
0000
1000
0010
0100
0000
,
0001
0100
1000
0100
0001
0010
0100
0000
,
0010
0000
1001
0000
1000
0001
0100
0000
,
0010
0000
1000
0000
0001
1000
0100
0000
,
0010
0100
1000
0000
0010
0100
0001
0000
,
1000
0010
0100
0001
0010
0100
1000
0000
,
1000
0100
0010
0000
0011
0000
1100
0000
,
0001
0100
0010
0000
1010
0000
0101
0000
,
1000
0100
1000
0100
0010
0001
0010
0001
,
2000
0000
0001
3001
,
1000
1000
0100
0100
,
0010
0010
0001
0001
,
1000
1000
0010
0010
,
0100
0100
0001
0001
,
0010
0000
0000
0001
0000
0000
1000
0000
0000
0001
0000
0000
0100
0000
0010
0000
,
1000
0000
0000
0100
0000
0000
0010
0000
0000
0001
0000
0000
1000
0000
0010
0000
,
0100
0000
0000
1000
0000
0000
0100
0000
0000
0010
0000
0000
1000
0000
0001
0000
,
0010
0000
0000
0100
0000
0000
0010
0000
0000
0001
0000
0000
1000
0000
0001
0000
,
1000
0000
0000
0000
;

//--------------- dance-single - aboutblank ----------------
#NOTES:
     dance-single:
     aboutblank:
     Hard:
     13:
     0,0,0,0,0:
0000
0000
0000
0000
,
0000
0000
0000
0000
,
0000
0000
0000
0000
,
0000
0000
0000
0000
,
1000
0000
0000
1000
0000
0000
0010
0000
0000
0010
0000
0000
0100
0000
0001
0000
,
0010
0000
0000
0010
0000
0000
0100
0000
0000
0100
0000
0000
1000
0000
0001
0000
,
1000
0100
1000
0100
0010
0001
0010
0001
,
1000
0010
1000
0000
0001
0000
1000
0000
0001
0100
0001
0000
0010
0100
0010
0100
,
1000
0000
0202
0303
0001
0000
2020
3030
,
0001
0010
1000
0010
0100
0000
1001
0000
,
1000
0000
0000
0001
0100
0000
1000
0000
0100
0010
0000
0000
0010
0000
1000
0000
,
0001
0000
0000
1000
0100
0000
0001
0000
0100
0010
0000
0000
0010
0000
0001
0000
,
1000
0000
0000
0001
0100
0000
0001
0000
1000
0010
0000
0000
0100
0000
0001
0000
,
1000
0000
0000
0001
0010
0000
0100
0000
1000
0001
0000
0000
0100
0000
0100
0000
,
0010
0000
0000
0001
0010
0000
1000
0000
0001
0010
0000
0000
0100
0000
0010
0000
,
0100
0000
0000
0010
0001
0000
1000
0000
0010
0100
0000
0000
0001
0000
1000
0000
,
0001
0000
0001
0010
0000
0000
0100
0000
1000
0001
0000
0000
1000
0000
0001
0000
,
0100
0000
0100
0010
0000
0000
1000
0000
0000
0100
0000
0010
0001
0000
1000
0000
,
0101
0000
0000
0100
0000
0010
1000
0000
0000
0001
0000
0010
0100
0000
1000
0000
,
0001
0000
0000
1000
0000
0100
0010
0000
0000
0001
0000
1000
0010
0000
0100
0000
,
0001
0000
0000
0010
0000
0001
0100
0000
0000
0010
0000
1000
0100
0000
0010
0000
,
0001
0000
0000
0100
0000
0001
1000
0000
0000
0001
0000
0010
0100
0000
1000
0000
,
0100
0000
0000
0010
0001
0000
1000
0000
0000
0001
0100
0000
0010
0000
1000
0000
,
0001
0000
0000
1000
0100
0000
0010
0000
0000
0001
1000
0000
0001
0000
1000
0000
,
0100
0000
0000
0001
0100
0000
0010
0000
0100
1000
0000
0000
0001
0000
1000
0000
,
0010
0000
0000
0001
0010
0000
0100
0000
0010
1000
0000
0000
0001
1000
0001
1000
,
0001
0110
1000
0110
,
0001
1100
1000
0101
,
0001
1000
0100
0000
1000
0001
0100
0000
,
0220
0000
0000
0330
,
1010
0000
0000
0011
0000
0000
1100
0000
0001
0000
1000
0000
0100
0000
0001
0000
,
0200
0000
0310
0001
1000
0010
0100
0000
,
0101
0000
0000
1100
0000
0000
0011
0000
1000
0000
0001
0000
0010
0000
0100
0000
,
0001
1000
0010
0100
1000
0001
0100
0000
,
0110
0000
0000
1010
0000
0000
0101
0000
0001
0000
1000
0000
0001
0000
0010
0000
,
0100
0000
0010
0100
0010
0000
0100
0000
1000
0000
0000
1001
0000
0000
0000
0000
,
0110
0000
0000
0011
0000
0000
1100
0000
0001
0000
1000
0000
0010
0000
0100
0000
,
0001
1000
0000
0001
0100
0000
0010
0000
1000
0100
1000
0100
0010
0000
0001
0000
,
1000
0000
0000
0000
0101
0000
0010
1000
0000
0000
0000
0000
0110
0000
1000
0000
,
0001
0000
0000
0000
1100
0000
0010
0001
0100
0000
0000
0000
1010
0000
0000
0000
,
1001
0000
0000
0000
1010
0000
0100
0001
0000
0000
0000
0000
0110
0000
0001
0000
,
1000
0000
0000
0000
0011
0000
0100
1000
0010
0000
0000
0000
0101
0000
0000
0000
,
1001
0000
0000
0000
0011
0000
0001
0100
0010
0000
0000
0000
1001
0000
1000
0000
,
0100
0000
0000
0000
1010
0000
1000
0100
0010
0000
0000
0000
0110
0000
0000
0000
,
1001
0000
0000
0000
0011
0000
0010
0100
1000
0000
0000
0000
0110
0000
0100
0000
,
0001
0000
1000
0000
0001
0000
1000
0000
0010
0100
0010
0100
0010
0100
0010
0000
,
2000
0000
0000
0000
,
3002
0000
0000
0000
,
0203
0000
0000
0000
,
0320
0000
0000
0000
,
1030
0001
1000
0000
0010
0100
0010
0000
,
1000
0010
0100
0000
0001
0010
0100
0000
,
0010
0001
0100
0000
0010
1000
0100
0000
,
1000
0001
0100
0010
1000
0010
0100
0001
,
1000
0000
0100
0100
0020
0000
0031
0000
,
1000
1000
0001
0001
0100
0100
0010
0010
,
1000
0000
0100
0000
0010
0000
0001
0000
1000
0001
1000
0001
1000
0001
1000
0001
,
1000
0000
0000
0000
1100
0000
0000
0000
0101
0000
0000
0000
0001
1000
0001
0000
,
0010
1000
0010
0001
0200
0010
0310
1000
,
0001
0010
0100
1000
0020
1000
1030
0001
,
0100
0010
1000
0100
0020
1000
1030
0001
,
0100
0010
0001
1000
0010
0000
0101
0000
,
1000
0001
0100
0001
2000
0100
3100
0010
,
0100
1000
0010
0100
0002
1000
1003
0001
,
0100
0001
1000
0010
1000
0001
0010
0100
,
1000
0000
0010
0000
0100
0000
0001
0000
1000
0100
0000
0010
0001
0000
0001
0000
,
2000
0000
3010
0100
1000
0100
0001
0010
,
0100
1000
0001
0100
0010
0100
0001
1000
,
0010
1000
0010
1000
0001
0100
0001
0100
,
0010
1000
0001
0100
0010
1000
0001
0000
,
1100
0000
1000
0100
0010
0100
1000
0100
,
0010
0001
1000
0001
0200
0010
0310
1000
,
0001
0010
0010
0100
1000
0001
0001
0100
,
0010
1000
0010
0000
0100
0001
0100
0000
0010
1000
0010
0000
0100
0001
0100
0000
,
0001
0000
0011
0000
0001
0010
0100
0000
,
1000
0000
1010
0000
1000
0010
0100
0000
,
0001
0000
0101
0000
0100
0010
1000
0000
,
0001
0000
1001
0000
1000
0100
0010
0000
,
0001
0000
0000
0010
0001
0000
0000
1000
0000
0001
0100
0000
0010
0000
1000
0000
,
0100
0000
0000
0010
0100
0000
1000
0000
0000
0010
0100
0000
0001
0000
1000
0000
,
0001
0000
0000
0100
0001
0000
1000
0000
0000
0010
1000
0000
0001
0000
0020
0000
,
0200
0000
0000
0330
;

//--------------- dance-single - MEGAtive ----------------
#NOTES:
     dance-single:
     MEGAtive:
     Challenge:
     15:
     0,0,0,0,0:
0000
0000
0000
0000
,
0000
0000
0000
0000
,
0000
0000
0000
0000
,
0000
0000
0000
0000
,
1000
0000
0000
0100
0000
0000
1000
0000
0000
0100
0000
0000
0010
0000
0001
0000
,
0100
0000
0000
0010
0000
0000
0100
0000
0000
0001
0000
0000
1000
0000
0100
0000
,
0010
0001
0100
0001
1000
0100
0010
0001
,
1000
0010
0100
0010
1000
0001
0010
0100
,
1000
1100
0001
0101
,
1010
0000
0101
0000
0001
0010
0110
0000
,
1100
0000
0000
1000
0100
0000
0010
0000
0100
1000
0100
0000
0010
0000
0001
0000
,
1000
0000
0000
1000
0010
0000
0100
0000
0010
1000
0001
0000
0010
0000
0100
0000
,
1000
0000
0000
0001
0010
0000
0100
0000
0010
0001
0010
0000
0001
0000
1000
0000
,
0010
0000
0000
0100
0010
0000
1000
0000
0010
0100
0001
0000
0010
0000
0010
0000
,
0100
0000
0000
0010
0001
0000
1000
0000
0001
0010
0001
0000
0100
0000
0010
0000
,
1000
0000
0000
0001
0100
0000
0010
0000
0100
0001
1000
0000
0100
0000
0010
0000
,
0001
0000
0000
0010
0100
0000
1000
0000
0100
0010
0100
0000
0010
0000
0001
0000
,
0100
0000
0000
0010
1000
0000
0001
0000
1000
0010
0000
0100
0001
0000
1000
0100
,
0010
0000
0000
0100
1000
0000
0001
0000
0010
0100
1000
0000
0001
0000
1000
0000
,
0001
0000
0000
0100
0010
0000
1000
0000
0001
0100
0010
0000
0100
0000
0001
0000
,
1000
0000
0000
0001
0010
0000
0100
0000
1000
0001
0010
0000
0100
0000
0010
0000
,
0001
0000
0000
0100
0010
0000
1000
0000
0001
0100
0010
0000
1000
0000
1000
0000
,
0100
0000
0000
0010
0001
0000
1000
0000
0100
0010
0001
0000
0100
0000
0010
0000
,
1000
0000
0000
0001
0100
0000
0010
0000
1000
0001
0100
0000
0010
0000
1000
0000
,
0100
0000
0000
0010
0100
0000
1000
0000
0001
0010
0100
0000
0010
0000
0001
0000
,
1000
0000
0000
0010
0100
0000
0001
0000
1000
0010
0100
0000
0010
0100
0010
0100
,
0001
0000
1000
0000
0100
0000
0010
0100
0000
0100
0000
0010
0001
0000
0001
0000
,
1000
0000
0010
0000
0100
0000
0010
1000
0000
1000
0000
0001
0010
0000
0100
0000
,
1000
0000
0001
0000
0010
0000
0100
0010
0000
0010
0000
0100
1000
0000
0001
0100
,
0010
0000
0000
0000
,
1010
0000
0000
0101
0000
0000
1010
0000
1000
0000
0001
0000
0010
0000
0001
0000
,
1000
0010
0001
0010
0100
0010
1000
0001
,
0011
0000
0000
1100
0000
0000
0011
0000
0001
0000
1000
0000
0100
0000
0010
0000
,
0002
0000
0010
0000
1003
0000
0010
0000
0100
0010
0100
0010
1000
0000
0001
0000
,
0011
0000
0000
1100
0000
0000
0011
0000
0001
0000
1000
0000
0100
0000
1000
0000
,
0001
0000
0100
0000
1000
0000
0001
0000
0010
0000
0100
0000
0001
0100
0001
0000
,
0101
0000
0000
1010
0000
0000
0101
0000
0001
0000
1000
0000
0100
0000
0010
0000
,
0001
0100
0010
0000
0100
0000
0100
0010
1000
0100
0010
0001
0100
0000
0010
0000
,
1010
0000
1000
0000
0001
0000
0001
0010
0000
0100
1000
0000
0010
0000
0100
0000
,
0101
0000
0001
0000
1000
0000
0100
0010
0200
0000
1000
0000
0310
0000
0000
0000
,
0011
0000
0001
0000
1000
0000
0010
0100
0000
0001
1000
0000
0100
0000
0010
0000
,
0110
0000
0100
0000
1000
0000
0001
0100
0020
0000
0100
0000
1030
0000
0001
0000
,
0101
0000
0100
0000
0010
0000
1000
0100
0000
0010
0001
0000
0100
0000
0010
0000
,
0110
0000
0100
0000
0001
0000
1000
0100
0020
0000
0100
0000
0031
0000
0000
0000
,
1100
0000
1000
0000
0001
0000
0100
0010
0000
1000
0001
0000
0010
0000
0100
0000
,
1000
0000
1000
0000
0010
0000
0010
0000
0100
0001
1000
0001
0100
0001
0010
0100
,
2000
0000
0100
0000
0100
0000
0000
0100
0000
0100
0000
0000
0100
0000
0000
0000
,
3002
0000
0100
0000
0100
0000
0000
0100
0000
0100
0000
0000
0100
0000
0000
0000
,
2003
0000
0010
0000
0010
0000
0000
0010
0000
0010
0000
0000
0010
0000
0000
0000
,
3002
0000
0010
0000
0010
0000
0000
0010
0000
0010
0000
0000
0010
0000
1000
0000
,
1003
0010
0100
0001
0010
0100
1000
0010
,
0100
1000
0100
0010
0100
0001
1000
0100
,
0010
0000
0000
0001
0010
0000
0100
0000
0000
0010
0001
0000
0100
0000
0010
0000
,
1000
0000
0010
0100
0000
0000
0001
0000
0000
0100
0010
0000
1000
0000
0001
0000
,
0001
1000
0100
0010
0001
0100
0010
0001
,
1000
0100
0010
0100
0001
1000
0100
0010
,
0001
0010
0001
0010
0100
0010
0100
1000
0100
1000
0001
1000
0001
1000
0010
0100
,
0020
0000
0000
0000
0000
0000
0000
0000
0130
0000
0000
0010
0000
0000
1000
0000
,
0001
0010
0100
0000
0001
0000
0100
0000
0020
0000
0001
0000
0130
0000
1000
0000
,
0001
0100
0010
0000
0001
0000
0020
0000
0100
0000
0000
0000
1030
0000
1000
0000
,
0001
0000
0010
0100
0010
0000
0001
0000
1000
0010
0100
0000
0010
0000
1000
0000
,
0001
0000
0100
0010
0100
0000
0001
0000
1000
0100
0010
0000
0002
0000
0000
0000
,
1003
0010
0100
0000
1000
0000
0100
0000
0020
0000
1000
0000
0130
0000
0001
0000
,
1000
0100
0010
0000
1000
0000
0020
0000
0100
0000
0000
0000
0031
0000
0001
0000
,
1000
0010
0001
1000
0100
0010
1000
0001
,
1000
0000
0100
0000
0001
0000
1000
0000
0010
0000
0000
0100
0010
0000
0001
1000
,
0010
0001
0010
1000
0002
0010
1003
0100
,
0010
1000
0010
0001
0200
0000
1000
0010
,
0301
0000
1000
0100
0010
0000
1000
0000
0010
0100
0010
0000
0002
0000
0000
0000
,
1003
0000
0001
0100
0010
0000
0001
0000
0010
0100
0010
0000
1000
0000
1000
0000
,
0001
0010
1000
0001
0100
0010
0001
0100
,
0010
1000
0100
0010
1000
0001
0100
0010
,
0001
1000
0010
0001
1000
0100
0001
1000
,
0001
0010
0001
0010
0100
1000
0100
1000
0001
1000
0001
1000
0010
0100
0010
0100
,
0001
0000
0000
0001
0010
0000
0100
0000
0010
0100
1000
0000
0002
0000
0100
0000
,
1003
0000
0000
1000
0010
0000
0100
0000
0010
0100
0001
0000
2000
0000
0100
0000
,
3001
0000
0000
0001
0010
0000
0100
0000
1000
0100
0010
0000
0002
0000
0010
0000
,
1003
0000
0000
1000
0010
0000
0100
0000
0001
0100
0010
0000
2000
0000
0001
0000
,
3100
0010
0100
1000
0001
0010
0100
0100
,
1000
0001
0100
0010
1000
0001
0100
0100
,
0001
0010
0100
1000
0001
0010
0100
0100
,
2000
0000
0000
0000
0000
0000
0000
0000
0000
0000
0000
3010
0100
0000
0110
0000
;
