#TITLE:jelly kiss;
#SUBTITLE:;
#ARTIST:Togo project feat. Sana;
#TITLETRANSLIT:;
#SUBTITLETRANSLIT:;
#ARTISTTRANSLIT:;
#GENRE:;
#CREDIT:;
#MUSIC:jelly kiss.ogg;
#BANNER:jelly kiss.png;
#BACKGROUND:jelly kiss-bg.png;
#CDTITLE:./CDTITLES/Song Pack 9.png;
#SAMPLESTART:65.760;
#SAMPLELENGTH:15.000;
#SELECTABLE:YES;
#OFFSET:0.000;
#BPMS:0.000=135.000;
#STOPS:;
#BGCHANGES:;
#FGCHANGES:;

//--------------- dance-single - KONAMI ----------------
#NOTES:
     dance-single:
     KONAMI:
     Beginner:
     3:
     0,0,0,0,0:
0000
0000
0000
0000
,
0000
0000
0000
0000
,
0000
0000
0000
0000
,
0000
0000
0000
0000
,
0000
0000
0000
0000
,
1000
0000
0001
0000
,
0100
0000
0010
0000
,
1000
0000
0100
0000
,
0001
0000
0000
0000
,
0001
0000
1000
0000
,
0100
0000
0010
0000
,
0001
0000
0100
0000
,
0010
0000
0000
0000
,
0010
0000
0001
0000
,
0100
0000
0010
0000
,
0100
0000
0001
0000
,
0010
0000
0000
0000
,
0100
0000
0001
0000
,
1000
0000
1000
0000
,
0001
0000
0000
0000
,
0000
0000
0010
0000
,
0010
0000
0000
0000
,
0000
0000
0000
0000
,
0001
0000
0000
0000
,
0000
0000
0010
0000
,
0010
0000
0000
0000
,
0000
0000
0001
0000
,
0001
0000
1000
0000
,
0100
0000
0010
0000
,
0001
0000
0100
0000
,
0100
0000
0000
0000
,
1000
0000
0000
0000
,
1000
0000
0001
0000
,
0010
0000
0100
0000
,
1000
0000
0010
0000
,
0010
0000
0100
0000
,
0010
0000
0000
0000
,
1000
0000
1000
0000
,
0100
0000
0010
0000
,
0100
0000
0100
0000
,
1000
0000
0001
0000
,
1000
0000
0010
0000
,
1000
0000
0100
0000
,
0100
0000
0000
0000
,
0000
0000
0000
0000
,
0000
0000
0000
0000
,
0000
0000
0000
0000
,
0001
0000
1000
0000
,
0100
0000
0100
0000
,
1000
0000
0001
0000
,
0010
0000
0010
0000
,
0001
0000
0010
0000
,
1000
0000
0100
0000
,
0000
0000
0000
0000
,
0000
0000
1000
0000
,
0001
0000
0100
0000
,
0010
0000
1000
0000
,
0001
0000
1000
0000
,
0100
0000
1000
0000
,
0010
0000
0100
0000
,
0010
0000
1000
0000
,
1000
0000
0001
0000
,
0010
0000
0001
0000
,
1000
0000
1001
0000
;

//--------------- dance-single - KONAMI ----------------
#NOTES:
     dance-single:
     KONAMI:
     Easy:
     5:
     0,0,0,0,0:
0000
0000
0000
0000
,
0000
0000
0000
0000
,
0000
0000
0000
0000
,
0000
0000
0000
0000
,
0000
0000
0000
0000
,
1000
0000
0001
0000
,
0100
0000
0010
0000
,
1000
0000
0100
0000
,
0002
0000
0000
0003
,
0001
0000
1000
0000
,
0100
0000
0010
0000
,
0001
0000
0100
0000
,
0020
0000
0000
0030
,
0010
1000
0001
1000
,
0100
0000
0010
0000
,
0100
1000
0001
1000
,
0020
0000
0000
0030
,
0100
0000
0001
0000
,
1000
0001
1000
0001
,
0002
0000
0000
0000
,
0000
0003
0010
0100
,
0020
0000
0000
0000
,
0000
0000
0000
0030
,
0001
2000
0000
0000
,
3000
0000
0010
0100
,
0010
0200
0000
0000
,
0300
0000
0001
1000
,
0001
0000
1000
0000
,
0100
0000
0010
0000
,
0001
1000
0100
0010
,
0200
0000
0000
0300
,
1000
0002
0000
0003
,
1000
0000
0001
0000
,
0010
0000
0100
0000
,
1000
0000
0010
0000
,
0010
0100
0100
0010
,
0020
0000
0000
0030
,
1000
0001
1000
0001
,
0100
0100
0010
0010
,
0100
0010
0100
0010
,
1000
1000
0001
0001
,
1000
0001
0010
0100
,
1000
0001
0100
0010
,
0200
0000
0000
0000
,
0000
0000
0000
0300
,
0000
0000
0000
0000
,
0000
0000
0000
0000
,
0001
0001
1000
0001
,
0100
0010
0100
0010
,
1000
1000
0001
1000
,
0010
0100
0010
0100
,
0001
0001
0010
0100
,
1000
1000
0100
0020
,
0000
0000
0000
0030
,
0000
0000
1000
0000
,
0001
0000
0100
0000
,
0010
0000
1000
0000
,
0001
0000
1000
0000
,
0100
0000
1000
0000
,
0010
0000
0100
0000
,
0010
0010
1000
0100
,
1000
1000
0001
0100
,
0010
1000
0001
0001
,
1000
1000
2002
0000
,
0000
0000
0000
3003
;

//--------------- dance-single - KONAMI ----------------
#NOTES:
     dance-single:
     KONAMI:
     Medium:
     6:
     0,0,0,0,0:
0000
0000
0000
0000
,
0000
0000
0000
0000
,
0000
0000
0000
0000
,
0000
0000
0000
0000
,
0000
0000
0000
0000
,
0110
0000
0000
0000
0000
1001
0000
1001
,
0000
0000
0000
1000
0000
0001
0000
0000
,
0110
0000
0000
0000
0000
0010
0000
0200
,
0000
0000
0000
0300
,
0110
0000
0000
0000
0000
1010
0000
1010
,
0000
0000
0000
0010
0000
1000
0000
0000
,
1100
0000
0000
0000
0000
1000
0000
0002
,
0000
0000
0000
0003
,
0110
0000
1000
0000
0001
0000
1000
1000
,
0000
0000
0000
0110
0000
1001
0000
0000
,
0110
0000
0100
0000
0010
0000
0100
0200
,
0000
0000
0000
0300
,
1100
0000
1000
0000
0100
0000
1000
1000
,
0000
0000
0000
1100
0000
0101
0000
0001
,
0002
0000
0000
0000
,
0000
0000
0003
1000
0000
1000
0100
0200
,
0000
0000
0000
0000
,
0000
0000
0000
0300
,
0110
0220
0000
0000
,
0000
0330
0000
1000
0000
0000
0001
0000
,
1001
2002
0000
0000
,
0000
3003
0000
0001
0000
0000
1000
0000
,
1001
0000
0000
0000
0000
0101
0000
0101
,
0000
0000
0000
1000
0000
0100
0000
0000
,
1100
0000
0000
0000
0000
1001
0000
2002
,
0000
0000
0000
3003
,
0100
0020
0000
0000
,
0030
0000
0000
1001
0000
0101
0000
0000
,
1000
0010
1000
0001
,
1000
0100
0100
0010
,
0100
1000
0001
1000
,
0020
0000
0000
0030
,
1001
0000
1001
0000
0100
0100
0000
2000
,
0000
0000
0000
3002
0000
0000
0003
0000
,
0110
0000
0110
0000
0001
0001
0000
1000
,
0000
0100
0000
0110
0000
0000
0000
0000
,
1100
0000
1100
0000
0100
0100
0000
2000
,
0000
0000
0000
3002
0000
0000
0003
0000
,
1001
0000
0000
0000
0000
0110
0000
0110
,
0000
0000
0000
0010
0000
0000
1000
0000
,
0001
0000
1001
0000
0000
0110
0000
0110
,
0000
0000
0000
0010
0000
0000
1000
0000
,
0001
0010
0001
0100
,
0010
1000
0010
0100
,
0001
1000
0010
0100
,
0010
0001
0100
1000
,
0010
0001
0100
1000
,
0100
0001
1000
0200
,
0000
0000
0000
0300
,
0000
0000
0110
0110
,
1000
1000
0000
0002
0000
0000
0000
2003
,
0000
3000
0011
0011
,
0001
0001
0000
1000
0000
0001
0000
2002
,
0000
3003
1100
1100
,
0010
0010
0000
0200
0000
0000
0000
0320
,
0000
0030
2002
0000
,
3003
0100
0000
0100
0000
0000
0000
0010
,
0000
0100
0000
0001
0002
0000
0000
0000
,
0000
0023
0000
0200
0000
0000
0000
0000
,
0000
0000
0000
0330
;

//--------------- dance-single - KONAMI ----------------
#NOTES:
     dance-single:
     KONAMI:
     Hard:
     10:
     0,0,0,0,0:
0000
0000
0000
0000
,
0000
0000
0000
0000
,
0000
0000
0000
0000
,
0000
0000
0000
0000
,
0000
0000
0000
0000
,
1001
0000
0000
0000
0000
0020
0000
0100
,
0000
0000
0000
2030
0000
3001
0000
0000
,
1001
0000
0000
0000
0000
0010
0000
0200
,
0000
0000
0000
0300
,
0110
0000
0000
0000
0000
2000
0000
0010
,
0000
0000
0000
3002
0000
0013
0000
0000
,
0110
0000
0000
0000
0000
1000
0000
0020
,
0000
0000
0000
0030
,
0011
0000
0001
0010
0010
0100
0100
0100
,
0000
0000
0000
1100
0000
0101
0000
0000
,
1010
0000
1000
0100
0100
0010
0010
0010
,
0000
0000
0000
0000
0000
0000
1000
0000
0000
1001
0000
0000
0001
0000
0000
0000
,
0101
0000
1000
0001
0001
0100
0100
0100
,
0000
0000
0000
0010
0000
0001
0000
0100
,
0101
0000
0101
0000
0000
0001
0100
0001
,
0000
1000
0100
1000
0000
0010
1000
0100
,
0000
0010
0001
0100
0000
0001
1000
0100
,
0000
1000
0001
0100
0000
0001
0000
1000
,
1100
2200
0000
0000
,
0000
3300
0000
0101
0000
0000
0010
0000
,
0011
0022
0000
0000
,
0000
0033
0000
1010
0000
0000
1000
0000
,
1001
0000
0000
0000
0000
0002
0000
0100
,
0000
0000
0000
2003
0000
3100
0000
0000
,
0110
0000
0000
0000
0000
0020
0000
0100
,
0000
0000
0000
0000
0000
0000
0000
0000
0130
0000
0000
1000
0000
0100
0000
0000
,
0010
0000
0011
0000
0000
0010
0001
2000
,
0000
0000
0000
0100
0000
3100
0000
0000
,
0001
0000
0101
0000
0000
0010
0100
0010
,
0000
1000
0001
1000
0000
0010
1000
0001
,
0100
0000
0101
0000
0000
0010
1000
0100
,
0000
0010
0001
0200
0000
0000
0300
0000
,
0001
0001
0001
0000
1000
0100
0000
0020
,
0000
0000
0000
0032
0000
0000
0003
0000
,
1001
0000
0001
0000
1000
0100
0000
1010
,
0000
1001
0000
0101
0000
0000
0000
0000
,
0110
0000
1001
0000
1000
0001
0000
0200
,
0000
0000
0000
0320
0000
0000
0030
0000
,
1010
0000
0000
0000
0000
0001
0000
0101
,
0000
0000
0000
0010
0000
0000
1000
0000
,
0100
0000
1100
0000
0000
0001
0000
0101
,
0000
0000
0000
0110
0000
0000
1000
0000
,
0010
1000
0010
0000
0100
0001
0100
0000
,
0000
0000
0000
0000
0010
1000
0000
0010
0000
0000
0100
0000
0010
0000
0000
0000
,
1000
0100
1000
0000
0010
0001
0010
0000
,
0000
0000
0000
0000
0100
1000
0000
0100
0000
0000
0010
0000
0100
0000
0000
0000
,
0010
0100
0010
0000
0001
1000
0001
0000
,
0010
0000
0001
0000
1000
0001
0000
1000
0000
0000
0100
0000
0200
0000
0000
0000
,
0000
0000
0000
0000
0000
0300
0000
0010
,
0001
0010
0100
0100
0100
1000
1100
0000
,
0010
0100
0000
2000
0000
0000
0000
3002
,
0000
0003
0010
0110
,
0010
0001
0000
0011
0000
1001
0000
2200
,
0000
3300
1000
0001
,
1000
0100
0000
0020
0000
0000
0000
0032
,
0000
0003
2002
0000
,
3003
0100
0000
1001
0000
0000
0000
0001
,
0000
1000
0000
0001
0200
0000
0000
0000
,
0000
0310
0000
0220
0000
0000
0000
0000
,
0000
0000
0000
0330
;

//--------------- dance-single - aboutblank ----------------
#NOTES:
     dance-single:
     aboutblank:
     Challenge:
     13:
     0,0,0,0,0:
0000
0000
0000
0000
,
0000
0000
0000
0000
,
0000
0000
0000
0000
,
0000
0000
0000
0000
,
0000
0000
0000
0000
,
1001
0000
0000
0000
0000
1010
0000
0101
,
0000
0000
0000
0000
0000
0000
0001
0000
0000
0000
0001
0000
0000
0000
0010
0001
,
0010
0000
0000
0000
0000
0011
0000
1100
,
0000
0000
0000
0000
,
1001
0000
0000
0000
0000
0101
0000
1100
,
0000
0000
0000
0000
0000
0000
0010
0000
0000
0000
0010
0000
0000
0000
1000
0010
,
0100
0000
0000
0000
0000
0110
0000
2002
,
0000
0000
0000
3003
,
1100
0000
0001
1000
0100
0001
1000
0020
,
0000
0000
0000
0000
1000
0000
0031
0000
0000
0100
0001
0000
0010
0000
0010
0000
,
0001
0000
0100
0010
0001
1000
0100
0002
,
0010
0013
0000
0022
0000
0000
0033
0000
,
1001
0000
1000
0001
0100
0001
1000
0020
,
0000
0000
0000
0000
0001
0000
1030
0000
0000
0000
0100
0000
0010
0000
0001
1000
,
0020
0000
0001
0000
0000
0000
1000
0000
0000
0000
0001
0000
0000
0000
0130
0001
,
2000
0010
0000
0001
0000
3010
1000
0001
,
0200
0000
0010
0000
0000
0000
1000
0000
0000
0000
0010
0000
0000
0000
1300
0100
,
0010
0000
1000
0000
0001
0000
0010
0100
0000
0000
0000
0000
0110
0000
0000
0000
,
1001
0000
0002
0000
0000
0010
0000
0013
,
0000
0000
0000
2000
0000
0000
3100
0000
,
1002
0000
0013
0000
0000
0101
0000
1200
,
0000
0000
0000
0001
0000
0000
0010
0000
,
1300
0000
0000
0001
0100
0000
0010
0000
0001
0000
0010
0000
1000
0000
1010
0000
,
0000
0000
0000
0000
0001
0000
0020
0000
0000
0000
0130
0000
1000
0000
0001
0100
,
0010
0000
1000
0001
1000
1100
0001
0101
,
0000
0000
0000
0000
0000
0000
1000
0000
0000
0001
0000
0000
1000
0000
0000
0000
0000
0000
0000
0000
0000
0000
0000
0000
0010
0000
0000
0000
0000
0000
0000
0000
0100
0000
0000
0000
0000
0000
0000
0000
0001
0000
0000
0000
0000
0000
0000
0000
,
1000
0000
0000
0000
0110
0000
0000
0001
1000
0000
0100
0000
0010
0000
1001
0000
,
0000
0000
0000
0000
0001
0000
0020
0000
0000
0000
0130
0000
1000
0000
0010
0100
,
0002
0000
1000
0000
0000
0000
0100
0000
0000
0000
1000
0000
0000
0000
0103
0001
,
0020
1000
0000
0001
0000
1030
0001
0010
,
0200
0000
1000
0000
0000
0000
0010
0000
0000
0000
1000
0000
0000
0000
0310
0001
,
1000
1000
0000
0020
0000
0130
0001
1000
,
1100
0000
0010
0000
0102
0000
0003
0010
0100
0000
1000
0000
0100
0000
0020
0000
,
0000
0030
1000
0000
0010
0001
0100
0000
0000
0000
0010
0000
1000
0000
0010
0000
,
1100
0000
0010
0000
0102
0000
0003
0100
0010
0000
1000
0000
0001
0000
0020
0000
,
0000
0130
1000
0020
0000
0130
0001
1000
,
1010
0100
0011
0020
0000
0130
0010
0001
,
0011
0000
0100
0000
1010
0000
0020
0000
0000
0000
1030
0000
0100
0000
0100
0010
,
0001
0000
0000
0000
0000
1100
0000
0101
,
0000
0000
0000
2000
0000
3000
0020
0030
,
0101
0000
0001
0000
0000
1010
0000
0001
,
0200
0000
0000
1000
0000
0000
0001
0000
0000
1300
0000
0000
0100
0000
0001
0000
1000
0000
0100
0000
0001
0000
0100
0000
,
1000
0000
0100
0000
0010
0001
0000
0101
0000
0000
0001
0000
1000
0000
0010
0000
,
1010
0000
0001
0000
1000
0100
0000
0110
0000
0000
0001
0000
0010
0000
0100
0000
,
0110
0000
1000
0000
0010
1000
0000
1100
0000
0000
0100
0000
0010
0000
0001
0000
,
1001
0000
1000
0000
0001
0100
0000
1010
0000
0010
0100
0000
0001
0000
0010
0000
,
0011
0000
1000
0000
0001
0100
0000
1100
0000
0000
0100
0000
0010
0000
1000
0000
,
1100
0000
1000
0000
0100
0010
0001
0100
0000
0000
2000
0000
0002
0000
0000
0000
,
0000
0000
0000
0000
,
0000
0000
0000
0000
3003
0000
0000
0000
0110
0000
0000
0000
1001
0000
0000
1000
,
0100
0000
0010
0000
0001
0000
0200
0000
0000
0000
1300
0000
0100
0010
1000
0000
,
0000
0000
0001
0010
0100
0000
1000
0000
0101
0000
0010
0000
1100
0000
0000
0001
,
0100
0000
1000
0000
0100
0000
0020
0000
0000
0000
1030
0000
0001
0010
0100
0000
,
1000
0001
0100
0010
1100
0010
0101
2000
,
0000
3010
1000
0100
0011
0100
1010
0002
,
0000
0000
1003
0000
0010
0000
0100
0010
0100
0000
0000
0000
0110
0000
0000
0000
,
0000
0101
0000
1100
0000
0001
1000
0001
,
0000
0000
0010
0000
0100
0000
0010
0000
0011
0000
0000
0000
1100
0000
0000
0001
,
1000
0000
0100
0000
0001
0100
2000
0000
0000
0000
0000
0000
0000
0000
0000
0000
,
0000
0000
3000
0000
;

//--------------- dance-double - KONAMI ----------------
#NOTES:
     dance-double:
     KONAMI:
     Easy:
     4:
     0,0,0,0,0:
00000000
00000000
00000000
00000000
,
00000000
00000000
00000000
00000000
,
00000000
00000000
00000000
00000000
,
00000000
00000000
00000000
00000000
,
00000000
00000000
00000000
00000000
,
00000001
00000000
00000010
00000000
,
00000100
00000000
00001000
00000000
,
00000100
00000000
00001000
00000000
,
00000200
00000000
00000000
00000300
,
00010000
00000000
00001000
00000000
,
00010000
00000000
00001000
00000000
,
00010000
00000000
01000000
00000000
,
00200000
00000000
00000000
00300000
,
01000000
10000000
01000000
10000000
,
00100000
00000000
10000000
00000000
,
10000000
01000000
00010000
01000000
,
00020000
00000000
00000000
00030000
,
00001000
00000000
00010000
00000000
,
00001000
00010000
00001000
00010000
,
00002000
00000000
00000000
00000000
,
00000000
00003000
00000100
00000010
,
00000200
00000000
00000000
00000000
,
00000000
00000000
00000000
00000300
,
00000010
00000200
00000000
00000000
,
00000300
00000000
00000001
00001000
,
00000001
00002000
00000000
00000000
,
00003000
00000000
00010000
00001000
,
00010000
00000000
01000000
00000000
,
10000000
00000000
00100000
00000000
,
10000000
01000000
00100000
01000000
,
20000000
00000000
00000000
30000000
,
01000000
00200000
00000000
00300000
,
00100000
00000000
01000000
00000000
,
00010000
00000000
00001000
00000000
,
00000100
00000000
00000001
00000000
,
00000010
00000001
00000100
00001000
,
00000200
00000000
00000000
00000300
,
00000001
00001000
00000001
00001000
,
00000010
00000100
00001000
00001000
,
00010000
00001000
00010000
00001000
,
00010000
00010000
01000000
01000000
,
00100000
00010000
10000000
01000000
,
10000000
01000000
00100000
00010000
,
20020000
00000000
00000000
00000000
,
00000000
00000000
00000000
30030000
,
00000000
00000000
00000000
00000000
,
00000000
00000000
00000000
00000000
,
00000010
00000010
00000100
00000010
,
00001000
00000001
00001000
00000001
,
00000100
00000100
00000010
00000100
,
00001000
00000100
00001000
00000100
,
00001000
00001000
00010000
01000000
,
00100000
00100000
00010000
20000000
,
00000000
00000000
00000000
30000000
,
00000000
00000000
00100000
00000000
,
10000000
00000000
00100000
00000000
,
10000000
00000000
01000000
00000000
,
00010000
00000000
00001000
00000000
,
00000100
00000000
00000001
00000000
,
00000010
00000000
00000001
00000000
,
00000100
00000100
00001000
00010000
,
01000000
01000000
10000000
01000000
,
00100000
01000000
00010000
00010000
,
00001000
00001000
00022000
00000000
,
00000000
00000000
00000000
00033000
;

//--------------- dance-double - KONAMI ----------------
#NOTES:
     dance-double:
     KONAMI:
     Medium:
     5:
     0,0,0,0,0:
00000000
00000000
00000000
00000000
,
00000000
00000000
00000000
00000000
,
00000000
00000000
00000000
00000000
,
00000000
00000000
00000000
00000000
,
00000000
00000000
00000000
00000000
,
00010000
00001000
00010000
00001000
,
00000100
00000001
00000100
00001000
,
00000100
00000010
00001000
00000001
,
00000200
00000000
00000000
00000300
,
00001000
00010000
00001000
00010000
,
01000000
00010000
01000000
00010000
,
01000000
10000000
01000000
10000000
,
02200000
00000000
00000000
03300000
,
00100000
00010000
10000000
01000000
,
10000000
00010000
10000000
01000000
,
10000000
01000000
00010000
01000000
,
00020000
00000000
00000000
00030000
,
00001000
00010000
00001000
00010000
,
00001000
00000100
00001000
00000100
,
00000220
00000000
00000000
00000000
,
00000000
00000330
00001000
00000001
,
00002002
00000000
00000000
00000000
,
00000000
00000000
00000000
00003003
,
00000110
00002002
00000000
00000000
,
00000000
00003003
00000010
00000100
,
00001001
00000220
00000000
00000000
,
00000330
00000000
00001001
00000110
,
00000100
00000100
00001000
00001000
,
00010000
00001000
00010000
00001000
,
00010000
01000000
00010000
01000000
,
20020000
00000000
00000000
30030000
,
01100000
20020000
00000000
30030000
,
00100000
10000000
01000000
01000000
,
00010000
00001000
00010000
00001000
,
00000100
00001000
00000100
00001000
,
00000100
00000001
00000100
00001000
,
00000220
00000000
00000000
00000330
,
00000010
00000001
00000100
00001000
,
00010000
00001000
00000100
00001000
,
00010000
00100000
00010000
00001000
,
00010000
01000000
00010000
00001000
,
00010000
01000000
00010000
00001000
,
00000010
00001000
00010000
00001000
,
00022000
00000000
00000000
00000000
,
00000000
00000000
00000000
00033000
,
00000000
00000000
00000000
00000000
,
00000000
00000000
00000000
00000000
,
00100000
10000000
01000000
10000000
,
00010000
01000000
00010000
00100000
,
01000000
00010000
00001000
00000100
,
00001000
00010000
00001000
00000010
,
00000001
00000100
00001000
00010000
,
00100000
10000000
01000000
20020000
,
00000000
00000000
00000000
30030000
,
00000000
00000000
10000000
00010000
,
00100000
01000000
00100000
01000000
,
10000000
01000000
00010000
01000000
,
10000000
01000000
00010000
00001000
,
00000100
00000001
00000010
00000001
,
00001000
00000001
00000010
00000100
,
00001000
00000010
00000100
00001000
,
00010000
00100000
00010000
00001000
,
00000100
00001000
00010000
00100000
,
00010000
00001000
00022000
00000000
,
00000000
00000000
00000000
00033000
;

//--------------- dance-double - KONAMI ----------------
#NOTES:
     dance-double:
     KONAMI:
     Hard:
     10:
     0,0,0,0,0:
00000000
00000000
00000000
00000000
,
00000000
00000000
00000000
00000000
,
00000000
00000000
00000000
00000000
,
00000000
00000000
00000000
00000000
,
00000000
00000000
00000000
00000000
,
00000200
00000000
00000000
00000000
00000000
00000001
00000000
00000001
,
00000000
00000000
00000000
00000010
00000000
00000310
00000000
00000000
,
00020000
00000000
00000000
00000000
00000000
00001000
00000000
00031000
,
00000000
00000000
00000000
00000000
,
00200000
00000000
00000000
00000000
00000000
10000000
00000000
10000000
,
00000000
00000000
00000000
01000000
00000000
01300000
00000000
00000000
,
20000000
00000000
00000000
00000000
00000000
00010000
00000000
30010000
,
00000000
00000000
00000000
00000000
,
10010000
00000000
00100000
10000000
01000000
01000000
00010000
00002000
,
00000000
00000000
00000000
00013000
00000000
00010000
00001000
00010000
,
00001000
00000000
00001000
00000100
00000001
00000001
00000010
00000002
,
00000000
00000000
00000000
00000003
,
00001001
00000000
00000010
00000001
00000100
00000100
00001000
00020000
,
00000000
00000000
00000000
00031000
00000000
00001000
00010000
00001000
,
00010000
00000000
00011000
00000000
00000000
00010000
01000000
20000000
,
00000000
00000000
00000000
31000000
00000000
00100000
00010000
10000000
,
01000000
00000000
10010000
00000000
00000000
10000000
01000000
00020000
,
00000000
00000000
00000000
00031000
00000000
00001000
00000100
00000010
,
00000100
00002002
00000000
00000000
,
00003003
00000000
00000000
00000020
00000000
00000000
00001000
00000000
,
00000100
00002030
00000000
00000000
,
00000000
00000000
00000000
00003100
00000000
00000000
00010000
00000000
,
00011000
00000000
00010000
01000000
00100000
00100000
00010000
02000000
,
00000000
00000000
00000000
03100000
00000000
10000000
01000000
00100000
,
01000000
00000000
00010000
00001000
00000100
00000100
00000001
00000020
,
00000000
00000000
00000000
00000000
00000000
00000000
00000031
00000000
00001000
00000000
00000100
00000000
,
00010000
00000000
00001000
00000000
00010000
01000000
00000000
02000000
,
00000000
00000000
00000000
03100000
00000000
00100000
00010000
10000000
,
02000000
00000000
00000000
00000000
,
00000000
00000000
00000000
03100000
00000000
01000000
00010000
00020000
,
00000000
00000000
00000000
00000000
,
00000000
00000000
00000000
00031000
00000000
00010000
00001000
00000100
,
00000100
00000001
00000010
00000000
00000001
00000101
00000000
00000101
,
00000000
00000000
00000001
00000010
00000000
00000010
00000001
00000000
,
00001000
00000100
00001000
00000000
00000100
00001000
00000000
00011000
,
00000000
01001000
00000000
01010000
00000000
00100000
10000000
01000000
,
01000000
00010000
01000000
00000000
01000000
11000000
00000000
20000000
,
00000000
00000000
00000000
30100000
00000000
00100000
10000000
01000000
,
20020000
00000000
00000000
00000000
,
00000000
00000000
00000000
30030000
,
01000000
00000000
00010000
00000000
00000000
00001000
00000000
00000200
,
00000000
00000000
00000000
00000301
00000000
00000000
00001001
00000000
,
00000010
00000001
00000001
00000100
00001000
00000100
00000100
00000000
,
00001000
00010000
00010000
01000000
10000000
01000000
01000000
00000000
,
00100000
00010000
00010000
10000000
00100000
01000000
01000000
00000000
,
00100000
10000000
10000000
01000000
00100000
00010000
00010000
00000000
,
01000000
00001000
00001000
00010000
00001000
00000100
00000100
00000000
,
00000001
00001000
00001000
00000100
00000010
00000001
00000002
00000000
,
00000000
00000000
00000000
00000000
00000000
00000000
00000003
00000100
,
00000010
00001000
00000001
00000100
00001000
00000000
00011000
00000000
,
00001000
00010000
00000000
01010000
00000000
00000000
10000000
11000000
,
00000000
00010000
01010000
00000000
00100000
00010000
10000000
00000000
,
01000000
00100000
00000000
00101000
00000000
00011000
00000000
00010100
,
00000000
00000000
00000000
00000000
00000100
00000001
00000010
00000000
,
00000010
00000011
00000000
00000001
00000100
00001000
00000000
00010000
,
01000000
01000000
10000000
01000000
00200000
00000000
00000000
00000000
,
00000000
01000000
00000000
01300000
00000000
00000000
00000000
00010000
,
00000000
00011000
00000000
00001000
00020000
00000000
00000000
00000000
,
00000000
00031000
00000000
00022000
00000000
00000000
00000000
00000000
,
00000000
00000000
00000000
00033000
;

//--------------- dance-double - forcednature ----------------
#NOTES:
     dance-double:
     forcednature:
     Challenge:
     12:
     0,0,0,0,0:
00000000
00000000
00000000
00000000
,
00000000
00000000
00000000
00000000
,
00000000
00000000
00000000
00000000
,
00000000
00000000
00000000
00000000
,
00000000
00000000
00000000
00000000
,
00022000
00000000
00033000
00000000
00000000
01000000
00000000
10000000
,
00000000
00000000
00000000
00000000
00000000
00000000
00100000
00000000
00000000
00000000
01000000
00000000
00000000
00000000
00001000
00010000
,
00002000
00000000
00003000
00000000
00000000
00000110
00000000
00002200
,
00000000
00000000
00000000
00003300
,
00000022
00000000
00000033
00000000
00000000
00000001
00000000
00000100
,
00000000
00000000
00000000
00000000
00000000
00000000
00001000
00000000
00000000
00000000
00010000
00000000
00000000
00000000
00100000
01000000
,
00200000
00000000
00300000
00000000
00000000
10000000
00000000
01100000
,
00000000
00000000
00000000
10000000
00010000
00000000
00010000
01000000
00000000
01000000
00000000
00000000
00001000
00010000
00001000
00010000
,
00002000
00000000
00003010
00000100
00001000
00000001
00000100
00001000
,
00000000
00000000
00000000
00011000
00000000
00010000
00100000
10000000
,
00020000
00000000
10030000
01000000
00010000
00001000
00000010
00000100
,
00000000
00000000
00001000
00000000
00000000
00000000
00001000
00000000
00000000
00000100
00000000
00000000
00001000
00000000
00000000
00000000
00000000
00000000
00002010
00000000
00000000
00000000
00000000
00000000
00000000
00000000
00000000
00000001
00000000
00000000
00000000
00000000
00000000
00000000
00000000
00000000
00000100
00000000
00000000
00003100
00000000
00000000
00000000
00000000
00000000
00000000
00000000
00000000
,
00002001
00000000
00003001
00000100
00001000
00010000
01000000
00100000
,
00000000
00000000
00000000
00000000
00010000
00000000
10010000
00000000
00000000
00000000
10000000
00000000
01000000
00000000
00010000
00001000
,
00010000
00000010
00010000
00001000
00010000
01000000
00100000
00010000
,
00000000
00000000
01000000
00000000
00001000
00000000
00010000
00000100
00000000
00000100
00001000
00000000
00000001
00000000
00000000
00000000
,
00000100
00001000
01000000
00001000
00010000
01000000
10000000
00010000
,
00000000
00000000
10000000
00000000
01000000
00000000
00100000
00010000
00000000
00000000
00001000
00000000
00001000
00001000
00000000
00000000
,
00000110
00000000
00000110
00000000
00000000
00000001
00000100
00001000
,
00000000
00000000
00000000
00000000
00000000
00000000
00022000
00000000
00000000
00000000
00030000
00000000
01000000
01003000
00000000
00000000
,
00011000
00000000
00011000
00000000
00000000
01000000
00010000
00100000
,
00000000
00000000
00000000
02000000
00000000
00000000
03020000
00030000
,
00021000
00000000
00030100
00010000
00001000
00000100
00000001
00000010
,
00000000
00000000
00000000
00000100
00001000
00000000
00001000
00000010
00000000
00000010
00010000
00000000
00001000
00100000
00001000
00000000
,
00020000
00000000
00130000
10000000
01000000
00010000
00001000
00000020
,
00000000
00000100
00000000
00000100
00000000
00000000
00000230
00000000
00000000
00000000
00000000
00000000
00001300
00000000
00000000
00000000
00010000
00000000
00000000
00000000
01000000
00000000
00000000
00000000
,
02100000
00000000
03010000
10000000
00100000
00010000
00001000
00000010
,
00000000
00000000
00000100
00001000
00000000
00000001
00000100
00001000
,
00010000
00000100
00010000
00001000
00010000
00100000
00010000
00001000
,
00010000
01000000
00010000
00000010
00010000
00001000
00000010
00000001
,
00000100
00000010
00000100
00001000
00010000
01000000
00100000
00001000
,
00010000
00100000
10000000
00010000
00000000
10000000
01000000
00010000
,
00011000
00010000
00010100
00000000
00000100
00001000
00000001
00000200
,
00000000
00001300
00010000
00000200
00000000
00001300
00000010
00000000
,
00000110
00000100
00000101
00000000
00000001
00000010
00001000
00020000
,
00000000
00230000
00000000
20300000
00000000
31000000
00100000
00000000
,
01100000
01000000
11000000
10000000
00010000
01000000
00001000
00010000
,
00010100
00000100
00001100
00001000
00000001
00000100
00000010
00001000
,
00001020
00000000
00010000
00000000
00000000
00000001
00000000
00000001
,
00000000
00000030
00000010
00001000
00010000
00100000
01000000
00000000
,
02100000
00000000
03010000
00000000
00000000
10000000
00000000
10000000
,
00000000
01000000
00000000
01000000
00000000
00000000
01000000
00000000
00000000
00100000
00000000
00000000
00001000
00000000
00010000
00000000
00001000
00000000
00010000
00000000
00001000
00000000
00010000
00000000
,
00001000
00000000
00000010
00000000
00000100
00010000
00000100
00001000
00000000
00000000
00000001
00000000
00000100
00000000
00000010
00000000
,
00000100
00000000
00001000
00000000
00010000
00001000
01000000
00010000
00000000
00000000
00100000
00000000
01000000
00000000
10000000
00000000
,
00010000
00000000
01000000
00000000
00001000
00010000
00000100
00010000
00000000
00000000
00001000
00000000
00000100
00000000
00000001
00000000
,
00000110
00000000
00001000
00000000
00000001
00000100
00000001
00001000
00000000
00000000
00000010
00000000
00010000
00001000
00010000
00000000
,
00101000
00000000
00001000
00000000
00100000
01000000
10000000
00010000
00000000
00000000
01000000
00000000
00001000
00000000
00010000
00000000
,
00011000
00000000
00010000
00000000
00000100
00001000
00000001
00000100
00000000
00000000
00000010
00000000
00020000
00000000
00000000
00000000
,
00000000
00000000
00000000
00000000
00000000
00000000
00000000
00230000
,
00000000
10300000
01000000
00010000
00011000
00010100
00001100
00000000
,
00000100
00001000
00000001
00000200
00000000
00001300
00010000
01000000
,
00100000
00001000
00010000
00000000
00110000
10100000
10010000
00000000
,
10000000
01000000
00010000
00001000
00000010
00000100
00001000
00000001
,
00000100
00001000
00010000
00000000
00010100
00011000
01001000
01000000
,
00010000
00100000
00001000
00010000
00010010
00001010
00001100
00000100
,
00000010
00000001
00000100
00001000
00012000
00000000
00013000
01000000
,
00100000
00000000
00101000
00000000
00000000
00000000
00010100
00000000
00000000
00000000
00000001
00001000
00000001
00000000
00000100
00001000
,
00000000
00001000
00010000
00000000
00010000
00100000
00000000
00000000
10010000
00000000
00000000
00000000
11000000
00000000
00000000
00000000
,
10000000
10100000
00010000
02002000
00000000
00000000
00000000
00000000
,
00000000
00000000
00000000
03003000
;
