#TITLE:humming rabbit;
#SUBTITLE:;
#ARTIST:mighty puppet;
#TITLETRANSLIT:;
#SUBTITLETRANSLIT:;
#ARTISTTRANSLIT:;
#GENRE:;
#CREDIT:;
#MUSIC:mighty_puppet.ogg;
#BANNER:humming rabbit.png;
#BACKGROUND:;
#CDTITLE:;
#SAMPLESTART:65.880;
#SAMPLELENGTH:19.010;
#SELECTABLE:YES;
#OFFSET:-0.236;
#BPMS:0.000=101.000
,14.000=202.000
;
#STOPS:;
#BGCHANGES:;
#FGCHANGES:;

//--------------- dance-single - about-blank ----------------
#NOTES:
     dance-single:
     about-blank:
     Beginner:
     4:
     0,0,0,0,0:
0000
0000
0000
0000
,
0000
0000
0000
0000
,
0000
0000
0000
0000
,
0000
0000
0000
0000
,
0000
0000
0000
0000
,
0000
0000
0000
0000
,
0000
0000
0000
0000
,
0000
0000
0000
1000
,
1000
0000
1000
1000
,
0000
0100
0010
0001
,
0001
0000
0001
0001
,
0000
0100
0010
1000
,
1000
0000
0001
0001
,
0000
1000
0001
1000
,
1000
0000
0001
0001
,
0000
0010
0100
0010
,
0010
0000
0100
0100
,
0000
0010
0100
0010
,
0010
0000
0100
0100
,
0000
1000
0001
0100
,
0000
0100
0000
0100
,
0000
0100
0000
0100
,
0000
0100
0000
0100
,
0000
0100
0000
0001
,
0001
0000
0010
0010
,
0000
0100
1000
1000
,
1000
0000
0010
0010
,
0000
0100
0001
1000
,
0000
1000
0000
1000
,
0000
1000
0000
1000
,
0000
1000
0000
1000
,
0000
1000
0000
0001
,
0001
0000
0100
0100
,
0000
0010
1000
1000
,
1000
0000
0100
0100
,
0000
0010
0001
1000
,
0000
1000
0000
1000
,
0000
1000
0000
0001
,
0000
0001
0000
0001
,
0000
0001
0000
1000
,
0000
1000
0000
1000
,
0000
1000
0000
0001
,
0000
0001
0000
0001
,
0000
0001
0000
0010
,
0000
0010
0000
0010
,
0000
0010
0000
0100
,
0000
0100
0000
0100
,
0000
0100
0000
0010
,
0000
0010
0000
0100
,
0000
0100
0000
0000
,
0000
0000
0000
0000
,
0000
1001
0000
1000
,
1000
0001
0001
0100
,
0000
0000
0000
0001
,
0001
1000
1000
0100
,
0000
0000
0000
1000
,
1000
0001
0001
0010
,
0000
0000
0000
0001
,
0001
1000
1000
0010
,
0000
0000
0000
0100
,
0100
0010
0010
1000
,
0000
0000
0000
0010
,
0010
0100
0100
0001
,
0000
0000
0000
0010
,
0010
0100
0100
1000
,
0000
0000
0000
0100
,
0100
0010
0010
0001
,
0000
0000
0000
1000
,
0001
0000
1000
0001
,
0000
0000
0000
0001
,
1000
0000
0001
1000
,
0000
0000
0000
0010
,
0100
0000
0010
0100
,
0000
0000
0000
0010
,
0100
0000
0010
0100
,
0000
0000
0000
1001
,
0000
0000
0110
0000
;

//--------------- dance-single - about-blank ----------------
#NOTES:
     dance-single:
     about-blank:
     Easy:
     7:
     0,0,0,0,0:
0000
0000
0000
0000
,
0000
0000
0000
0000
,
0000
0000
0000
0000
,
0000
0000
0000
0000
,
1001
0000
0000
0000
1000
0100
0000
0000
,
0010
0000
0010
0000
,
1001
0000
0000
0000
0001
0100
0000
0000
,
0010
1000
0001
0000
,
0110
0000
0000
0000
1000
0100
0000
0000
,
0010
0100
1000
0000
,
0110
0000
0000
0000
0001
0100
0000
0000
,
0010
0100
0001
1000
,
1000
0000
0000
0000
0010
1000
0000
0000
,
0010
0100
0100
0001
,
0001
0000
0000
0000
0010
0001
0000
0000
,
0010
0100
0100
0010
,
1001
0000
0000
0000
1000
0001
0000
0000
,
0100
0001
0001
0010
,
1001
0000
0000
0000
0001
1000
0000
0000
,
0010
0100
0100
0001
,
0000
0010
0000
1000
,
0000
0100
0000
0001
,
0000
0010
0000
1000
,
0000
0100
0000
0001
,
1000
0000
0100
0000
0000
0110
0000
0000
,
0001
1000
0001
0001
,
0100
0000
0010
0000
0000
0110
0000
0000
,
1000
0001
0010
0100
,
0000
1000
0000
0010
,
0000
0001
0000
0100
,
0000
1000
0000
0010
,
0000
0001
0000
1000
,
0001
0000
0010
0000
0000
0011
0000
0000
,
0010
0100
1000
0001
,
1000
0000
0010
0000
0000
1010
0000
0000
,
0010
0100
0001
1000
,
0000
0001
0000
0010
,
0000
0100
0000
1000
,
0000
0001
0000
0100
,
0000
0010
0000
1100
,
0000
0101
0000
1010
,
0000
0011
0000
0110
,
0000
1100
0000
0101
,
0000
0110
0000
1000
,
1000
0010
0010
0001
,
0001
0010
0010
1000
,
1000
0100
0100
0001
,
0001
0100
0100
0010
,
0010
0001
0001
1000
,
1000
0010
0010
0100
,
0001
1000
0100
0010
,
0001
0000
0100
0100
0000
0000
0010
0000
,
1000
0001
0010
0100
,
0000
0110
0000
0000
0000
0000
1000
0000
,
0001
0100
0010
1000
,
0000
1001
0000
0000
0000
0000
0001
0000
,
0010
0100
1000
0001
,
0000
1001
0000
0000
0000
0000
1000
0000
,
0010
0100
0001
0010
,
0000
0011
0000
0000
0000
0000
0010
0000
,
0001
1000
0010
0100
,
0000
0101
0000
0000
0000
0000
0001
0000
,
1000
0001
0100
0010
,
0000
0110
0000
0000
0000
0000
0001
0000
,
1000
0100
0010
0100
,
0000
1100
0000
0000
0000
0000
1000
0000
,
0000
1010
0000
0000
0202
0000
0000
0000
,
0000
0000
0303
1000
,
0001
0000
0010
0000
0000
0100
0000
0000
,
0010
0001
0001
1000
,
0010
0000
0100
0000
0000
0001
0000
0000
,
1000
0000
0001
1000
0001
0000
0100
0000
,
0010
0000
1000
0000
0000
0001
0000
0000
,
0010
0100
1000
0001
,
1000
0000
0010
0000
0000
0100
0000
0000
,
0001
0100
0010
0000
;

//--------------- dance-single - about-blank ----------------
#NOTES:
     dance-single:
     about-blank:
     Medium:
     11:
     0,0,0,0,0:
0000
0000
0000
0000
,
0000
0000
0000
0000
,
0000
0000
0000
0000
,
0000
0000
0110
0000
,
1000
0000
0001
0000
0010
0100
0000
0000
,
0100
0000
1000
0001
1000
0000
0010
0000
,
0100
0000
0000
0000
0001
0010
0000
0000
,
0010
0000
0100
0010
0100
0000
1000
0000
,
0010
0000
0000
0000
0100
0001
0000
0000
,
1000
0010
0100
0001
,
0010
0000
0000
0000
0100
0010
0000
0000
,
0100
0000
1000
0001
1000
0000
0010
0000
,
0110
0000
0000
0000
0100
0001
0000
0000
,
0010
0001
0010
0100
,
1100
0000
0000
0000
1000
0010
0000
0000
,
0100
0000
0001
1000
0001
0000
0010
0000
,
1100
0000
0000
0000
1000
0100
0000
0000
,
0010
0001
1000
0010
,
0101
0000
0000
0000
0001
0100
0000
0000
,
0010
0000
1000
0001
1000
0000
0100
0000
,
0100
0010
0010
0001
,
0001
1000
1000
0010
,
0010
0100
0100
0001
,
0001
0000
0010
0000
0010
0000
0100
0010
,
0100
0010
0100
0000
1000
0001
0000
0000
,
1000
0000
0010
0000
0100
0000
0001
0010
,
0001
0010
0001
0000
1000
0010
0000
0000
,
0100
0000
0001
0100
0010
0000
0100
0000
,
0100
0001
0001
1000
,
1000
0010
0010
0100
,
0100
0001
0001
1000
,
1000
0010
0010
1000
,
1100
0000
0100
0000
0010
0001
0000
0000
,
1000
0001
0100
0010
,
0101
0000
0001
0000
0100
0010
0000
0000
,
1000
0000
0001
0010
0100
0000
1000
0000
,
1000
0100
0100
0001
,
0001
0100
0100
1000
,
1000
0100
0100
0001
,
0001
0100
0100
1000
,
1000
0010
0010
0001
,
0001
0010
0010
1000
,
1000
0010
0010
0001
,
0001
0010
0010
1000
,
1000
0100
0100
0001
,
0001
0010
0010
1000
,
1000
0100
0100
0001
,
0001
0010
0010
1000
,
1000
0001
0001
0010
,
0010
0000
0100
0000
0100
0000
1000
0100
,
1000
0000
0001
0000
0100
0001
0100
0000
,
0010
0000
0100
0100
0000
0000
0001
0000
,
1001
1000
1100
0100
,
0010
0001
0100
0000
0000
0000
0001
0000
,
1001
0001
0101
0100
,
0010
1000
0100
0000
0000
0000
1000
0000
,
1100
0001
0011
0010
,
0100
0010
0001
0000
0000
0000
1000
0000
,
1010
0001
0011
0010
,
0100
1000
0001
0100
0010
0000
1000
0000
,
1001
1000
1100
0100
,
0010
0001
0100
0000
0000
0000
0001
0000
,
1001
0001
0101
0100
,
0010
1000
0100
0000
0000
0000
0010
0000
,
0110
0010
0011
0010
,
0100
1000
0001
0000
0000
0000
0100
0000
,
0010
1000
0001
0000
0010
0000
0100
0000
,
1000
0000
0010
1000
0010
1000
0001
0000
,
0100
0000
1010
0000
0001
0010
0000
0000
,
0100
0000
1000
0100
0010
0000
1000
0000
,
0100
0000
0011
0000
1000
0100
0000
0000
,
0010
0000
0001
1000
0001
0000
0100
0000
,
0110
0000
1000
0000
0001
0010
0000
0000
,
0100
0000
1000
0100
0010
0000
0001
0000
,
1000
0000
1010
0000
0010
0100
0000
0000
,
0001
0000
1000
0001
1000
0001
0000
0000
;

//--------------- dance-single - about-blank ----------------
#NOTES:
     dance-single:
     about-blank:
     Hard:
     14:
     0,0,0,0,0:
0000
0000
0000
0000
,
0000
0000
0000
0000
,
0000
0000
0000
0000
,
0000
0000
0000
0000
0110
0000
1000
0010
,
0100
0001
1000
0010
0001
0020
0000
0130
,
0001
0000
1000
1000
0001
0000
0001
0010
,
0100
1000
0001
0010
1000
0020
0000
0130
,
1000
0000
0001
0001
1000
1000
0001
0100
,
0010
1000
0001
0100
1000
0200
0000
0310
,
1000
0000
0001
0001
1000
0000
1000
0100
,
0010
0001
1000
0100
0001
0200
0000
0310
,
0001
0000
0000
0000
1000
0001
1000
0001
1000
0000
0000
0000
0001
0000
0100
0000
,
1000
0001
0010
0100
0010
0002
0000
1003
,
0100
0010
1000
0100
0010
0001
1000
0100
,
0001
1000
0010
0100
0010
2000
0000
3001
,
0100
0010
0001
0001
1000
1000
0001
0100
,
1000
0100
0001
0010
1000
0020
0000
0130
,
1000
0000
1000
0100
0010
0001
1000
0010
,
0001
0010
1000
0100
0001
0200
0000
1300
,
0001
0000
0000
0000
1000
0010
1000
0000
0001
0010
0001
0000
1001
0000
0000
0000
,
1000
1010
1000
1001
,
1000
0000
1100
1000
0000
1000
1001
0000
,
0001
0011
0001
1001
,
0001
0000
0000
0000
0001
0100
0001
0100
0010
1000
0010
1000
0001
0000
0010
0000
,
0100
1000
0001
0100
1000
0001
0010
1000
,
0100
0010
0001
0100
0010
0010
1000
0100
,
0010
0001
1000
0010
0001
1000
0100
0001
,
1000
0100
0010
0001
1000
0010
0110
0000
,
0100
0101
0100
0110
,
0100
0000
1100
0100
0001
0010
0110
0000
,
0010
0011
0010
0110
,
0010
0000
0000
0000
0010
0100
0010
0100
1000
0001
1000
0001
1000
0000
0010
0000
,
0100
0001
1000
0100
0010
1000
0001
0100
,
0010
0001
1000
0001
0100
0100
0001
0010
,
0100
1000
0001
0100
0010
0001
1000
0100
,
0010
1000
0001
0100
0010
1000
0012
0003
,
0001
0000
1002
0003
0001
0010
2000
3010
,
0001
0000
0102
0003
0001
0000
2010
3000
,
1000
0000
2001
3000
1000
0010
0002
0013
,
1000
0000
2100
3100
0010
0010
0002
0003
,
1000
0000
0200
0300
0010
0100
2000
3010
,
0100
0000
0021
0030
0001
0000
0002
0003
,
0010
0000
0200
0300
1000
0001
2000
3010
,
0100
0000
1020
0130
0100
0100
0002
0003
,
1000
0010
0200
0300
1000
0100
2000
3100
,
0010
0000
1020
0030
0100
0000
0002
0003
,
1000
0000
0200
0300
0010
0100
2000
3100
,
0010
0000
0021
0031
1000
1000
0002
0003
,
1000
0100
0020
0030
0001
1000
0200
1300
,
0001
0000
2001
3000
0010
0000
0100
0001
,
0100
0001
1000
0100
0010
0001
1000
0010
,
1000
0010
0100
0110
0000
0000
0001
0010
,
1000
0010
0100
0010
0001
0100
1000
0100
,
1000
0100
0001
0100
0001
0100
0001
1000
,
0100
0010
0100
0001
0100
0010
0001
0010
,
0001
0010
0100
1000
0100
1000
0001
1000
,
0010
0100
0001
1000
0100
0010
0001
1000
,
0010
0100
0001
0010
0001
1000
0001
0100
,
1000
0100
0001
1000
0001
0010
1000
0010
,
0001
0000
1000
0000
0010
0100
0010
0100
0010
0000
0000
0000
1000
0000
0100
0000
,
0001
0100
0010
0100
1000
0010
0001
0010
,
0001
0010
1000
0100
1000
0100
0010
0100
,
1000
0100
0001
0100
0010
0001
1000
0001
,
1000
0001
0100
0010
0100
0010
1000
0001
,
0010
0100
1000
0010
0100
0001
1000
0100
,
1000
0001
0100
0001
1000
0010
0100
0001
,
1000
0100
0010
0001
0100
0001
1000
0100
,
0010
0000
0001
0000
1000
0010
1000
0010
1000
0000
0000
0000
0001
0000
0100
0000
,
1000
0001
0000
0010
1000
0100
0001
1000
,
0000
0010
0001
1000
0010
0100
0001
0010
,
1000
0001
0000
1000
0001
0100
1000
0001
,
0000
0100
0010
1000
0001
0100
0010
1000
,
0100
0001
0000
0100
0010
0001
0100
1000
,
0000
0100
0010
1000
0001
1000
0100
1000
,
0010
0001
0000
0010
0100
0001
0010
1000
,
0000
0000
0010
0000
0100
1000
0100
1000
0001
0010
0001
0010
0100
0000
1000
0000
,
0001
0100
0000
0001
0100
0001
1000
0100
;
