#TITLE:紅蓮の焔;
#SUBTITLE:;
#ARTIST:劇団レコードfeat.浅葉リオ;
#TITLETRANSLIT:guren no honoo;
#SUBTITLETRANSLIT:;
#ARTISTTRANSLIT:Gekidan Record feat. Asaba Rio;
#GENRE:;
#CREDIT:;
#MUSIC:guren no honoo.ogg;
#BANNER:guren no honoo.png;
#BACKGROUND:;
#CDTITLE:;
#SAMPLESTART:45.255;
#SAMPLELENGTH:12.387;
#SELECTABLE:YES;
#OFFSET:-0.352;
#BPMS:0.000=155.000;
#STOPS:;
#BGCHANGES:;
#FGCHANGES:;

//--------------- dance-single - about-blank ----------------
#NOTES:
     dance-single:
     about-blank:
     Beginner:
     5:
     0,0,0,0,0:
0000
0000
0000
0000
,
0000
0000
0000
0000
,
0000
0000
0000
0000
,
0000
0000
0000
0000
,
0000
0000
0000
0000
,
0001
0000
0000
0000
,
1000
0000
0000
0000
,
0010
0000
0000
0000
,
1001
0000
0000
0000
,
2000
0000
0000
0000
,
3000
0000
0000
0000
,
0001
0001
0001
0000
,
1000
1000
1000
0000
,
0001
0001
0001
0000
,
1001
0000
0110
0000
,
1000
1000
1000
0000
,
0001
0001
0001
0000
,
1000
1000
1000
0000
,
0110
0000
1001
0000
,
0000
1000
0100
0010
,
0100
0100
0100
0101
,
0002
0003
0002
0003
,
0100
0100
0100
0100
,
2000
3000
2000
3000
,
0010
0010
0100
0100
,
0110
0110
0110
0000
,
0001
0100
1000
0000
,
1000
0100
0001
0000
,
1001
0000
0000
0000
,
1000
1000
1000
0000
,
0010
0010
0010
0000
,
0001
0001
0001
0000
,
0100
0100
0100
0000
,
1000
1000
1000
0000
,
0100
0100
0100
0000
,
0001
0001
0001
0000
,
0110
0000
0000
0000
,
0001
0001
0001
0000
,
0010
0010
0010
0000
,
1000
1000
1000
0000
,
0100
0100
0100
0000
,
1001
0000
0010
0000
,
1001
0000
0100
0000
,
0001
1000
0001
0000
,
0000
0000
0000
0000
,
0001
0001
0001
0001
,
1000
1000
1000
1000
,
0001
0100
1000
0100
,
0001
0100
1000
0000
,
0010
0010
0010
0000
,
0100
0100
0100
0000
,
1001
0000
0110
0000
,
1001
0110
1001
0000
,
1000
0100
0001
0000
,
0001
0010
1000
0000
,
0001
1000
0001
1000
,
0010
0010
0010
0000
,
1001
0000
0100
0100
,
1001
0000
0010
0010
,
1001
0000
0000
0110
0000
0000
0000
1001
;

//--------------- dance-single - about-blank ----------------
#NOTES:
     dance-single:
     about-blank:
     Easy:
     8:
     0,0,0,0,0:
0000
0000
0000
0000
,
0000
0000
0000
0000
,
0000
0000
0000
0000
,
0000
0000
0000
0000
,
0000
0000
0000
0000
,
0001
1000
0010
0010
,
0100
0001
1000
0000
,
0100
0001
0100
1000
,
0010
0000
0001
0010
1000
0000
0000
0000
,
0001
0000
0010
0000
0100
1000
0100
0000
,
0010
0000
0001
1000
0001
0000
0000
0000
,
1000
0000
1000
0000
0010
1000
0010
0000
,
0001
0000
0001
0000
0100
0001
0100
0000
,
1000
0000
1000
0000
0100
1000
0100
0000
,
0010
0001
1000
0100
,
1000
0000
0001
0000
0100
0001
0100
0000
,
0001
0000
1000
0000
0100
1000
0100
0000
,
0010
0001
1000
0010
,
0110
0101
1100
0000
,
0002
0023
0230
2300
,
3001
0010
1000
0100
,
0001
1000
0001
0000
0001
1000
0001
0000
,
1000
0100
0001
0010
,
1000
0001
1000
0000
1000
0001
1000
0000
,
0100
0010
0110
0001
,
1100
0000
0101
0000
1100
0000
0001
2000
,
0002
0000
0000
3003
,
0001
0010
0100
1000
,
0001
0001
0001
0001
,
1000
0000
0100
0010
0100
0000
0010
0000
,
0001
1000
0010
0100
,
0001
0000
0100
0010
0100
0000
0001
0000
,
0010
0001
1000
0100
,
0110
0000
0001
0001
,
1000
0010
0100
0001
,
1000
0000
0100
0010
0100
0000
0001
0000
,
1100
0101
1100
0001
,
0100
0000
0010
1000
0100
0000
0010
0000
,
0001
1000
0010
0100
,
0001
0000
0010
0001
0100
0000
0010
0000
,
1000
0100
0010
0001
,
1001
0000
1000
0010
,
0001
1000
0100
0001
,
0001
1000
0001
0000
0100
0010
1000
0001
,
0000
0010
0100
1000
,
1001
0000
0000
1000
0010
0000
0100
0000
,
1001
0000
0000
0001
0010
0000
0000
0000
,
0100
0010
0100
0000
1000
0100
1000
0000
,
0100
0010
0001
1000
0010
0000
0000
0000
,
0100
0000
0100
0000
0010
1000
0001
0000
,
0100
0000
0100
0000
0010
0001
1000
0000
,
0100
0010
0001
1000
0100
0010
0001
1000
,
0100
0110
1001
0000
,
0001
1000
0010
0100
,
1000
0000
0100
0010
0000
0000
0001
0000
,
1000
0100
1000
0001
1000
0100
1000
0000
,
0001
1000
0010
0100
,
0001
0000
0010
0001
0000
0001
0010
0000
,
0100
0000
1000
0010
0000
0010
1000
0000
,
0101
0000
0000
1100
0000
0000
0002
2000
,
0000
0000
0000
0000
,
3003
0000
0000
0000
;

//--------------- dance-single - about-blank ----------------
#NOTES:
     dance-single:
     about-blank:
     Medium:
     11:
     0,0,0,0,0:
0000
0000
0000
0000
,
0000
0000
0000
0000
,
0000
0000
0000
0000
,
0000
0000
0000
0000
,
0000
0000
0000
0000
,
0001
0000
1000
0010
1000
0000
0100
0000
,
0010
0000
0001
0100
0010
0000
1001
0000
,
0001
0100
1000
0100
0001
0010
1000
0010
,
0001
0100
0010
1000
0001
0000
1001
0000
,
1000
0100
0001
0010
,
1000
0001
1000
0000
,
1000
0100
1000
0100
0010
0001
0010
0000
,
0001
1000
0001
1000
0010
0100
0010
0000
,
0100
0001
0100
0001
1000
0010
1000
0010
,
2000
3002
0023
0230
,
0300
0010
0001
0010
0001
1000
0001
0100
,
0000
0010
1000
0010
1000
0001
1000
0100
,
0000
0010
0100
1000
0010
0100
0001
1000
,
0100
0010
0001
1000
0010
0000
0110
0000
,
0002
0023
2030
3200
,
0301
1000
0001
1000
0010
0100
0010
0100
,
0001
0010
0001
1000
0001
0000
0001
0000
,
1000
0010
1000
0010
0100
0001
0100
0001
,
1000
0010
1000
0001
1000
0000
1000
0000
,
0001
0010
0100
0000
1000
0010
0100
0000
,
0101
0000
0000
1100
0000
0000
1001
0000
0000
1000
0000
0001
,
2000
0100
0100
0100
,
3002
0010
0010
0013
,
0000
0110
1100
0011
,
1000
0000
1000
0010
0100
0001
0010
0000
,
0001
0000
0001
0010
0100
1000
0010
0000
,
0110
0000
0100
0001
1000
0100
0010
0000
,
0100
0000
0100
1000
0001
0100
0010
0000
,
1010
0000
0010
0100
0001
0010
0001
0000
,
0010
0000
0010
0100
1000
0010
1000
0000
,
0001
1000
0010
0000
0100
0001
1000
0000
,
1000
0100
0010
0001
0100
0010
1000
0000
,
0101
0000
0001
1000
0001
0010
0001
0000
,
1000
0000
1000
0100
1000
0001
1000
0000
,
0010
0000
0010
0100
0001
0100
0010
0000
,
0100
0000
0100
0001
1000
0001
0100
0000
,
0011
0000
1000
0000
0100
0001
0100
0000
,
1010
0000
0001
0000
0100
1000
0100
0000
,
0010
0100
0000
0001
0100
0100
0010
2000
,
0000
0001
0001
3001
,
1010
0000
0010
0100
1000
0100
0001
0000
,
0011
0000
0010
0100
0001
0100
1000
0000
,
0010
1000
0010
1000
0001
0100
0001
0100
,
0010
1000
0001
0100
0010
0000
1000
0000
,
0002
0000
1000
0000
0013
1000
0010
0001
,
2000
0000
0001
0000
3010
0001
0010
1000
,
0001
0010
0100
1000
0010
0100
0001
0010
,
0100
1000
0010
0100
0001
0000
0000
0000
,
1000
0100
1000
0100
0001
0100
1000
0000
,
0001
0100
1000
0100
0000
0001
1000
0000
,
0010
0100
0001
1000
0010
0100
0001
1000
,
0100
0010
0001
1000
0000
1000
0100
0000
,
0010
0000
0100
1000
0000
0010
0100
0000
,
0001
0000
0010
0100
0000
1000
0001
0000
,
1001
0000
0100
0110
0000
0001
2000
0002
,
0000
0000
0000
0000
,
3003
0000
0000
0000
;

//--------------- dance-single - about-blank ----------------
#NOTES:
     dance-single:
     about-blank:
     Hard:
     14:
     0,0,0,0,0:
0000
0000
0000
0000
,
0000
0000
0000
0000
,
0000
0000
0000
0000
,
0000
0000
0000
0000
,
0000
0000
0000
0000
,
2000
0000
0000
0000
3000
0000
0001
0010
0100
0000
1000
0000
0001
0000
0100
0000
,
0020
0000
0000
0000
0030
0000
0001
1000
0100
0000
0000
0000
0110
0000
0000
0000
,
0001
0000
0010
1000
0010
0000
0100
0000
1000
0000
0010
0000
0100
0000
0001
0000
,
1000
0000
0010
0001
0010
0000
0100
0000
0010
0000
0000
0000
1001
0000
0000
0000
,
0001
0000
0100
0000
1000
0000
0001
0000
1000
0000
0100
0010
0100
0000
0010
0000
,
1000
0000
0100
0000
0001
0000
0100
0000
1000
0000
0000
0000
0001
1000
0001
1000
,
0001
0010
0100
0100
1000
0001
0100
0010
,
0000
1000
0100
0100
0001
0100
1000
0100
,
0000
0010
0001
0001
1000
0010
0100
0001
,
0020
1000
0100
0031
,
0000
1000
0001
0001
0100
0010
1000
0001
,
0000
0010
0100
0100
1000
0010
0100
0001
,
0000
0010
0001
0001
0010
0100
1000
0010
,
0100
1000
0100
0001
0010
0000
0110
0000
,
0002
0023
0230
2300
,
3001
0001
0100
1000
0001
0010
1000
0100
,
0001
0100
0010
0100
1000
0010
0100
0010
,
1000
1000
0010
0001
1000
0100
0001
0010
,
1000
0010
0100
0010
0001
0100
0010
0100
,
0001
0001
0010
0100
1000
1000
0010
0100
,
0101
0000
0000
0001
0000
0000
1100
0000
0000
1000
0000
0000
0110
0000
0000
0000
0000
0000
1000
0000
0010
0000
0100
0000
,
0002
0010
1003
0101
,
0001
0010
0100
1000
0001
0010
0100
1000
,
0001
0000
0000
0000
0110
0000
0000
0000
1001
0000
0000
0000
1000
0001
1000
0001
,
1000
0000
0000
0010
0100
0000
0001
0000
0100
0010
0100
0000
0001
0000
0000
0000
,
0010
0000
0000
0010
0100
0000
1000
0000
0001
1000
0001
0000
0100
0000
0010
0000
,
2000
0000
0000
0000
3100
0000
0001
0000
0200
0000
0000
0310
0001
0000
1000
0000
,
0010
0000
0010
0000
0100
0000
0001
0000
1000
0001
1000
0000
0010
0000
0100
0000
,
0002
0000
0000
1003
0100
0000
0010
0000
0100
1000
0100
0000
0010
0000
0001
0000
,
0200
0000
0000
0310
1000
0000
0001
0000
1000
0100
0010
0000
0001
0000
1000
0000
,
0020
0000
0000
0031
1000
0000
0100
0000
0001
0010
0001
0000
1000
0000
0001
0000
,
0010
0000
0100
1000
0100
0000
0010
0100
0010
0000
0001
0010
0001
0000
1000
0000
,
0002
0000
0000
0013
1000
0000
0001
0000
0100
0010
0100
0000
1000
0000
0001
0000
,
1000
0000
0010
1000
0010
0000
0100
0000
1000
0000
0100
0000
0001
0000
0010
0000
,
0200
0000
0000
0310
0001
0000
1000
0000
0001
0100
0001
0000
1000
0000
0010
0000
,
0100
0000
0001
0010
0100
0000
0001
0000
0100
0000
0010
0000
0100
0000
1000
0000
,
2100
0000
0000
0000
0010
0000
0000
0000
3002
0000
0000
0203
0000
0000
0320
0000
,
1030
0000
0000
1000
0100
0000
0000
0100
0010
0000
0000
0010
0001
0000
0000
0001
,
1000
1100
1100
0001
0101
0101
1000
2002
,
3003
0000
0001
1000
0001
0000
0100
0000
0010
0000
1000
0100
1000
0000
0001
0000
,
2000
0100
3100
0002
0100
0103
0001
1000
,
0002
0010
0013
2000
0010
3010
1000
0001
,
1000
0000
0100
0000
0010
0100
0010
0100
1000
0010
1000
0010
0100
0001
0100
0001
,
2000
3200
0320
0032
2003
0000
0000
0000
,
3001
0000
0020
0000
0000
0000
1030
0000
0010
0100
0010
0000
0001
0000
1000
0010
,
0100
0001
0020
0000
0000
0000
0130
0000
1000
0001
1000
0000
0010
0000
0100
0000
,
0001
0010
0001
0010
0100
0000
1000
0010
1000
0010
0100
0000
0001
0100
0001
0100
,
0010
0000
1000
0100
1000
0100
0010
0000
0002
0000
0003
0000
0001
0010
0100
0000
,
1000
0000
0010
0100
0010
0000
0001
0000
1000
0000
0100
0000
0001
0000
0010
0000
,
0001
0000
0010
0100
0010
0000
2000
0000
0000
0000
3010
0000
0001
0000
1000
0000
,
0001
0100
0010
1000
0001
0100
0010
1000
0001
0100
0010
1000
0001
0100
0010
1000
,
0001
0000
1000
0000
0001
0000
0100
0000
0010
0100
0010
0000
1000
0000
0001
0000
,
2000
0000
3100
0020
0000
0031
1000
1000
,
0002
0000
0103
0020
0000
1030
0001
0001
,
0010
0110
0110
1000
1001
1001
0110
2002
,
0000
0000
0000
0000
,
3003
0000
0000
0000
;
