#TITLE:fffff op. 2;
#SUBTITLE:;
#ARTIST:Five Hammer;
#TITLETRANSLIT:;
#SUBTITLETRANSLIT:;
#ARTISTTRANSLIT:;
#GENRE:;
#CREDIT:;
#MUSIC:fffff op.2.ogg;
#BANNER:;
#BACKGROUND:;
#CDTITLE:;
#SAMPLESTART:24.474;
#SAMPLELENGTH:14.436;
#SELECTABLE:YES;
#OFFSET:-0.113;
#BPMS:0.000=266.000;
#STOPS:;
#BGCHANGES:;
#FGCHANGES:;

//--------------- dance-single - about-blank ----------------
#NOTES:
     dance-single:
     about-blank:
     Beginner:
     4:
     0,0,0,0,0:
0000
0000
0000
0000
,
0000
0000
0000
0000
,
0000
0000
0000
0000
,
0000
0000
0000
0000
,
0000
0000
0000
0000
,
0000
0000
0000
0000
,
0000
0000
0000
0000
,
0000
0000
0000
0000
,
0000
0000
0000
0000
,
0000
0000
0000
0000
,
1000
0000
0000
0000
,
0010
0000
0000
0000
,
0001
0000
0000
0000
,
0100
0000
0000
0000
,
1000
0000
0000
0000
,
0010
0000
0000
0000
,
0001
0000
0000
0000
,
0100
0000
0000
0000
,
1000
0000
0000
0000
,
1000
0000
0000
0000
,
0001
0000
0000
0000
,
0001
0000
0000
0000
,
0100
0000
0000
0000
,
0010
0000
0000
0000
,
1000
0000
0000
0000
,
1001
0000
0000
0000
,
0000
0000
0000
0000
,
0001
0000
0000
0000
,
0001
0000
0000
0000
,
0010
0000
0010
0000
,
0010
0000
0000
0000
,
0100
0000
0000
0000
,
0100
0000
0000
0000
,
1000
0000
1000
0000
,
1000
0000
0000
0000
,
0010
0000
0000
0000
,
0100
0000
0000
0000
,
0001
0000
0001
0000
,
0001
0000
0000
0000
,
1000
0000
0000
0000
,
0001
0000
0000
0000
,
0010
0000
0010
0000
,
0000
0000
0000
0000
,
0100
0000
0000
0000
,
0100
0000
0000
0000
,
1000
0000
0000
0000
,
1000
0000
0000
0000
,
0010
0000
0000
0000
,
0010
0000
0000
0000
,
0001
0000
0000
0000
,
0001
0000
0000
0000
,
0100
0000
0000
0000
,
0100
0000
0000
0000
,
1000
0000
0000
0000
,
1000
0000
0000
0000
,
0010
0000
0000
0000
,
0010
0000
0000
0000
,
0001
0000
0000
0000
,
1001
0000
0000
0000
,
0001
0000
1000
0000
,
0001
0000
0000
0000
,
1000
0000
0001
0000
,
1000
0000
0000
0000
,
0010
0000
0000
0000
,
0010
0000
0000
0000
,
0010
0000
0000
0000
,
0010
0000
0000
0000
,
0000
0000
0000
0000
,
0100
0000
0000
0000
,
0001
0000
0000
0000
,
0100
0000
0000
0000
,
1000
0000
0000
0000
,
0100
0000
0000
0000
,
0001
0000
0000
0000
,
0100
0000
0000
0000
,
0000
0000
0000
0000
,
0010
0000
0010
0000
,
0010
0000
0010
0000
,
0010
0000
0000
0000
,
0000
0000
0000
0000
,
0100
0000
0100
0000
,
0100
0000
0100
0000
,
0100
0000
0000
0000
,
0001
0000
0000
0000
,
1000
0000
0000
0000
,
0100
0000
0000
0000
,
0010
0000
0000
0000
,
0001
0000
0000
0000
,
0100
0000
0000
0000
,
1000
0000
0000
0000
,
0100
0000
0000
0000
,
0000
0000
0000
0000
,
0010
0000
0000
0000
,
1000
0000
0000
0000
,
0001
0000
0000
0000
,
0010
0000
0000
0000
,
0100
0000
0000
0000
,
1000
0000
0000
0000
,
0001
0000
0000
0000
,
1001
0000
0000
0000
,
1000
0000
0000
0000
,
1000
0000
0000
0000
,
1000
0000
0000
0000
,
1000
0000
0000
0000
,
0001
0001
0000
0000
,
0001
0000
0000
0000
,
0001
0000
0000
0000
,
0001
0000
0000
0000
,
0010
0000
0010
0000
,
0010
0000
0000
0000
,
0100
0000
0100
0000
,
0100
0000
0000
0000
,
1000
0000
1000
0000
,
1000
0000
0000
0000
,
0001
0000
1000
0000
,
0001
0000
0000
0000
,
0010
0000
0010
0000
,
0010
0000
0010
0000
,
0100
0000
0100
0000
,
0100
0000
0100
0000
,
0010
0000
0010
0000
,
0100
0000
0100
0000
,
0010
0000
0010
0000
,
0100
0000
0100
0000
,
0000
0000
0000
2002
,
0000
0000
3003
0000
;

//--------------- dance-single - about-blank ----------------
#NOTES:
     dance-single:
     about-blank:
     Easy:
     11:
     0,0,0,0,0:
0000
0000
0000
0000
,
0000
0000
0000
0000
,
0000
0000
0000
0000
,
0000
0000
0000
0000
,
0000
0000
0000
0000
,
0000
0000
0000
0000
,
0000
0000
0000
0000
,
0000
0000
0000
0000
,
0000
0000
0000
0000
,
0000
0000
0000
0000
,
1001
0000
1000
0000
,
0010
0000
0100
0000
,
0001
0000
0010
0000
,
0100
0000
1000
0000
,
0001
0000
0100
0000
,
1000
0000
0100
0000
,
0001
0000
0010
0000
,
1000
0000
0010
0000
,
0001
0010
0001
0000
,
1000
0100
1000
0000
,
0001
0100
0001
0000
,
1000
0010
1000
0000
,
0001
0010
0001
0000
,
1000
0100
1000
0000
,
0010
0100
0010
0100
,
0001
0000
0000
1000
0000
0000
1001
0000
,
0000
0000
0000
0000
,
0001
0000
0010
0000
,
0100
0000
0000
1000
0000
0000
0100
0000
,
0010
0100
0001
0100
,
1000
0000
0000
0001
0000
0000
0000
0000
,
0000
1000
0010
0100
,
0001
0000
0000
1000
0000
0000
0001
0000
,
0010
0010
0010
0010
,
0010
0000
0000
0001
0000
0000
1000
0000
,
0000
0010
0100
1000
,
0100
0000
0000
0010
0000
0000
0100
0000
,
0001
1000
0100
0010
,
0001
0000
0000
1000
0000
0000
0000
0000
,
0000
0010
0100
0010
,
1000
0000
0000
0001
0000
0000
0010
0000
,
0100
0100
0100
0100
,
0000
1000
0001
1000
,
0100
0100
0010
0010
,
0001
0000
0000
0001
0000
0000
0001
0000
,
1000
0000
0000
1000
0000
0000
1000
0000
,
0010
0000
0000
0010
0000
0000
0010
0000
,
0100
0100
0001
0001
,
1000
0000
0000
1000
0000
0000
1000
0000
,
0100
0000
0000
0100
0000
0000
0100
0000
,
0010
0000
0000
0010
0000
0000
0010
0000
,
0001
0010
0100
1000
,
0001
0000
0000
0001
0000
0000
0001
0000
,
1000
0000
0000
1000
0000
0000
1000
0000
,
0001
0000
0000
0001
0000
0000
0001
0000
,
1000
0001
0100
0010
,
1000
0000
0000
1000
0000
0000
0010
0000
,
0100
0000
0000
0100
0000
0000
0001
0000
,
0010
0000
0000
0010
0000
0000
0100
0000
,
1000
0100
0010
0000
,
0001
0100
0010
0000
,
1000
0100
0010
0000
,
0001
0100
0010
0000
,
1000
0001
0010
0000
,
0001
1000
0010
0000
,
1000
0001
0100
0000
,
0001
1000
0100
0000
,
0000
0000
0000
0000
,
0110
0000
0010
0000
,
0001
0000
0100
0000
,
1000
0100
0001
0000
,
0001
0010
1000
0000
,
0010
0000
0100
0000
,
1000
0010
0100
0000
,
0010
0000
1000
0000
,
0001
0010
0100
0000
,
0010
0010
0010
0010
,
0010
0010
0010
0000
,
0100
0100
0100
0100
,
0100
0100
0100
0000
,
1000
1000
1000
1000
,
1000
1000
1000
0000
,
0101
0000
1010
0000
,
0011
0000
1100
0000
,
0001
0010
0100
0000
,
0010
0100
1000
0000
,
1000
0010
0100
0000
,
0010
0100
0001
0000
,
1000
0001
0100
0000
,
0010
1000
0001
0000
,
0001
1000
0100
0000
,
0100
0010
0001
0000
,
1000
0010
0001
0010
,
1000
0100
0010
0000
,
0001
0010
1000
0010
,
0001
0100
0010
0000
,
1000
0010
0100
1000
,
0001
0010
1000
0000
,
1001
0000
1100
0000
,
1001
0000
0011
0000
,
0001
0010
0100
1000
,
0100
0010
0001
1000
,
0001
0100
0010
1000
,
0010
0100
0001
0000
,
1000
0010
0100
1000
,
0001
0010
0100
0001
,
1000
0100
0010
1000
,
0001
0100
0010
0000
,
0001
1000
0001
0100
,
0010
1000
0001
0010
,
0100
1000
0100
0010
,
0001
0000
1001
0000
,
1000
0010
0100
0000
,
0001
0010
0100
0000
,
1001
0000
0110
0000
,
1001
0000
0110
0000
,
0001
0001
0001
0000
,
1000
1000
1000
0000
,
0010
0010
0010
0000
,
0100
0100
0100
0000
,
0001
0001
0100
0000
,
1000
1000
0100
0000
,
0001
0001
0010
0000
,
1000
1000
0010
0000
,
0000
0000
0000
0220
,
0000
0000
0330
0000
;

//--------------- dance-single - about-blank ----------------
#NOTES:
     dance-single:
     about-blank:
     Medium:
     14:
     0,0,0,0,0:
0000
0000
0000
0000
,
0000
0000
0000
0000
,
0000
0000
0000
0000
,
0000
0000
0000
0000
,
0000
0000
0000
0000
,
0000
0000
0000
0000
,
0000
0000
0000
0000
,
0000
0000
0000
0000
,
0000
0000
0000
0000
,
0000
0000
0000
0000
,
1000
0100
0010
0001
,
1000
0010
0100
0001
,
0010
0100
1000
0001
,
1000
1000
0100
0100
,
0010
0001
0100
0010
,
1000
0100
0010
0001
,
0100
0001
1000
0010
,
1000
0100
0010
0100
,
1000
0001
0100
0001
,
1000
0001
0100
0001
,
1000
0001
0010
0001
,
1000
0001
0010
0001
,
1000
0010
0100
0010
,
1000
0100
0010
0100
,
1000
1000
0001
0001
,
0110
0000
0000
1001
0000
0000
0110
0000
,
0000
0000
0000
0000
,
0011
0000
1000
0010
,
0100
0000
0001
0100
0000
0000
0001
0000
,
0010
0100
0010
0001
,
1000
0000
0001
1000
0000
0000
0000
0000
,
0000
0010
0100
0001
,
1000
0000
0000
0010
0000
0000
0100
0000
,
0011
0011
0011
0011
,
0011
0000
0000
1000
0010
0000
0100
0000
,
0001
0010
0001
0100
,
0010
0000
1000
0010
0000
0000
1000
0000
,
0100
1000
0001
0010
,
0100
0000
0010
0001
0000
0000
0000
0000
,
0000
1000
0001
0100
,
0010
0000
1000
0010
0000
0000
0100
0000
,
1001
1001
1001
1001
,
0000
0001
1000
0010
,
0100
0100
0001
0001
,
0010
0000
0001
0010
0000
0001
0010
0000
,
0010
0000
0001
0010
0000
0001
0010
0000
,
0010
0000
0001
0010
0000
0001
0010
0000
,
0100
0100
0010
0010
,
0001
0000
1000
0001
0000
1000
0001
0000
,
0001
0000
1000
0001
0000
1000
0001
0000
,
0001
0000
1000
0001
0000
1000
0001
0000
,
1000
1000
0010
0010
,
0100
0000
1000
0100
0000
1000
0100
0000
,
0010
0000
0100
0010
0000
0100
0010
0000
,
0100
0000
0001
0100
0000
0001
0100
0000
,
0001
0001
0010
0010
,
0100
0000
1000
0010
0000
1000
0010
0000
,
0100
0000
0001
0010
0000
0001
0010
0000
,
0100
0000
1000
0010
0000
1000
0010
0000
,
0100
0001
1000
0010
,
0100
0001
1000
0100
,
0010
0001
0100
0010
,
1000
0100
0010
0001
,
1000
0010
0001
0010
,
1000
0100
0001
0100
,
1000
0000
0001
0000
0100
0010
0100
0000
,
0001
0000
1000
0000
0100
0010
0100
0000
,
0000
0000
0000
0000
,
1000
0010
0010
0100
,
0100
0001
0001
0010
,
0010
0001
0001
0010
,
0010
0100
0100
1000
,
0001
0010
0010
0100
,
0100
0010
0010
0001
,
1000
0010
0010
0100
,
0100
0001
0001
0110
,
1001
2001
0001
3001
,
0110
0210
0010
0310
,
0011
0021
0001
0031
,
0101
0201
0001
0301
,
1010
2010
0010
3010
,
1100
2100
0010
3001
,
1100
0001
0110
1000
,
0101
0010
1001
0100
,
0001
0010
0010
1000
,
0010
0010
0001
1000
,
0001
0100
0100
1000
,
0100
0100
0001
1000
,
0001
0010
0010
1000
,
0010
0010
0100
1000
,
0001
0100
0100
1000
,
0100
0100
0010
1000
,
0011
0100
1010
0100
,
0001
0001
1000
1000
,
1100
0010
0101
0010
,
1000
1000
0001
0001
,
0101
1000
1010
0001
,
1000
0100
0110
0011
,
1001
0100
1001
0010
,
1001
0100
1001
0010
,
0001
0001
1000
1000
,
0010
0010
0100
0100
,
0001
0001
1000
1000
,
0100
0100
0010
0010
,
0001
0001
0010
0010
,
0100
0100
1000
1000
,
0010
0010
0100
0100
,
0001
0000
0001
0000
1000
0001
1000
0000
,
0100
0100
1000
1000
,
0010
0010
0100
0100
,
1000
1000
0100
0100
,
0010
0010
1000
1000
,
0001
0001
0010
0010
,
0100
0100
1000
1000
,
0011
1000
0101
1000
,
0011
1000
0101
1000
,
0001
0000
0010
0000
0100
1000
0100
0000
,
1000
0000
0010
0000
0100
0001
0100
0000
,
0001
0000
0010
0000
0100
1000
0100
0000
,
1000
0000
0001
0000
0100
0010
0100
0000
,
0001
0000
1000
0000
0100
0010
0100
0000
,
1000
0000
0010
0000
0100
0001
0100
0000
,
0001
0000
0010
0000
0100
1000
0100
0000
,
1000
0100
0010
0001
1000
0100
0010
0001
,
0000
0000
0000
2002
,
0000
0000
3003
0000
;

//--------------- dance-single - about-blank ----------------
#NOTES:
     dance-single:
     about-blank:
     Hard:
     16:
     0,0,0,0,0:
0000
0000
0000
0000
,
0000
0000
0000
0000
,
0000
0000
0000
0000
,
0000
0000
0000
0000
,
0000
0000
0000
0000
,
0001
1000
0010
0100
,
0001
1000
0010
0100
,
0001
0010
0100
1000
,
0100
0010
0001
2002
,
0000
0000
0000
3003
,
1000
0100
1000
0000
0001
0100
0001
0000
,
1000
0010
0100
0100
,
0001
0000
0010
0000
0100
1000
0100
0000
,
1000
0000
0010
0000
0100
0001
0100
0000
,
0001
0010
0001
0000
1000
0100
1000
0000
,
0001
1000
0100
0100
,
0010
0000
0001
0000
0100
0001
0100
0000
,
0001
0010
0100
0000
0100
1000
0010
0100
,
0001
0010
0001
0000
0001
0010
0001
0000
,
1000
0010
1000
0000
1000
0010
1000
0000
,
0010
1000
0010
0000
0010
1000
0010
0000
,
0100
0001
0100
0000
0100
0001
0100
0000
,
0001
0010
0001
0000
0001
0100
0010
0000
,
1000
0010
1000
0000
1000
0100
0010
0000
,
0001
1000
0001
1000
0001
0100
0010
1000
,
0001
0000
0000
0110
0000
0000
0110
0000
,
0000
0000
0000
0000
,
2002
0000
3003
0000
0001
1000
0001
0000
,
0100
0000
0010
1000
0000
0001
0100
0000
,
0011
0011
1100
1100
,
0001
0010
0100
1000
0000
0010
0100
0000
,
0000
0001
1000
0010
,
0100
0000
0001
0010
0000
0000
0011
0000
,
0010
0000
0001
0000
0100
0000
1000
0000
0100
0000
0001
0000
,
0010
0000
0100
1000
0000
0100
1000
0000
,
0010
0101
0010
1100
,
0001
0000
1000
0100
0000
0010
0001
0000
,
0100
1010
0100
0011
,
1000
0001
0100
0010
0000
0000
0000
0000
,
0000
1000
0101
0011
,
0010
0000
0100
1000
0000
0000
1001
0000
,
1000
0000
0001
0010
0000
0001
0010
0000
0001
1000
0000
0000
,
0000
0000
0110
0000
0000
0001
1000
0000
,
0011
0011
1100
1100
,
0001
0000
0100
1000
0000
0100
0001
0000
,
1000
0000
0100
0001
0000
0100
1000
0000
,
0001
0000
0100
1000
0000
0100
0001
0000
,
1010
1010
0101
0101
,
1000
0000
0010
0001
0000
0010
1000
0000
,
0001
0000
0010
1000
0000
0010
0001
0000
,
1000
0000
0010
0001
0000
0010
1000
0000
,
0011
1010
0011
1010
,
0001
0010
0100
1000
0000
0100
0010
0000
,
0001
0100
0010
1000
0000
0010
0100
0000
,
0001
0010
0100
1000
0000
0010
0100
0000
,
0101
0101
1100
1100
,
1000
0100
0010
0001
0000
0100
0010
0000
,
1000
0010
0100
0001
0000
0010
0100
0000
,
1000
0100
0010
0001
0000
0100
0001
0000
,
1000
0010
1000
0001
,
0100
0010
1000
0001
,
0010
0100
1000
0001
,
1000
0100
0010
0100
,
1000
0010
1000
0000
0001
0000
1000
0000
,
0001
0100
0001
0000
0010
0000
0001
0000
,
1000
0010
1000
0000
0001
0100
0001
0000
,
0010
0100
0010
0000
0001
1000
0001
1000
,
0000
0000
0000
0000
,
0011
0000
0010
0100
1000
0100
0001
0000
,
0100
0000
0010
0001
0000
0010
0100
0000
,
1000
0100
0010
1000
0010
0100
1000
0000
,
0010
0100
0001
0010
0100
1000
0001
0000
,
0101
0000
0000
1100
0000
0000
0011
0000
,
1000
0100
0000
0100
0010
0000
0010
0001
,
1000
0000
0001
0100
0000
0100
0010
0000
,
1000
0000
0001
0010
0000
0010
0100
0000
,
1000
0000
0010
0000
0100
0000
1000
0000
0100
0000
0010
0000
,
1000
0000
0100
0000
0010
0000
1000
0000
0010
0000
0001
0000
,
0100
0000
0010
0000
0001
0000
0010
0000
0100
0000
0001
0000
,
0010
0000
0100
0000
0001
0000
0100
0000
1000
0000
0010
0000
,
0100
0000
1000
0000
0100
0000
0010
0000
1000
0000
0100
0000
,
0001
0000
0100
0000
1000
0000
0001
0000
0010
0000
0100
0000
,
2000
3001
2000
3001
,
2100
3010
2001
3010
,
1000
0100
0001
0100
1000
0000
0010
0000
,
0100
0100
0001
1000
,
0001
0010
1000
0010
0001
0000
0100
0000
,
0001
0001
1000
1000
,
0010
0100
1000
0100
0010
0000
0100
0000
,
0001
0010
0100
0100
,
0001
0100
1000
0100
0010
0000
0001
0000
,
1000
0010
0100
0001
,
1001
0000
0001
0100
1000
0100
0010
1000
,
0100
0001
0100
1000
0010
0000
0110
0000
,
1001
0000
1000
0010
0001
0010
0100
0001
,
0010
1000
0010
0001
0100
0000
0110
0000
,
1001
0000
0001
0010
0100
0001
1000
0010
,
0001
0100
1000
0100
0001
0000
0011
0000
,
1100
0010
0101
0010
,
1001
0100
1001
0010
,
1000
0001
1000
0001
0010
0100
0010
0100
,
1000
0100
0010
0001
0010
0100
0010
0002
,
0000
0203
0000
2300
0000
3001
0010
1000
,
0100
0000
0000
0010
0000
0000
0001
0000
0000
1000
0000
0000
0010
0000
0100
0000
0010
0000
0100
0000
0000
0000
0000
0000
,
0001
0000
1000
0000
0010
0000
0100
0000
1000
0000
0001
0000
,
1000
0000
0001
0000
0010
0000
0100
0000
0001
0000
1000
0000
,
0002
0000
0000
0000
0000
0000
0003
0000
0010
0000
0100
0000
,
1000
0000
0001
0000
0010
0000
2000
0000
0000
0100
0000
0000
,
3001
0000
0000
0000
0000
1000
0100
0010
,
0001
0000
0000
0010
0000
0000
1000
0000
0000
0010
0000
0000
0001
0000
0000
0000
1000
0000
0000
0000
0010
0000
0000
0000
,
0100
0000
0100
0000
0001
0000
0010
0000
0010
0000
0100
0000
,
1000
2002
0000
0000
,
0000
0000
0000
3003
0000
0000
1000
0001
1000
0001
0000
0000
,
0000
0001
0010
0100
,
1001
0010
1001
0100
,
1001
0010
1001
0100
,
1000
0100
1000
0100
0010
0100
1000
0000
,
0001
0100
0001
0100
0010
0100
0001
0000
,
1000
0010
1000
0010
0100
0010
1000
0000
,
0001
0010
0001
0010
0100
0010
0001
0000
,
1000
0001
0100
0010
1000
0100
0010
0000
,
0001
1000
0010
0100
0001
0010
0100
0000
,
0010
0001
0100
0010
1000
0100
0010
0001
,
0010
1000
0010
0001
1000
0100
0001
1000
,
0000
0000
0000
0220
,
0000
0000
0000
0330
0000
0000
0001
0000
0010
0000
0100
0000
1000
0000
0000
0000
0000
0000
0000
0000
0000
0000
0000
0000
;
