#TITLE:cosmic snow;
#SUBTITLE:;
#ARTIST:Yasuhisa Watanabe;
#TITLETRANSLIT:;
#SUBTITLETRANSLIT:;
#ARTISTTRANSLIT:;
#GENRE:;
#CREDIT:;
#MUSIC:cosmic snow.mp3;
#BANNER:;
#BACKGROUND:;
#CDTITLE:;
#SAMPLESTART:50.161;
#SAMPLELENGTH:15.000;
#SELECTABLE:YES;
#OFFSET:1.506;
#BPMS:0.000=151.983;
#STOPS:;
#DISPLAYBPM:152.000;
#BGCHANGES:;
#FGCHANGES:;

//--------------- dance-single - forcednature ----------------
#NOTES:
     dance-single:
     forcednature:
     Beginner:
     1:
     0,0,0,0,0:
0000
0000
0000
0000
,
0000
0000
0000
0000
,
0000
0000
0000
0000
,
0000
0000
0000
0000
,
0000
0000
0000
0000
,
1000
0000
0000
0000
,
0001
0000
0000
0000
,
0100
0000
0000
0000
,
0010
0000
0000
0000
,
1000
0000
0000
0000
,
0000
0000
0000
0000
,
0001
0000
0000
0000
,
0000
0000
0000
0000
,
0010
0000
0000
0000
,
0000
0000
0000
0000
,
0100
0000
0000
0000
,
0000
0000
0000
0000
,
1000
0000
0000
0000
,
0000
0000
0000
0000
,
0001
0000
0000
0000
,
0000
0000
0000
0000
,
0100
0000
0000
0000
,
0000
0000
0000
0000
,
0010
0000
0000
0000
,
0000
0000
0000
0000
,
1000
0000
0000
0000
,
0001
0000
0000
0000
,
1000
0000
0000
0000
,
0000
0000
0000
0000
,
0001
0000
0000
0000
,
1000
0000
0000
0000
,
0001
0000
0000
0000
,
0000
0000
0000
0000
,
1001
0000
0000
0000
,
0010
0000
0000
0000
,
0010
0000
0000
0000
,
0000
0000
0000
0000
,
0100
0000
0000
0000
,
0100
0000
0000
0000
,
0100
0000
0000
0000
,
0000
0000
0000
0000
,
1000
0000
0000
0000
,
0001
0000
0000
0000
,
1000
0000
0000
0000
,
1000
0000
0000
0000
,
0001
0000
0000
0000
,
1000
0000
0000
0000
,
0001
0000
0000
0000
,
0001
0000
0000
0000
,
0010
0000
0000
0000
,
0100
0000
0000
0000
,
0010
0000
0000
0000
,
0010
0000
0000
0000
,
0100
0000
0000
0000
,
0010
0000
0000
0000
,
0100
0000
0000
0000
,
0100
0000
0000
0000
,
1000
0000
0000
0000
,
1000
0000
0000
0000
,
1000
0000
0000
0000
,
0000
0000
0000
0000
,
0001
0000
0000
0000
,
0001
0000
0000
0000
,
0001
0000
0000
0000
,
0000
0000
0000
0000
,
0100
0000
0000
0000
,
0010
0000
0000
0000
,
0100
0000
0000
0000
,
0000
0000
0000
0000
,
0010
0000
0000
0000
,
0100
0000
0000
0000
,
0010
0000
0000
0000
,
0000
0000
0000
0000
,
1001
0000
0000
0000
,
0000
0000
0000
0000
,
0100
0000
0000
0000
,
0000
0000
0000
0000
,
0010
0000
0000
0000
,
0000
0000
0000
0000
,
0100
0000
0000
0000
;

//--------------- dance-single - forcednature ----------------
#NOTES:
     dance-single:
     forcednature:
     Easy:
     2:
     0,0,0,0,0:
0000
0000
0000
0000
,
0000
0000
0000
0000
,
0000
0000
0000
0000
,
0000
0000
0000
0000
,
0000
0000
0000
0000
,
1000
0000
0000
0000
,
0001
0000
0000
0000
,
0010
0000
0000
0000
,
0100
0000
0000
0000
,
1000
0000
0000
0000
,
0001
0000
0000
0000
,
0100
0000
0000
0000
,
0000
0000
0000
0000
,
0001
0000
0000
0000
,
1000
0000
0000
0000
,
0100
0000
0000
0000
,
0000
0000
0000
0000
,
0010
0000
0000
0000
,
0001
0000
0000
0000
,
0010
0000
0000
0000
,
0000
0000
0000
0000
,
0100
0000
0000
0000
,
1000
0000
0000
0000
,
0100
0000
0000
0000
,
0000
0000
0000
0010
,
0000
0000
0000
0000
,
0010
0000
0000
0000
,
0010
0000
0000
0000
,
0001
0000
0000
0000
,
0100
0000
0000
0000
,
0010
0000
0000
0000
,
1000
0000
0000
0000
,
0001
0000
0000
0000
,
0100
0000
0000
0000
,
0010
0000
0000
0000
,
1000
0000
0000
0000
,
0001
0000
0000
0000
,
1000
0000
0000
0000
,
0100
0000
0000
0000
,
0010
0000
0000
0000
,
0001
0000
0000
0000
,
0100
0000
0000
0000
,
0010
0000
0010
0000
,
0010
0000
0000
0000
,
1000
0000
0000
0000
,
0001
0000
0000
0000
,
0010
0000
0010
0000
,
0010
0000
0000
0000
,
0001
0000
0000
0000
,
0100
0000
0000
0000
,
0010
0000
0010
0000
,
0010
0000
0000
0000
,
1000
0000
0000
0000
,
0100
0000
0000
0000
,
0010
0000
0010
0000
,
0010
0000
0000
0000
,
0001
0000
0000
0000
,
1000
0000
0000
0000
,
0010
0000
0000
0000
,
1000
0000
0001
0000
,
1000
0000
0000
0000
,
0001
0000
0000
0000
,
0100
0000
0000
0000
,
0001
0000
1000
0000
,
0001
0000
0000
0000
,
0010
0000
0000
0000
,
0100
0000
0000
0000
,
1000
0000
0001
0000
,
1000
0000
0000
0000
,
0010
0000
0000
0000
,
0100
0000
0000
0000
,
0001
0000
1000
0000
,
0001
0000
0000
0000
,
2002
0000
0000
0000
,
3003
0000
0000
0000
,
2000
0000
0000
0000
,
3000
0000
0000
0000
,
0002
0000
0000
0000
,
0003
0000
0000
0000
,
2002
0000
0000
0000
,
0000
0000
0000
0000
,
0000
0000
0000
0000
,
3003
0000
0000
0000
;

//--------------- dance-single - forcednature ----------------
#NOTES:
     dance-single:
     forcednature:
     Medium:
     8:
     0,0,0,0,0:
0000
0000
0000
0000
,
0000
0000
0000
0000
,
0000
0000
0000
0000
,
0000
0000
0000
0000
,
0000
0000
0000
0000
,
0002
0000
0000
0000
0000
0000
0000
0100
,
0203
0000
0000
0000
,
0320
0000
2030
0000
,
3001
0010
0100
1000
,
0001
0100
0000
0100
,
0020
0000
2000
0030
,
0002
0000
0000
3000
,
0013
0100
1000
0002
,
2000
0000
0000
0003
,
0020
0000
0000
3000
,
0200
0000
0000
0030
,
0002
0300
0020
0003
,
0200
0000
0000
0030
,
1300
0001
0000
0002
,
2000
0000
0000
0003
,
3010
1000
0000
2000
,
0020
0000
0000
3000
,
0200
0000
0030
0302
,
0020
0000
0000
0003
,
0200
0030
2000
0300
,
3002
0000
0200
0003
,
2000
0300
0200
3000
,
0002
0300
0020
0003
,
0200
0000
0000
0030
,
2000
0300
0002
3000
,
0200
0003
2000
0300
,
0200
0000
0000
3000
,
0020
0000
0330
0110
,
2001
3100
0001
0110
,
1002
0103
2100
3001
,
0201
1300
0010
1000
,
0001
0010
0100
0110
,
1200
1300
0001
0101
,
1020
0031
0021
0130
,
0210
0301
1200
0310
,
0102
0000
1003
0000
0010
0010
0010
0000
,
1000
0000
0001
0000
0000
0010
0000
0100
,
0000
0010
0000
0100
0000
1000
0000
0001
,
1000
0001
0000
0001
,
0000
0100
0000
0010
,
0000
0000
1000
0000
0000
0001
0000
0010
,
0000
0100
0000
1000
0000
0010
0000
0100
,
0001
1000
0000
0100
,
0000
0000
1000
0000
0000
0010
0010
0000
,
0000
0000
0100
0000
0000
0001
0000
0010
,
0000
0100
0000
0010
0000
0001
0000
0100
,
0010
1000
0000
0001
,
0000
0000
0010
0000
0000
0001
0000
1000
,
0000
0000
0010
0000
0000
0100
0000
0001
,
0000
1000
0000
0100
0000
1000
0000
0010
,
0100
0001
0000
0010
,
0000
0001
0000
1000
,
0010
0100
0010
0000
0100
0000
0001
0000
,
1000
0100
1000
0010
,
1000
0100
1000
0000
0010
0000
0100
0000
,
0001
0000
0001
0000
0010
0010
0010
0000
,
0001
0100
0001
0000
0010
0000
0100
0000
,
1000
0010
1000
0001
,
0010
0100
0010
0000
0001
0000
0100
0000
,
1000
0000
0100
0000
0010
0010
0010
0000
,
1000
0100
1000
0000
0010
0000
1000
0000
,
0001
0010
0001
0000
0100
0000
0010
0000
,
1000
0100
0010
0000
0001
0000
0100
0000
,
0010
0100
0001
0000
0010
0000
0010
0000
,
0100
1000
0100
0000
0010
0000
0001
0000
,
1000
0010
0100
0000
0001
0000
0010
0000
,
0100
1000
0001
0000
0100
0001
1000
0000
,
0100
0000
0110
0000
0001
1000
0001
0000
,
2002
0000
0000
0003
,
0200
0000
0000
3000
,
0020
0000
0000
0300
,
0002
0000
0000
0030
,
0200
0000
0000
0003
,
2000
0000
0000
0300
,
0200
0000
0000
3000
,
0020
0000
0000
0000
,
0000
0000
0000
0000
,
0330
0000
0000
0000
;

//--------------- dance-single - forcednature ----------------
#NOTES:
     dance-single:
     forcednature:
     Hard:
     11:
     0,0,0,0,0:
0000
0000
0000
0000
,
0000
0000
0000
0000
,
0000
0000
0000
0000
,
0000
0000
0000
0000
,
0000
0000
0000
0000
,
2000
0000
0000
0000
0000
0000
0000
0001
,
3002
0000
0000
0000
,
0203
0000
0320
0000
,
1030
0000
0000
0000
0001
0000
0000
0000
0010
0000
0010
0000
0100
1000
0100
1000
,
0100
0011
1000
0001
,
0020
0100
0032
1000
,
0203
0001
0010
0301
,
0100
0000
0010
0010
1000
0000
0002
0000
,
0023
0100
1000
0001
,
0230
1000
0010
0001
,
2300
0010
0001
0100
,
3002
0000
0010
0000
2003
0100
0100
0000
,
3020
0001
0100
1000
,
0130
0010
1000
0002
,
0023
0100
1000
0100
,
0031
0010
0001
2000
,
3020
0100
0001
1000
,
0230
1000
0010
0302
,
0023
0100
1000
0001
,
0230
0000
1000
0000
0320
0001
0001
0000
,
0230
0000
2000
3000
,
0020
0000
0030
0000
0001
0001
0301
0000
,
2000
0000
0020
0030
,
0002
0000
0003
0000
0000
0100
3100
0000
,
0002
0000
0200
0300
,
2000
3000
0020
0030
,
0200
0003
0020
0030
,
2000
0000
0000
0000
3000
0000
0000
0000
0000
0000
0000
0000
0301
0100
0001
0000
,
0100
0000
0011
0000
0100
1000
0010
0000
,
0100
0000
1010
0000
0100
0001
0010
0000
,
0100
1000
1000
0000
0100
0001
0001
0000
,
0100
0110
0001
2000
,
3010
0000
0110
0000
1000
1000
0001
0000
,
2000
0100
3002
1000
,
0203
1000
0302
0010
,
2003
0000
0010
0000
3002
0100
0100
0000
,
0013
0000
0001
0000
0000
0200
0000
0320
,
0000
2030
0000
3002
0000
2003
0000
3100
,
0010
0000
0001
0000
1000
0001
1000
0000
,
0010
0000
0100
0000
0001
0010
0001
0100
,
1000
0000
0000
0000
0100
0000
0000
0000
0010
0000
2000
0000
0000
0000
3002
1000
,
0000
0203
0000
2300
0000
3200
0000
0301
,
0010
0000
0110
0000
0001
0010
0100
0000
,
1000
0000
0000
0000
0101
0000
0000
0000
1000
0000
0001
0000
0001
1000
0001
0000
,
0010
0000
0100
0000
0000
2000
0000
3020
,
0000
2030
0000
3002
0000
0023
0000
1030
,
0010
0000
0011
0000
1000
0001
0100
0000
,
0010
0000
0000
0000
1000
0000
0100
0000
0001
0000
0200
1000
0000
0000
2300
0000
,
0000
0000
3001
0000
0010
0200
0000
2300
,
0000
3020
0000
0032
0000
0023
0000
0130
,
0002
0000
0010
0000
1003
0001
0010
0000
,
0100
0000
0001
0000
0100
0000
1000
0000
0010
0000
1000
0001
1000
0000
0000
0000
,
0010
0100
1000
0100
0001
0020
0000
0230
,
0000
0302
0000
0203
0000
0320
0001
0032
,
0000
2003
0000
3020
0000
0230
0000
0302
,
0000
0000
0013
0000
0100
0100
1001
0000
,
1000
0100
0001
0100
1000
0020
0000
2030
,
0000
3002
0000
0203
1000
2300
0100
3200
,
0000
0000
0310
0000
0010
1000
0001
0010
,
0100
0000
0001
0000
0100
0000
1000
0000
0010
0000
1000
0001
1000
0001
1000
0000
,
0000
0100
0001
0100
0010
0002
0000
0203
,
0000
2300
0000
3200
0000
0320
1000
2030
,
0000
3002
0000
0023
0000
0230
0000
2300
,
0000
0000
0000
0000
3010
0000
0000
0000
1000
0000
0001
0000
0010
0000
0001
0100
,
0001
0010
0100
1000
0010
0200
0000
0302
,
0000
0023
0000
0032
0010
0023
0100
0230
,
0000
1000
0000
0001
0000
0000
1000
2300
,
0000
0000
3200
0000
0000
0000
0310
0000
0001
0000
1000
0001
1000
0001
0010
0000
,
0220
0000
0000
0000
0000
0000
0000
0000
0000
0000
0000
0000
0330
0000
0001
1000
,
0001
0200
0000
0320
0000
0000
2030
0000
,
3200
0000
0000
0300
,
0020
0000
0000
0030
,
0002
0000
0000
0000
0000
0103
0010
2000
,
0000
3002
0000
2003
0000
3200
0000
0310
,
0002
0000
0000
0000
,
0200
0000
0000
0000
,
0000
0000
0000
0000
,
0303
0000
0000
0000
;

//--------------- dance-single - aboutblank ----------------
#NOTES:
     dance-single:
     aboutblank:
     Challenge:
     14:
     0,0,0,0,0:
0000
0000
0000
0000
,
0000
0000
0000
0000
,
0000
0000
0000
0000
,
0000
0000
0000
0000
,
0000
0000
0000
0000
,
0002
0000
0000
1000
0000
0000
1000
0000
0010
0000
0000
0013
0000
0000
1000
0001
,
2000
0000
0000
0010
0000
0000
0010
0000
0001
0000
0000
3001
0000
0000
0100
0010
,
0100
0000
0000
0001
1000
0000
0100
0010
0100
0000
0000
1000
0001
0000
0100
0010
,
0100
0000
0000
0000
0110
0000
0000
0000
1000
0000
0001
0000
0010
0100
0010
0100
,
1000
0000
0000
0001
0100
0000
0010
0000
0010
0000
1000
0001
1000
0000
0000
0000
,
0200
0000
0000
0000
1300
0001
0000
0000
0020
0000
0000
0000
0031
1000
0000
0000
,
0101
0000
0000
0100
0001
0000
0010
0000
0100
0000
1000
0100
0010
0000
0001
0000
,
0100
0010
0000
0000
1001
0000
0000
0000
0010
0001
0000
1000
0100
0000
1000
0000
,
0020
0000
0000
0000
0130
0001
0000
0000
1000
0000
0000
0100
0010
0000
0010
0000
,
2000
0000
0000
0000
3010
0000
0000
0000
0001
0100
0010
0000
1000
0000
1000
0000
,
0020
0000
0000
0000
0130
0001
0000
0000
1000
0000
0000
0010
0100
0000
0001
0000
,
0020
0000
0000
0000
0130
0000
0100
0000
2000
0000
0000
0000
3001
0100
0010
0000
,
1002
0000
0000
0000
0103
0000
0000
0000
0001
0000
1000
0000
0001
0010
0001
0000
,
0100
0000
0001
0000
0010
0000
0100
0000
1000
0000
0010
0000
1000
0001
1000
0000
,
0200
0000
0310
0000
0001
0100
0010
1000
,
0001
0000
0100
0000
0010
1000
0010
0000
0100
0000
0001
0000
1000
0100
0000
0000
,
0100
0001
0000
0000
0110
0000
0000
0000
0001
1000
0000
0010
0000
0000
0010
0000
,
0100
0001
0000
0000
1001
0000
0000
0000
1000
0100
0000
0000
0001
0100
0000
0000
,
1000
0001
0000
0000
0101
0000
0000
0000
1000
0100
0000
0010
0001
0000
0100
0000
,
0010
1000
0000
0000
0110
0000
0000
0000
1000
0100
1000
0000
0100
0010
0001
0000
,
1002
1000
0010
0010
,
0100
0000
0103
0000
0001
0001
0001
0000
,
2010
0010
0100
0100
,
0001
0000
3001
0000
0000
1000
0001
0000
,
0201
0001
0010
0010
,
1000
0000
0000
0000
1300
0000
0000
0000
1000
0000
0101
0000
0000
0000
0010
0001
,
0020
0100
0001
0001
,
1000
0000
0000
0000
1030
0000
0000
0000
0110
0000
0000
1000
0001
1000
0001
0000
,
0100
0010
0000
0000
1001
0000
0000
0000
0001
0000
0010
0000
0100
1000
0000
0000
,
0100
0001
0000
0000
0011
0000
0000
0000
0100
1000
0000
0000
1010
0000
0000
0000
,
1000
0001
0000
0000
0101
0000
0000
0000
0001
1000
0001
1000
0001
0000
0010
0000
,
0100
1000
0000
0001
0000
0000
0010
0100
0010
1000
0000
0000
0001
0100
0000
0000
,
0010
0001
0000
0000
1001
0000
0000
0000
0001
1000
0010
0000
0100
0001
0000
0000
,
0001
0010
0000
0000
0110
0000
0000
0000
1000
0100
0000
0000
1010
0000
0000
0000
,
1000
0100
1000
0000
0010
0000
1000
0000
0001
0100
0001
0000
0010
0000
0001
0000
,
1000
0100
0010
0000
0001
0000
1000
0000
0001
0010
0100
0000
1010
0000
0000
0000
,
0100
0000
0000
0001
1000
0000
0100
0000
0010
0100
0010
0000
1000
0000
0010
0000
,
0100
0010
0001
0100
0010
0100
1000
0100
,
0001
0010
0000
0100
1000
0000
0000
0000
0100
0000
0000
0100
0001
0000
1000
0000
,
0010
0000
0000
0010
0001
0000
1000
0000
0010
0100
0000
0001
1000
0000
0000
0000
,
0001
0000
0000
0010
0100
0000
1000
0000
0100
0010
0001
0000
0100
0000
0001
0000
,
1000
0001
0100
0001
0010
0001
0100
0001
,
1000
0000
0000
0001
0100
0000
0010
0000
1000
0000
0000
0001
0010
0000
0100
0000
,
1000
0010
0000
0100
0001
0000
0010
0000
0100
1000
0010
0000
1001
0000
0000
0000
,
1000
0000
0000
0010
0100
0000
0001
0000
0100
0010
0100
0000
0001
0000
0010
0000
,
0100
0001
1000
0010
0100
1000
0010
0100
,
0001
1000
0100
0000
0010
0000
0000
0000
1000
0001
0100
0000
0010
0000
0000
0000
,
1000
0100
0010
0000
0100
0000
0000
0000
0001
0100
0010
0000
0100
0000
0000
0000
,
1000
0001
0100
0000
0001
0000
1000
0000
0010
0000
0100
0000
0100
0000
0001
0010
,
0001
0000
1000
0010
1000
0000
0001
0100
0001
0000
1000
0100
1000
0000
0001
0000
,
1000
0100
0010
0001
0100
0000
0000
0000
1000
0010
0100
0001
0010
0000
0000
0000
,
0001
0010
0100
1000
0010
0000
0000
0000
0001
0100
0010
1000
0100
0000
0000
0000
,
1000
0001
0100
0100
0001
0020
0000
1000
,
0000
0031
0200
1000
0000
0301
0020
1000
,
0000
0031
0200
1000
0000
0301
0000
1001
,
0000
0011
1100
0000
0110
0000
1001
0000
,
1000
0001
0010
0010
1000
0001
0200
1000
,
0000
0301
0020
1000
0000
0031
1000
0020
,
0001
0000
1000
0000
0031
0000
0110
1001
,
0000
0000
0011
0000
0000
0000
1100
0000
0000
0000
0001
0000
0100
0010
0100
0010
,
1000
0001
0100
0100
0001
1000
0200
0010
,
0000
1300
0200
0010
0000
1300
0020
0100
,
0000
1030
0020
0100
0030
1010
0000
0011
,
0000
0001
0101
1000
1100
0000
0110
0000
,
0001
0100
0010
0010
1000
0001
0020
0100
,
0000
0031
0020
0100
0000
0031
0200
0010
,
1000
0000
0001
0000
1300
0000
0011
0101
,
0000
0000
1010
0000
0000
0000
0101
0000
0000
0000
1000
0000
0100
0010
0001
1000
,
0010
0000
0000
0000
0000
0000
0000
0000
0100
0000
0000
0000
0000
0000
0001
0010
,
1000
0010
0000
0001
0100
0000
0010
0000
,
2000
0000
0200
0300
,
0020
0030
0002
3003
,
1001
0000
0000
0000
0000
0000
0000
0000
0000
0000
1000
0000
0010
0000
0100
0010
,
0000
0101
0000
0011
0000
1010
0000
0000
,
2002
0000
0000
0000
,
0000
0000
0000
0000
,
3003
0000
0000
0000
;
