#TITLE:calling for destiny;
#SUBTITLE:;
#ARTIST:NM feat. NAPPO;
#TITLETRANSLIT:;
#SUBTITLETRANSLIT:;
#ARTISTTRANSLIT:;
#GENRE:;
#CREDIT:;
#MUSIC:calling for destiny.mp3;
#BANNER:;
#BACKGROUND:;
#CDTITLE:;
#SAMPLESTART:47.524;
#SAMPLELENGTH:18.824;
#SELECTABLE:YES;
#OFFSET:-0.465;
#BPMS:0.000=102.000;
#STOPS:;
#BGCHANGES:;
#FGCHANGES:;

//--------------- dance-single - eataninja ----------------
#NOTES:
     dance-single:
     eataninja:
     Beginner:
     2:
     0,0,0,0,0:
0000
0000
0000
0000
,
0000
0000
0000
0000
,
0000
0000
0000
0000
,
0000
0000
0000
0000
,
1000
0000
1001
0000
,
0100
0100
0100
0000
,
0001
0000
1001
0000
,
0100
0010
0100
0000
,
0110
0000
0001
0000
,
1000
1000
0010
0000
,
0100
0000
0001
0000
,
0010
0000
0100
0000
,
2000
3000
1000
0000
,
0001
1000
0001
0000
,
0002
0003
0200
0300
,
0100
0010
0100
0000
,
0002
0003
0001
0000
,
2000
3000
1000
0000
,
0100
0010
0100
0000
,
1001
0000
1001
0000
,
1000
0000
0100
0000
,
0001
0000
0100
0000
,
0010
0000
1000
0000
,
0010
0000
0001
0000
,
1001
0000
0110
0000
,
0100
0001
0001
0000
,
0110
0000
1001
0000
,
0010
0010
0010
0000
,
0220
0000
0330
0000
,
0001
0000
1000
0000
,
0100
0000
0000
0000
,
1001
0000
0000
0000
,
1000
0000
0010
0000
,
0001
0000
0010
0000
,
0100
0000
1000
0000
,
0100
0000
0001
0000
,
1001
0000
0110
0000
,
0010
0010
1000
0000
,
0100
0000
0010
0000
,
0001
0000
0100
0010
,
0110
0000
0000
0000
;

//--------------- dance-single - eataninja ----------------
#NOTES:
     dance-single:
     eataninja:
     Easy:
     4:
     0,0,0,0,0:
0000
0000
0000
0000
,
0000
0000
0000
0000
,
0000
0000
0000
0000
,
0000
0000
0000
0000
,
1000
0001
1000
0000
,
0010
0100
0001
0000
,
0010
0001
1000
0001
,
0010
0100
1000
0000
,
1001
0001
0100
0100
,
0010
1000
0001
0000
,
0010
1000
0010
0000
,
0100
1000
0001
0000
,
0200
1300
0200
0301
,
0010
0100
1000
0000
,
0200
0301
0200
1300
,
0010
0100
0001
0000
,
1000
0010
0100
0000
,
0100
0001
1000
0000
,
0200
0301
0200
1300
,
0001
0001
0000
0000
1000
1000
0000
0000
,
0001
0100
1000
0010
,
0001
1000
0100
0000
,
1000
0100
0001
0010
,
1000
1000
0001
0100
,
0110
1000
1001
0010
,
0100
1000
0001
0100
,
0020
0031
0020
1030
,
0100
0001
1000
0010
,
0110
0000
1000
0000
,
0001
0100
1000
0100
,
0010
1000
0001
0000
,
1001
0000
0000
1001
0000
0000
0000
0000
,
1000
0100
0001
0010
,
1000
0001
0100
0000
,
0001
0010
1000
0100
,
0001
0001
1000
0100
,
0110
0001
1001
0010
,
0100
0100
0001
1000
,
0200
0301
0200
1300
,
0010
0001
1000
0100
,
0110
0000
0000
0000
;

//--------------- dance-single - eataninja ----------------
#NOTES:
     dance-single:
     eataninja:
     Medium:
     8:
     0,0,0,0,0:
0000
0000
0000
0000
,
0000
0000
0000
0000
,
0000
0000
0000
0000
,
0000
0000
0000
0000
,
1000
0000
0000
0000
0100
0000
0000
0010
0000
0000
0000
0000
0000
0000
0000
0000
,
0001
0000
0000
0000
1000
0000
0000
0010
0000
0000
0000
0000
0000
0000
0000
0000
,
0100
0001
0010
0100
,
0001
0000
0000
0100
0000
0000
2000
0000
0000
0000
0000
0000
3000
0000
0000
0000
,
0011
0000
0000
0000
1000
0000
0000
0010
0000
0000
0100
0000
0001
0000
0000
0000
,
0010
0000
0100
0000
0010
0000
0000
0002
0000
0000
1000
0000
1003
0000
0000
0000
,
0010
0000
0000
0000
0001
0000
0000
1000
0000
0000
0100
0000
0010
0000
0000
0000
,
1000
0001
1000
0100
0010
0000
1000
0010
,
0002
0100
1003
1010
,
0100
0000
0000
0000
0001
0000
0000
0010
0000
0000
0000
0000
0100
0000
1000
0000
,
0002
0000
0103
0001
2000
0000
3010
0100
,
0001
0000
0000
0010
0000
0000
0100
0000
0000
0000
0100
0000
0001
0000
0100
0000
,
1000
0000
0000
0001
0000
0000
0100
0000
0000
0000
0010
0000
0100
0000
0010
0000
,
1000
0000
0000
0001
0000
0000
0020
0000
0000
0000
0030
0000
0100
0000
1000
0000
,
0001
0000
0000
0100
0000
0000
0010
0000
1000
0000
0000
0100
0000
0000
0010
0000
,
0110
1001
0000
0000
1001
0110
0000
0000
,
0100
0000
0000
0001
0000
0000
0010
0000
0100
0000
0000
0001
0000
0000
0100
0000
,
1000
0000
0000
0010
0000
0000
0100
0000
0100
0000
0000
0000
0000
0000
0000
0000
,
0001
0000
0000
1000
0000
0000
0010
0000
1000
0000
0000
0001
0000
0000
0010
0000
,
1000
0000
0000
0010
0000
0000
0001
0000
0001
0000
0000
0000
0100
0000
0001
0000
,
0101
0000
0010
1000
1010
0000
0100
0010
,
0001
1000
0010
0001
1000
0000
0100
0001
,
0010
0000
0100
1000
0010
0000
0100
0001
,
0010
0000
0000
1000
0000
0010
0000
0000
0002
0000
0000
0000
2003
0000
0000
0000
,
3010
0000
0000
0100
0000
0000
0000
0001
0000
0000
0010
0000
0100
0000
0000
0000
,
0001
0100
1000
0000
0001
0100
1000
0000
,
0100
0110
0000
1001
0000
0010
0000
1100
,
1001
0000
0000
1001
0000
0100
0000
0000
,
0010
0000
0000
1000
0000
0000
0001
0000
0010
0000
0000
0100
0000
0000
1000
0000
,
0001
0000
0000
1000
0000
0000
0010
0000
0100
0000
0000
0000
0000
0000
0000
0000
,
0010
0000
0000
1000
0000
0000
0001
0000
0010
0000
0000
0001
0000
0000
1000
0000
,
0100
0000
0000
0001
0000
0000
0100
0000
1000
0000
0000
0000
0001
0000
0100
0000
,
0101
0000
1000
0001
0110
0000
1000
0100
,
0001
0010
0100
1000
0001
0000
0100
1000
,
0001
0000
0000
0010
0000
0000
0100
0000
0001
0000
0000
0010
0000
0000
1000
0000
,
0010
0000
0000
0100
0000
1000
0000
0000
0020
0000
0000
0000
0130
0000
0000
0000
,
1001
0000
0000
0000
;

//--------------- dance-single - eataninja ----------------
#NOTES:
     dance-single:
     eataninja:
     Hard:
     12:
     0,0,0,0,0:
0000
0000
0000
0000
,
0000
0000
0000
0000
,
0000
0000
0000
0000
0000
0000
0000
1000
,
0010
0000
0000
0000
0000
0000
0010
0000
0000
0000
0101
0000
0000
1001
0000
0000
,
0100
0000
0010
0000
0001
0000
1000
0010
0000
0100
0010
0000
0000
0000
1000
0000
,
0001
0010
0001
0000
1000
0000
0010
0200
0000
0000
0301
0000
0010
0000
0100
0000
,
1000
0001
0000
0001
0100
0000
0010
1000
0000
0001
0020
0000
0000
0000
0130
0000
,
0001
0000
0000
0100
0000
1000
0001
0000
0100
0000
0100
0000
1001
0000
0000
0000
,
0010
0000
0100
0000
0101
0000
0010
1000
0000
0001
0010
0000
1001
0000
0100
0010
,
0100
0000
0000
1000
0001
1000
0100
0001
0000
0100
0010
0000
0011
0000
1000
0001
,
0100
0000
0010
0100
0010
0000
0001
0010
0000
1000
0001
0000
0101
0000
1000
0001
,
1000
0100
0010
0000
0001
1000
0001
0100
0000
0000
0010
0000
0100
0000
0001
0000
,
0020
0000
0000
0100
0000
0130
0000
0000
2000
0000
0010
0000
3001
0000
0000
0000
,
0200
0000
0000
0010
0000
0310
0000
0000
2000
0000
0100
0000
3001
0000
0010
0000
,
0210
0000
0000
0301
0000
0100
0010
0000
0012
0000
0000
0000
0103
0000
0010
1000
,
0001
0010
0000
0000
0010
0100
0000
1000
0001
0000
0001
0000
1010
0000
0100
0000
,
0001
0000
0010
1000
0000
0010
0100
0000
1000
0000
1000
0000
0001
0000
0100
0000
,
0010
0000
1000
0100
0000
0100
0001
0000
0100
0000
0010
0000
0001
0000
1000
0000
,
1010
0000
0000
0110
0000
0000
0001
0000
1001
0000
0000
0011
0000
0000
0100
0000
,
0110
1001
0000
0000
0020
0000
0230
0000
,
0301
1000
0001
0010
0100
0010
0001
1000
0010
0000
0000
0000
0000
0000
0000
0000
,
0100
0001
0100
0010
1000
0001
0010
0100
1000
0000
1000
0000
0000
0000
0000
0000
,
0001
0000
0010
0100
0000
0100
1000
0001
1000
0000
0010
0000
0100
0000
1000
0000
,
0100
0000
0010
1000
0000
1000
0100
0000
0010
0000
0010
0000
0001
0010
1000
0010
,
0100
0000
1001
0000
1000
0010
0001
0010
0100
0000
0100
0000
0001
0010
0100
1000
,
0001
0000
0100
0010
0000
1000
0000
0001
0010
0000
0010
0000
0100
0001
0100
1000
,
0001
0000
0100
0000
0010
0100
0010
0100
1000
0000
0100
0000
0100
0000
0001
0000
,
0010
0000
0100
0010
0000
1000
0000
0010
0000
0001
1000
0000
1010
0000
0000
0000
,
0101
0000
0000
0110
0000
0000
0001
1000
0000
1000
0100
0000
0110
0000
0000
0000
,
0001
0000
0000
0000
1001
0000
0000
0010
0000
0100
1000
0000
0010
0000
0100
0000
,
0001
0000
0101
0000
0000
0000
1010
0000
0000
1000
0100
0000
0001
0000
0101
0000
,
0110
0000
0000
0000
0001
0000
1001
0000
0000
0010
0100
0000
0001
1000
0100
0000
,
1000
0001
1000
0010
0100
0010
1000
0001
0010
0000
0000
0000
0000
0000
0000
0000
,
0100
0010
0100
1000
0001
1000
0010
0100
0001
0000
0001
0000
0000
0000
0000
0000
,
1000
0000
0010
0100
0000
0010
0100
0010
1000
0000
0001
0010
0000
0100
0010
0100
,
0001
0000
0100
1000
0000
0010
0001
0000
0010
0000
0100
0000
0001
0100
1000
0100
,
0010
0000
1001
0000
1000
0100
0001
0100
0010
0000
0100
0000
1000
0001
1000
0010
,
0100
0000
0001
0010
0000
0100
0000
0001
0000
0100
1000
0000
0001
1000
0001
0100
,
0010
0000
1000
0000
0010
0001
0010
0000
1000
0000
0001
0000
0001
0000
0010
0000
,
0100
0000
1000
0000
0001
0100
0001
0100
0010
1000
0100
0010
0001
1000
0001
0100
,
0110
0000
0000
0000
;

//--------------- dance-double - forcednature ----------------
#NOTES:
     dance-double:
     forcednature:
     Easy:
     6:
     0,0,0,0,0:
00000000
00000000
00000000
00000000
,
00000000
00000000
00000000
00000000
,
00000000
00000000
00000000
00000000
,
00000000
00000000
00000000
00000000
,
00011000
00000000
00000000
00000000
00000000
00000000
00000000
01000000
00000000
00000000
01000000
00000000
00000000
00000000
00000000
00000000
,
00100000
00000000
00000000
00000000
00000000
00000000
00000000
10000000
00000000
00000000
10000000
00000000
00000000
00000000
00000000
00000000
,
01000000
00000000
00000000
00000000
00000000
00000000
00000000
00100000
00000000
00000000
00100000
00000000
00000000
00000000
00000000
00000000
,
00002000
00000000
00000000
00000000
00000000
00010000
00013000
00000000
,
00011000
00000000
00000000
00000000
00000100
00000000
00000000
00001000
00000000
00000000
00001000
00000000
00000000
00000000
00000000
00000000
,
00000001
00000000
00000000
00000000
00000100
00000000
00000000
00000010
00000000
00000000
00000010
00000000
00000000
00000000
00000000
00000000
,
00001000
00000000
00000000
00000000
00000100
00000000
00000000
00010000
00000000
00000000
00010000
00000000
00000000
00000000
00000000
00000000
,
00001000
00000000
00000000
00000000
01000000
00000000
00000000
00010000
00000000
00000000
00010000
00000000
00000000
00000000
00000000
00000000
,
00100000
01000000
10000000
00000000
00010000
00000000
00000000
00000000
,
01000000
00001000
00010000
00000000
00000010
00000000
00000000
00000000
,
00001000
00000001
00000010
00000000
00000100
00000000
00000000
00000000
,
00001000
00000010
00010000
00000000
00001000
00000000
00010000
00000000
,
00011000
00001000
00100000
00010000
,
10000000
00100000
00000000
00000000
,
01000000
00000000
00000000
00010000
00000000
00000000
01000000
00000000
00001000
00000000
00000000
00010000
00000000
00000000
00001000
00000000
,
00000100
00000100
00000000
00000000
00000010
00000010
00000000
00000000
,
00001001
00000000
00000000
00001000
00001000
00000000
00000000
00000000
,
00001100
00000000
00000000
00000100
00010000
00000100
00000000
00000000
,
00011000
00000000
00000000
01000000
00010000
00000000
00000000
10000000
,
01000000
00000000
00000000
00100000
00010000
00000000
01000000
00000000
,
01000000
00001000
00001000
00010000
,
00000100
00000000
00000000
00001000
00000000
00001000
00000000
00001000
00000000
00000000
00000000
00000000
00000010
00000000
00000000
00000000
,
00001001
00000001
00000100
00001000
,
00011000
00000000
00010000
00010000
00010000
00000000
01000000
00000000
,
01100000
00000000
00000000
00000000
00000000
00000000
00000000
10000000
00000000
00000000
10000000
00000000
00000000
00000000
00000000
00000000
,
00100000
00000000
01000000
00000000
00000000
00010000
00000000
00010000
,
00000000
00100000
00000000
00001000
00000000
00000000
00000000
00010000
,
00000010
00000000
00000000
00000220
00000000
00000000
00000330
00000000
,
00001001
00000000
00000000
00001000
00001000
00000000
00000000
00000000
,
00010010
00000000
00000000
00001000
00001000
00001000
00000000
00000000
,
01010000
00000000
00000000
10000000
01000000
00000000
00000000
00100000
,
00010000
00000000
00000000
01000000
00001000
00000000
00010000
00000000
,
00010100
00000100
00000110
00000010
,
00000001
00000000
00000000
00000100
00000000
00000100
00000000
00000100
00000000
00000000
00000000
00000000
00000010
00000000
00000000
00000000
,
00011000
00100000
10010000
10000000
,
00100000
00000000
00000000
01000000
00000000
01000000
00000000
02000000
00000000
00000000
00000000
00000000
03000000
00000000
00000000
00000000
,
10010000
00000000
00000000
00000000
;

//--------------- dance-double - forcednature ----------------
#NOTES:
     dance-double:
     forcednature:
     Medium:
     11:
     0,0,0,0,0:
00000000
00000000
00000000
00000000
,
00000000
00000000
00000000
00000000
,
00000000
00000000
00000000
00000000
00000000
00000000
00000000
00001000
,
00010000
00000000
01000000
00100000
00010000
10000000
00000000
00010000
,
01000000
00010000
01000000
00010000
01000000
00000000
00001000
00010000
00000000
00001000
00010000
00000000
00000000
00000000
00000000
00000000
,
00000100
00001000
00000100
00001000
00000100
00000000
00000010
00000001
00000000
00000010
00000001
00000000
00000000
00000100
00000000
00000000
,
00000100
00000010
00000000
00001000
00000001
00000000
00001000
00000100
00000000
00010000
00001000
00000000
00000000
00000000
01000000
00000000
,
01010000
00000000
00000000
00010000
00000000
10000000
02000000
00000000
00000000
00000000
00100000
00000000
03100000
00000000
00000000
00000000
,
01100000
00000000
00000000
00000000
10010000
00000000
00000000
00010000
00000000
00010000
01000000
00000000
00001000
00000000
00000000
00000000
,
00010000
00000000
00000000
00000100
00001000
00000000
00000000
00000001
00000000
00000001
00000100
00000000
00000010
00001000
00000100
00000000
,
00000010
00000000
00000000
00000010
00000100
00000000
00000000
00010000
00000000
00010000
00001000
00000000
01000000
00000000
00010000
00000000
,
00100000
01000000
00100000
01000000
10000000
00010000
10000000
00010000
00000000
00000000
01000000
00000000
01001000
00000000
00000000
00000000
,
00001000
00010000
00000100
00000000
00010000
00001000
00000100
00000000
00000010
00000000
00001000
00000000
00001001
00000000
00000000
00000000
,
00000001
00000000
00000010
00000100
00000000
00001000
00000100
00000000
00000000
00000000
00010000
00001000
00010000
00000000
00000000
00000000
,
00100000
00000000
01000000
00010000
00100000
00000000
01000000
00010000
00001000
00000000
00100000
00000000
10010000
00000000
00000000
00000000
,
10000000
00000000
01000000
00100000
00000000
00001000
00010000
00000000
00000000
00000000
00000010
00000000
00001010
00000000
00001000
00000000
,
00001001
00000000
00000000
00000101
00000000
00000000
00001100
00000000
00000000
00000000
00000010
00000000
00010000
00000000
00001000
00000000
,
00101000
00000000
00000000
00011000
00000000
00000000
00220000
00000000
00000000
00000000
00000000
00000000
00330000
00000000
10000000
00000000
,
01000000
00000000
00000000
00011000
00000000
00000000
00000010
00000000
00000100
00000000
00000000
00011000
00000000
00000000
00100000
00000000
,
01000000
01100000
00000000
00000000
00001000
00011000
00000000
00000000
,
00010000
00000000
00000000
00000100
00000000
00000000
00000010
00000000
00000110
00000000
00000000
00000100
00000000
00000000
00001000
00000000
,
00000001
00000000
00000000
00000100
00000000
00000000
00001000
00000000
00010000
00000000
00010000
00000000
00000000
00000000
00000000
00000000
,
01100000
00000000
00000000
10000000
00000000
00000000
00010000
00000000
10000000
00000000
00000000
01000000
00000000
00000000
00010000
00000000
,
00001000
00000000
00000000
00000010
00000000
00000000
00000100
00000000
00001000
00000000
00000000
00000000
00000001
00000100
00000001
00000100
,
00000010
00000000
00000000
00000000
00001000
00000100
00001000
00000100
00000010
00000000
00000000
00000000
00001000
00010000
00001000
00010000
,
00000100
00000000
00000000
00010000
00000000
00001000
00000000
00202000
00000000
00000000
00303000
00000000
00010000
10000000
00010000
10000000
,
00100000
00000000
00000000
00000000
01000000
00000000
00010000
00000000
00110000
00000000
00000000
00100000
00000000
00000000
00001000
00000000
,
00011000
00000000
00000000
00010000
00000000
00000010
00000000
00001000
00000000
00000001
00001000
00000000
00000100
00000000
00000000
00000000
,
00000110
00000000
00000000
00000000
00000000
00000000
00000000
00001000
00000000
00001000
00010000
00000000
00010000
00000000
00000000
00000000
,
01100000
00000000
00000000
00000000
10010000
00000000
00000000
10000000
00000000
10000000
01000000
00100000
00010000
01000000
00001000
00000000
,
00000000
00000000
00011000
00000000
00000000
00000000
00101000
00000000
00000000
00001000
00010000
00000000
00000010
00000000
00000100
00000000
,
00001001
00000000
00000000
00000001
00000010
00000000
00000100
00000000
00000000
00000100
00001000
00000000
00000000
00000010
00010000
00000000
,
00011000
00000000
00000000
00100000
00000000
00000000
00010000
00000000
10010000
00000000
00000000
10000000
00000000
00000000
00100000
00000000
,
01000000
00000000
00000000
00001000
00000000
00000000
00010000
00000000
00011000
00000000
00011000
00000000
00000000
00000000
00000000
00000000
,
00001100
00000000
00000000
00001000
00000000
00000000
00000001
00000000
00000101
00000000
00000000
00000100
00000000
00000000
00000010
00000000
,
00010000
00000000
00001000
00100000
00000000
00000000
00010000
00000000
01010000
00000000
00000000
00000000
10000000
00100000
10000000
00100000
,
01000000
00000000
00000000
00000000
00010000
00100000
00010000
00100000
01000000
00000000
00000000
00000000
00010000
00001000
00010000
00001000
,
00000010
00000000
00000000
00000100
00000000
00001000
00000000
00002002
00000000
00000000
00003003
00000000
00000001
00000100
00000001
00000100
,
00000010
00000000
00000000
00010000
00000000
00000000
00001000
00000000
00101000
00000000
00000000
01000000
00000000
00000000
00010000
00000000
,
10010000
00000000
00000000
10000000
00000000
01000000
00000000
00010000
00000000
00001000
00010000
00001000
00010000
00000000
00000000
00000000
,
00002002
00000000
00003003
00000000
;

//--------------- dance-double - forcednature ----------------
#NOTES:
     dance-double:
     forcednature:
     Hard:
     13:
     0,0,0,0,0:
00000000
00000000
00000000
00000000
,
00000000
00000000
00000000
00000000
,
00000000
00000000
00000000
00000000
00000000
00000000
00000000
00001000
,
00011000
00000000
00000000
00000000
00000000
00000000
01000000
00000000
00000000
01000000
01100000
00000000
00000000
10010000
00000000
00000000
,
11000000
00000000
00000000
00000000
01000000
00000000
00000000
00010000
00000000
00001000
00000010
00000000
00000000
00000000
00000000
00000000
,
00000101
00000000
00000000
00000000
00000100
00000000
00000000
00001000
00000000
00010000
00100000
00000000
00000000
00000000
00000000
00000000
,
11000000
00000000
00000000
00000000
01000000
00000000
00000000
00010000
00000000
00001000
00000010
00000000
00000000
00000000
00000001
00000000
,
00000101
00000000
00000000
00000100
00000000
00001000
00010000
00100000
00000000
00100000
00100000
10000000
00010000
00000000
00000000
00000000
,
10010000
00000000
10000000
01000000
00100000
00000000
00000000
01000000
00000000
01000000
10000000
00000000
00010000
00000000
00000000
00000000
,
01000000
00000000
00001000
00010000
00000010
00000000
00000000
00001000
00000000
00001000
00000100
00000000
00000010
00000000
00000001
00000000
,
00000100
00000000
00000000
00000100
00000010
00000000
00000000
00001000
00000000
00001000
00000100
00000000
00000010
00000000
00000000
00000000
,
00000100
00010000
00000100
00010000
00001000
00100000
00001000
00100000
00000000
01000000
01000000
00000000
10000000
00000000
00010000
00000000
,
10020000
00000000
00000000
00001000
00000000
00031000
00000000
00000000
01001000
00000000
00000000
00000000
00010010
00000000
00000000
00000000
,
00002001
00000000
00000000
00010000
00000000
00013000
00000000
00000000
00010100
00000000
00000000
00000000
00101000
00000000
00000000
00000000
,
10020000
00000000
00000000
00001000
00000000
00031000
00000000
00000000
01010000
00000000
00000000
00000000
00001010
00000000
00000000
00000000
,
00002001
00000000
00000000
00010000
00000000
00000000
00013000
00000000
00000000
00000000
00001000
00000000
00001001
00000000
00000000
00000000
,
00000101
00000000
00000000
00000100
00000000
00001000
00010000
00000000
00100000
10000000
00010000
00000000
10010000
00000000
00000000
00000000
,
10000000
01000000
00000000
00100000
00000000
00001000
00010000
00000000
00100000
00000000
00001000
00000000
00000010
00000000
00000100
00000000
,
00000110
00000000
00000000
00001100
00000000
00000000
00011000
00000000
01100000
00000000
00000000
01010000
00000000
00000000
00011000
00000000
,
00010100
00010100
00000000
00000000
01001000
01001000
00000000
00000000
,
00001000
00010000
01000000
00100000
00001000
00010000
00100000
10000000
00010000
00000000
00000000
00000000
00000000
00000000
00000000
00000000
,
01000000
00001000
00010000
01000000
00010000
00001000
00000010
00000001
00000100
00000000
00000100
00000000
00000000
00000000
00000000
00000000
,
00000010
00010000
00001000
00000010
00000100
00001000
00000010
00000100
00001000
00000000
00000000
00000000
00000000
00000000
00010000
00000000
,
00010000
00100000
01000000
00010000
10000000
01000000
00010000
00001000
00100000
00000000
00100000
00000000
00101000
00000000
00000000
00000000
,
00010100
00000000
00001001
00000000
00000001
00000100
00000010
00001000
00000100
00000000
00000110
00000000
00001100
00000000
00000000
00000000
,
00011000
00000000
00101000
00000000
00001000
00010000
00100000
01000000
00010000
00000000
10000000
01000000
11000000
00000000
00000000
00000000
,
00110000
00000000
00001000
00000000
00010000
00000100
00001000
00000100
00000010
00000000
00000001
00000100
00000101
00000000
00000000
00000000
,
00001010
00000000
00010000
00000000
00001000
00100000
00010000
00100000
01000000
10000000
00100000
01000000
00010000
00000000
00000000
00000000
,
00102000
00000000
00000000
00000000
00000000
00000000
00000000
00000100
00000000
00000100
00000100
00000000
00003000
00000000
00000000
00000000
,
00020010
00000000
00000000
00000000
01000000
00000000
00000000
00001000
00000000
00000010
00030010
00010000
00001000
00100000
01000000
00010000
,
00001000
00000000
00000110
00000000
00010000
00000000
01100000
00000000
00000000
00001000
00001000
00010000
00010100
00000000
00000010
00000000
,
00001001
00000000
00000001
00000100
00001000
00010000
00001000
00000100
00001000
00010000
01000000
00010000
00001000
00000010
00000100
00000000
,
00001000
00000001
00000100
00001000
00010000
01000000
10000000
00100000
01000000
00000000
00000000
00000000
00000000
00000000
00000000
00000000
,
00001000
00010000
00100000
00010000
00001000
00010000
01000000
00010000
00001000
00000000
00001010
00000000
00000000
00000000
00000000
00000000
,
00000010
00000001
00000100
00001000
00010000
00100000
10000000
00010000
00100000
00000000
00000000
00000000
00000000
00000000
00011000
00000000
,
00010000
00000100
00000010
00000100
00001000
00000001
00000100
00001000
00010000
00000000
00011000
00000000
00101000
00000000
00000000
00000000
,
11000000
00000000
10010000
00000000
00010000
01000000
00001000
00010000
00000100
00000000
00001100
00000000
00000110
00000000
00000000
00000000
,
00000011
00000000
00001001
00000000
00000001
00000100
00001000
00010000
00000010
00000000
00010000
00001000
00011000
00000000
00000000
00000000
,
00001000
00100000
00010000
00100000
01000000
10000000
00010000
00000000
01000000
00100000
10000000
01000000
00010000
00000000
00011000
00000000
,
00000100
00001000
00000010
00010000
00001000
00000010
00000100
00001000
00000001
00000100
00001000
00010000
00100000
00000000
00000000
00000000
,
20020000
00000000
30030000
00000000
;
