#TITLE:cachaca;
#SUBTITLE:;
#ARTIST:Mokky de Yah Yah's;
#TITLETRANSLIT:;
#SUBTITLETRANSLIT:;
#ARTISTTRANSLIT:;
#GENRE:;
#CREDIT:;
#MUSIC:cachaca.ogg;
#BANNER:cachaca.png;
#BACKGROUND:cachaca-bg.png;
#CDTITLE:./CDTITLES/GUITARFREAKS & DrumMania.png;
#SAMPLESTART:18.748;
#SAMPLELENGTH:15.000;
#SELECTABLE:YES;
#OFFSET:0.000;
#BPMS:0.000=127.000
,4.000=128.000
,119.000=129.500
,120.000=128.000
,135.000=126.500
,136.000=128.000
,172.000=131.000
,173.000=128.000
,174.000=127.000
,175.000=126.000
,176.000=128.000
;
#STOPS:;
#DISPLAYBPM:128.000;
#BGCHANGES:;
#FGCHANGES:;

//--------------- dance-single - KONAMI ----------------
#NOTES:
     dance-single:
     KONAMI:
     Beginner:
     1:
     0,0,0,0,0:
0000
0000
0000
0000
,
0000
0000
0000
0000
,
2000
0000
0000
3000
,
0000
0000
0000
0001
,
0002
0000
0000
0003
,
0000
0000
0000
0000
,
0200
0000
0000
0300
,
0000
0000
0000
0010
,
0020
0000
0000
0030
,
0000
0000
0000
0000
,
1000
0000
1000
0000
,
0001
0000
0000
0000
,
0010
0000
0010
0000
,
0100
0000
0000
0000
,
1000
0000
1000
0000
,
0001
0000
0000
0000
,
0010
0000
0000
0000
,
0002
0000
0000
0003
,
0001
0000
0000
0000
,
0000
0000
0000
1000
,
2000
0000
0000
3000
,
0000
0000
0000
0000
,
0020
0000
0000
0030
,
0000
0000
0000
0100
,
0200
0000
0000
0300
,
0000
0000
0000
0000
,
1000
0000
1000
0000
,
0001
0000
0001
0000
,
1000
0000
0000
0000
,
0001
0000
0000
0000
,
1000
0000
1000
0000
,
0001
0000
1000
0000
,
0001
0000
0000
0000
,
1000
0000
0000
0000
,
0100
0000
0000
0000
,
0010
0000
0000
0000
,
1000
0000
0000
0000
,
0001
0000
0000
0000
,
0100
0000
0000
0000
,
0010
0000
0000
0000
,
1000
0000
1000
0000
,
0002
0000
0000
0003
,
0001
0000
0001
0000
,
2000
0000
0000
3000
,
1000
0000
1000
0000
,
0002
0000
0000
0003
,
0001
0000
0000
0000
,
0100
0000
0110
0000
;

//--------------- dance-single - KONAMI ----------------
#NOTES:
     dance-single:
     KONAMI:
     Easy:
     3:
     0,0,0,0,0:
0000
0000
0000
0000
,
0000
0000
0000
0000
,
1000
0000
0001
0000
,
1000
0000
0100
0000
,
0020
0000
0000
0030
,
0000
0000
0000
0000
,
0001
0000
1000
0000
,
0001
0000
0010
0000
,
0200
0000
0000
0300
,
0000
0000
0000
0000
,
1000
0001
1000
0001
,
1000
0000
0000
0000
,
0010
0000
0100
0000
,
0010
0000
0000
0000
,
0001
1000
0001
1000
,
0001
0000
0001
0000
,
1000
0000
1000
0000
,
1001
0000
0000
0000
,
0001
0000
1000
0000
,
0001
0000
0010
0000
,
0200
0000
0300
0000
,
0000
0000
0000
0000
,
1000
0000
0001
0000
,
1000
0000
0100
0000
,
0020
0000
0030
0000
,
0200
0000
0300
0000
,
1000
0000
0001
0000
,
0100
0000
0010
0000
,
1000
0000
0001
0000
,
0100
0000
0010
0000
,
1000
0000
1000
0000
,
0001
0000
0001
0000
,
0010
0000
0100
0000
,
1000
0001
1000
0000
,
0001
1000
0001
0000
,
0100
0000
0010
0000
,
1000
0001
1000
0000
,
0020
0000
0000
0030
,
0100
0010
0100
0000
,
0001
0000
1000
0000
,
0001
1000
0001
1000
,
0002
0000
0000
0003
,
1000
0001
1000
0001
,
2000
0000
0000
3000
,
0100
0010
0100
0010
,
0200
0000
0000
0300
,
2000
0000
0000
3000
,
0001
0000
1001
0000
;

//--------------- dance-single - KONAMI ----------------
#NOTES:
     dance-single:
     KONAMI:
     Medium:
     7:
     0,0,0,0,0:
0000
0000
0000
0000
,
0000
0000
0000
0000
,
1010
0100
0011
0100
,
1000
0001
1000
0001
,
0100
0020
0000
0000
0000
0000
0030
0000
,
0000
0000
0000
0000
,
0110
0001
1001
1000
,
0010
0100
0010
0100
,
0001
2000
0000
0000
0000
0000
3000
0000
,
0000
0000
0000
0000
,
1000
0001
0100
0000
0010
1000
0001
0000
,
1000
0101
1001
0000
,
1000
0010
0100
0000
0001
0100
0001
1000
,
0001
0110
0000
0000
,
0100
0001
1000
0000
0010
1000
0001
0000
,
1000
1100
1001
0000
,
0110
0000
0000
1001
,
1000
0010
0100
0001
1000
0000
0000
0000
,
0101
0010
1100
0010
,
0001
1000
0001
1000
,
0010
0200
0000
0000
0000
0000
0300
0000
,
0000
0000
0000
0000
,
0110
1000
1001
0001
,
0100
0010
0100
0010
,
1000
0002
0000
0000
0000
0000
0003
0000
,
0110
0000
0000
1001
0000
0000
0000
0000
,
1000
0100
1000
0000
0001
1000
0001
0000
,
0010
0001
0100
1000
,
0100
0000
0001
0000
1000
0001
1000
0001
,
1000
0100
0010
0001
,
0010
0100
0010
0000
0100
1000
0100
0000
,
1000
0001
1000
0000
0001
0010
0001
0000
,
1000
0001
1000
0000
0001
0100
0001
0000
,
1000
0101
1001
0000
,
1001
0100
1001
0010
,
1100
0000
0101
0000
,
0110
1000
0110
0001
,
1000
0100
0001
0100
,
1010
0100
0011
0100
,
1000
0100
0001
0100
,
1000
0100
0010
0001
,
0001
0010
0100
1000
,
1000
0100
0010
0001
,
1000
0001
0010
0000
0110
0000
0000
0000
,
0001
0010
0100
1000
,
0010
1000
0001
0000
1001
0000
0000
0000
,
0010
1000
0100
0000
0110
0000
0000
0000
,
0010
0001
1000
0000
1001
0000
0000
0000
;

//--------------- dance-single - KONAMI ----------------
#NOTES:
     dance-single:
     KONAMI:
     Hard:
     12:
     0,0,0,0,0:
0000
0000
0000
0000
,
0000
0000
0000
0000
,
0001
0000
1000
0010
0000
0010
0000
0110
0000
0000
0000
0000
0010
0000
1000
0000
,
0001
0000
1000
0100
0000
0100
0000
1001
0000
0000
0000
0000
0001
0000
0100
0000
,
1000
0000
0100
0001
0000
0001
0000
0202
0000
0000
0000
0000
0000
0000
0000
0000
,
0000
0303
0000
0000
,
1000
0000
0001
0100
0000
0100
0000
0110
0000
0000
0000
0000
0100
0000
0001
0000
,
1000
0000
0001
0010
0000
0010
0000
1001
0000
0000
0000
0000
1000
0000
0100
0000
,
0001
0000
0100
1000
0000
1000
0000
1001
0000
0000
0000
0000
0010
0000
1000
0000
,
0002
0000
0000
0003
,
0110
1000
0110
0001
,
0110
0000
0000
0100
0000
0000
0101
0000
0000
0000
0000
0000
0000
0000
0000
0000
,
1000
0000
0001
0000
0001
0010
1000
0010
,
0011
0000
0000
0110
0000
0000
0000
0000
0000
0000
0010
0000
1000
0000
0100
0000
,
0101
0001
1100
1000
,
1001
0000
0000
0001
0000
0000
0110
0000
0000
0000
0000
0000
1000
0000
0000
0000
,
0010
0000
0000
0000
0000
0001
0100
1000
,
0100
0000
0010
1000
0000
1000
0000
1000
0001
0000
0000
0000
0000
0000
0000
0000
,
0100
0000
0001
1000
0000
1000
0000
1001
0000
0000
0000
0000
0001
0000
0100
0000
,
0010
0000
0100
1000
0000
1000
0000
0110
0000
0000
0000
0000
1000
0000
0010
0000
,
0001
0000
0010
1000
0000
1000
0000
2020
0000
0000
0000
0000
0030
0000
0000
0000
,
0010
0000
0000
0100
0100
3100
0000
0000
,
0001
0000
1000
0010
0000
0010
0000
0110
0000
0000
0000
0000
0010
0000
1000
0000
,
0001
0000
1000
0100
0000
0100
0000
1001
0000
0000
0000
0000
0001
0000
0100
0000
,
1000
0000
0100
0001
0000
0001
0000
1001
0000
0000
0000
0000
0110
0000
0000
0000
,
1000
0000
0010
0100
0000
0000
0001
0000
0100
0010
0000
0000
0000
0000
0000
0000
,
1000
0000
0001
0000
0000
0000
0000
0000
0000
1000
0100
1000
,
0100
0000
0010
0001
0010
0001
0100
0000
0000
0000
0000
0000
,
0000
0001
1000
0001
1000
0001
0100
0000
0010
0000
1000
0000
,
1010
0001
0011
1000
,
0000
0100
1000
0001
1000
0100
1000
0000
0001
0000
0010
0000
,
0001
0100
0001
0100
0000
0001
1000
0100
1000
0000
0001
0100
,
0001
0010
0001
0000
1000
0100
1000
0010
1000
0000
0001
0000
,
1000
0000
0000
0100
0000
0000
0100
0000
0220
0000
0000
0000
0330
0000
0000
0000
,
0011
0001
2001
0000
,
0000
0000
3001
0000
0000
0100
0000
0000
0010
0000
1000
0001
0000
0000
0000
0000
,
1010
1000
1002
0000
,
1003
0000
0000
0000
0000
0000
0100
0000
0000
1000
0000
0000
0000
0000
0000
0100
0000
0000
0000
0000
0000
0010
0000
0000
0000
0000
0000
0000
0001
0000
0000
0000
1000
0000
0000
0000
0100
0000
0000
0000
1000
0000
0000
0000
0010
0000
0000
0000
,
1000
0100
0120
0000
,
0000
0000
0130
0000
0000
1000
0000
0000
1000
0000
0001
1000
0000
0000
0000
0000
,
0002
0023
2030
3200
,
1300
0100
0010
0001
,
2000
3020
0032
0203
,
0301
0000
1000
0100
0000
0000
0001
0000
1000
0100
0000
0000
0000
0000
0000
0000
,
2000
3020
0032
0203
,
0301
0000
1000
0100
0000
0100
0000
0100
0000
0000
1001
0000
0000
0000
0000
0000
,
0010
0000
0100
0001
0000
0001
0000
0001
0000
0110
0000
0000
0000
0000
0000
0000
,
1000
0000
0001
0010
0000
0010
0000
0010
0100
0000
0000
0000
0000
0000
0000
0000
;

//--------------- dance-single - eataninja ----------------
#NOTES:
     dance-single:
     eataninja:
     Challenge:
     13:
     0,0,0,0,0:
0000
0000
0000
0000
,
0000
0000
0000
0000
,
1000
0010
0100
0010
1000
0001
0002
0000
0000
0013
0000
0000
,
0010
0000
0000
0000
0000
0000
0100
0000
0000
0010
0000
0000
0000
0000
0000
0100
0000
0000
0000
0000
0000
1000
0000
0000
0000
0000
0000
0000
0001
0000
0000
0000
0001
0000
0000
0000
0100
0000
0000
0000
1000
0000
0000
0000
0100
0000
0000
0000
,
0010
1000
2000
0000
3001
0010
0100
0000
,
0100
0000
0010
0100
0000
0010
0000
0001
0000
1000
0000
0010
0100
0010
0000
0000
,
1000
0001
0010
0001
1000
0100
0200
0000
0000
0310
0000
0000
,
0010
0000
0000
0000
0000
0000
0001
0000
0000
1000
0000
0000
0000
0000
0000
0001
0000
0000
0000
0000
0000
0100
0000
0000
0000
0000
0000
0000
0010
0000
0000
0000
0010
0000
0000
0000
0100
0000
0000
0000
0001
0000
0000
0000
1000
0000
0000
0000
,
0100
0000
0010
0000
0002
0000
0000
0000
0000
0000
0000
0000
1003
0000
0000
0001
0000
0000
0100
0000
0000
0000
0000
0000
,
1000
0000
0000
1000
0100
0000
0000
0100
0010
0000
1000
0000
0001
0000
0010
0000
,
0100
0010
0100
0000
0000
0000
1000
0001
1000
0000
0000
0000
0010
0100
0010
0000
0000
0000
0100
0001
0100
0000
0000
0000
,
1100
0000
0000
0110
0000
0000
0202
0000
0000
0000
0303
0000
0000
0000
0000
0000
,
1000
0000
0100
0010
0000
1000
0000
0010
0000
0200
0000
0000
1300
0000
0001
0000
,
0200
0000
0000
0310
0000
0000
0000
0000
0010
0000
0001
0000
0010
0000
1000
0000
,
0001
1000
0001
0000
0000
0000
0010
0001
0010
0000
0000
0000
0100
1000
0100
0000
0000
0000
1000
0001
1000
0000
0000
0000
,
1010
0000
0000
1010
0000
0000
0102
0000
0000
0000
0000
0000
1003
0000
0000
0000
,
1100
0000
0100
0000
0001
1000
0010
0001
,
1000
0000
1000
0010
0000
0010
0000
0010
0100
0000
0000
0000
0000
0000
0000
0000
,
0001
0000
0000
0000
0100
0000
0000
0000
0010
0000
0000
0000
1000
0000
0000
0000
0001
0000
0000
0000
1000
0000
0000
0000
0100
0000
0000
0000
0000
0000
0000
0000
0000
0100
0000
0000
0010
0000
0000
0000
0000
0000
0000
0000
0000
0010
0000
0000
,
0001
0000
0000
0000
0000
0000
1000
0000
0000
0010
0000
0000
0100
0000
0000
0000
0000
0000
0100
0000
0000
0001
0000
0000
0000
0000
0000
0000
1000
0000
0000
0000
1000
0000
0000
0000
0100
0000
0000
0000
0001
0000
0000
0000
0100
0000
0000
0000
,
1000
0000
0000
0000
0001
0000
0000
0000
0200
0000
0000
0000
0000
0000
0000
0000
0000
0000
0000
0000
0000
0000
0000
0000
0301
0000
0000
0000
0000
0000
0012
0000
0000
0000
0000
0000
0000
0000
0000
0000
0000
0000
0013
0000
0000
0100
0000
0000
,
1000
0000
0000
0010
0000
0000
0001
0000
1000
0100
0000
0100
0010
0000
0000
0000
,
1000
0000
0000
0000
0001
0000
0000
0000
0010
0000
0000
0000
0100
0000
0000
0000
1000
0000
0000
0000
0010
0000
0000
0000
0100
0000
0000
0000
0000
0000
0000
0000
0000
0100
0000
0000
0010
0000
0000
0000
0000
0000
0000
0000
0000
0010
0000
0000
,
1000
0000
0000
0000
0000
0000
0100
0000
0000
0000
0000
0000
0001
0000
0000
0000
0000
0000
0100
0000
0000
0001
0000
0000
0000
0000
0000
0000
0100
0000
0000
0000
0100
0000
0000
0000
0010
0000
0000
0000
0001
0000
0000
0000
1000
0000
0000
0000
,
0010
0000
0000
0000
0100
0000
0000
0000
0002
0000
0000
0000
0000
0000
0000
0000
0000
0000
0000
0000
0000
0000
0000
0000
1003
0000
0000
0010
0000
0000
0000
0000
0000
1000
0000
0000
0010
0000
0000
0000
0000
0000
0100
0000
0000
0000
0000
0000
,
0001
0000
0001
0001
0000
0000
1000
0000
1000
1000
0000
0000
0100
0010
0100
0010
,
0002
0000
0000
0000
0000
0000
0000
0000
0000
2003
0000
0000
0000
0000
0000
0000
0000
0000
0010
0000
0000
0000
0000
0000
3010
0000
0000
0000
0000
0000
0000
0000
0000
0000
0000
0000
0100
0000
0000
0000
0010
0000
0000
0000
0100
0000
0000
0000
,
0001
0000
1000
0001
1000
0100
0020
0000
0000
0130
0000
0000
,
1000
0001
1000
0010
0100
0001
0010
1000
0010
0100
1000
0001
,
0100
0000
0000
0100
0010
0000
0000
0010
1000
0000
0000
1000
0001
0000
0000
0000
,
1000
0100
0010
1000
0010
0001
1000
0000
0010
0000
0001
0000
,
1000
0100
1000
0100
0020
0000
1030
0001
1000
0001
0020
0000
,
0130
0001
0100
1000
0001
1000
0100
0001
0100
1000
0001
1000
,
0020
0000
2030
0000
3002
0000
0203
0000
0000
0310
0000
0000
,
1000
0001
0001
1000
0010
0100
0020
0000
0000
1030
0000
0000
,
0001
0000
0011
0000
0000
0110
0000
0000
1000
0000
0001
0100
0000
0000
0000
0000
,
0001
1000
1000
0001
0100
0010
0200
0000
0000
0301
0000
0000
,
1000
0000
0000
0000
0000
0000
0000
0000
0010
0000
0000
0000
0001
0000
0000
0000
0000
0000
0000
0000
1000
0000
0000
0000
0000
0000
0000
0000
0100
0000
0000
0000
0000
0000
0000
0000
0000
0001
0000
0000
0000
0000
0010
0000
0000
0000
0000
0000
1000
0000
0000
0000
0000
0001
0000
0000
0000
0000
0100
0000
0000
0000
0000
0000
,
1000
0001
0001
1000
0010
0100
0020
0000
0000
1030
0000
0000
,
0001
0000
0101
0000
0000
1100
0000
0000
1000
0000
0001
0010
0000
0000
0000
0000
,
0010
0100
0010
0000
0000
0000
0001
1000
0001
0000
0000
0000
1000
0010
1000
0000
0000
0000
0010
0100
0010
0000
0000
0000
,
0020
0032
0203
2300
,
3001
0010
0001
0000
0000
0000
1000
0010
1000
0000
0000
0000
0001
0100
0001
0000
0000
0000
0100
0010
0100
0000
0000
0000
,
0001
0000
0001
0001
0000
0000
1000
0000
1000
1000
0000
0000
0000
0000
0000
0000
,
1000
0100
1000
0000
0000
0000
0100
0010
0100
0000
0000
0000
1000
0001
1000
0000
0000
0000
0010
0100
0010
0000
0000
0000
,
0100
0000
0100
0010
0000
0010
0000
0010
0000
0000
0010
0000
0000
0000
0000
0000
,
1000
0000
1000
0100
0000
0100
0000
0100
0000
0100
0000
0000
0000
0000
0000
0000
,
0010
0000
0000
0000
0000
0000
0010
0000
0000
0001
0000
0000
0000
0000
0000
1000
0000
0000
0000
0000
0001
0000
0000
0000
1001
0000
0000
0000
0000
0000
0000
0000
0000
0000
0000
0000
0000
0000
0000
0000
0000
0000
0000
0000
0000
0000
0000
0000
;

//--------------- dance-double - KONAMI ----------------
#NOTES:
     dance-double:
     KONAMI:
     Easy:
     4:
     0,0,0,0,0:
00000000
00000000
00000000
00000000
,
00000000
00000000
00000000
00000000
,
00000001
00000000
00001000
00000000
,
00000001
00000000
00010000
00001000
,
00020000
00000000
00000000
00030000
,
00000000
00000000
00000000
00000000
,
10000000
00000000
00010000
00000000
,
10000000
00000000
00001000
00010000
,
00002000
00000000
00000000
00003000
,
00000000
00000000
00000000
00000000
,
10000000
00010000
00010000
00010000
,
01000000
00000000
00000000
00000000
,
00001000
00010000
00010000
00001000
,
00000100
00000001
00000000
00000000
,
00000001
00001000
00001000
00001000
,
00000010
00000000
00000000
00000000
,
00020000
00000000
00000000
00030000
,
00010000
10000000
00100000
00000000
,
10000000
00000000
00010000
00000000
,
10000000
00000000
00001000
00010000
,
00002000
00000000
00000000
00003000
,
00000000
00000000
00000000
00000000
,
00000001
00000000
00001000
00000000
,
00000001
00000000
00010000
00001000
,
00020000
00000000
00000000
00030000
,
01100000
00000000
10010000
00000000
,
10000000
00010000
01000000
01000000
,
00100000
10000000
00010000
01000000
,
00001000
00000000
00010000
00000000
,
00000100
00000010
00000100
00000010
,
00000001
00000000
00001000
00000000
,
00000010
00000000
00001000
00000000
,
00000100
00001000
00000001
00001000
,
00000010
00000000
00010000
00000000
,
01000000
00100000
00010000
00000000
,
00020000
00000000
00000000
00030000
,
10000000
01000000
00100000
00000000
,
00002000
00000000
00000000
00003000
,
00010000
00001000
00000100
00000000
,
00000001
00001000
00000010
00000100
,
00000100
00000001
00000001
00000001
,
00000200
00000300
00002000
00003000
,
00001000
00010000
00010000
00010000
,
02200000
00000000
00000000
03300000
,
10000000
00010000
01000000
00010000
,
10010000
00000000
00000000
00010000
,
00011000
00000000
00000000
00000100
,
00001001
00000000
00000110
00000000
;

//--------------- dance-double - KONAMI ----------------
#NOTES:
     dance-double:
     KONAMI:
     Medium:
     9:
     0,0,0,0,0:
00000000
00000000
00000000
00000000
,
00000000
00000000
00000000
00000000
,
01000000
00100000
01000000
00100000
,
10000000
00000000
00010000
00000000
00010000
10000000
01000000
00100000
,
01000000
20000000
00000000
00000000
00000000
00000000
30000000
00000000
,
00000000
00000000
00000000
00000000
,
00010000
00001000
00010000
00001000
,
00000100
00000000
00000001
00000000
00001000
00000100
00000010
00000100
,
00001000
00000002
00000000
00000000
00000000
00000000
00000003
00000000
,
00000000
00000000
00000000
00000000
,
00000010
00000100
00001000
00000100
00000010
00000001
00000100
00001000
,
00020000
02030000
23000000
30000000
,
00010000
10000000
00100000
01000000
00010000
10000000
00100000
01000000
,
00020000
02030000
00000000
03000000
,
00100000
01000000
10000000
01000000
00100000
10000000
01000000
00010000
,
00002000
00003200
00000302
00000203
,
00002300
00003000
00000000
00011000
,
00010000
00001000
00010000
00001000
00000100
00000000
00000000
00000000
,
00000001
00001000
00000001
00001000
,
00000010
00000000
00000100
00000000
00000001
00000100
00001000
00000100
,
00000001
00002000
00000000
00000000
00000000
00000000
00003000
00000000
,
00000000
00000000
00000000
00000000
,
00010000
00001000
00010000
00001000
,
00010000
00000000
01000000
00000000
10000000
01000000
00010000
01000000
,
10000000
00020000
00000000
00000000
00000000
00000000
00030000
00000000
,
11000000
00000000
00000000
01010000
00000000
00000000
00000000
00000000
,
10000000
00000000
00100000
00000000
00010000
00001000
00000000
00010000
,
01000000
00000000
00010000
00000000
00001000
00000010
00000000
00000001
,
00001000
00000000
00000010
00000000
00010000
00001000
00000000
01000000
,
00200000
20300000
32000000
03020000
,
00031000
00000000
00010000
00000000
00000010
00000100
00000000
00000001
,
00001000
00000000
00000001
00000000
00001000
00000100
00000000
00010000
,
00001000
00000000
00010000
00000000
01000000
10000000
00100000
00000000
,
01000000
00010000
00000000
10000000
01000000
00000000
00000000
00000000
,
10000000
01000000
00100000
00010000
01000000
00000000
00000000
00000000
,
10100000
01010000
01001000
00011000
,
00001000
00000100
00000001
00000100
00001000
00000000
00000000
00000000
,
00002000
00003200
00000302
00000023
,
00000031
00000010
00000100
00001000
00000100
00000000
00000000
00000000
,
00000011
00001100
00010100
00011000
,
01000000
00100000
10000000
00010000
00100000
01000000
00100000
00010000
,
20000000
00000000
00000000
30000000
,
01000000
00010000
00001000
00000100
00001000
00010000
00001000
00000100
,
00000110
00000000
00000000
00001001
00000000
00000000
00000000
00000000
,
00000010
00000100
00000001
00001000
00000100
00000010
00000100
00001000
,
00000002
00000000
00000000
00000000
00001003
00002000
00000000
00000000
,
00003200
00000000
00000000
00000000
00010300
00020000
00000000
00000000
,
02030000
03000000
10010000
00000000
;

//--------------- dance-double - KONAMI ----------------
#NOTES:
     dance-double:
     KONAMI:
     Hard:
     11:
     0,0,0,0,0:
00000000
00000000
00000000
00000000
,
00000000
00000000
00000000
00000000
,
00000000
00000001
00001000
00000001
00001000
00000100
00002000
00000000
00000000
00003000
00000000
00000000
,
00000000
00000000
00000000
00000000
00000000
00000000
00000000
00010000
10000000
00010000
01000000
00010000
,
01000000
00200000
00000000
00300000
00000000
00000000
10000000
00000000
,
00100000
00010000
00001000
00000010
,
00000000
00000001
00001000
00000001
00001000
00000100
00002000
00000000
00000000
00003000
00000000
00000000
,
00000000
00000000
00000000
00000000
00000000
00000000
00000000
00001000
00000001
00001000
00000001
00000100
,
00000001
00000100
00000010
00000000
00000000
00000000
00000000
00000000
00000000
00000001
00000000
00000000
,
00000010
00001000
00010000
00100000
,
10000000
01000000
00010000
00001000
00000100
00000001
00000100
00000000
,
00001001
00000000
00000000
00011000
00000000
00000000
00010100
00000000
00000000
00000000
00000000
00000000
00000000
00000000
00000000
00000000
,
01000000
00000000
00100000
01000000
00000000
00010000
00000000
10000000
00000000
00010000
00000000
00000000
00001000
00000000
00010000
00000000
,
01000000
00000000
00000000
10010000
00000000
00000000
00000000
00000000
00000000
00000000
00001000
00000000
00010000
00000000
00001000
00000000
,
00000010
00000001
00000100
00001000
00010000
01000000
10000000
00000000
,
10010000
00000000
00000000
00011000
00000000
00000000
01001000
00000000
00000000
00000000
00000000
00000000
00020000
00000000
00000000
00000000
,
00030020
00000000
00000030
00000000
00000000
00000001
00000100
00001000
,
00010000
00000000
01000000
00100000
00000000
01000000
00000000
10000000
00010000
00000000
00000000
00000000
00000000
00000000
00000000
00000000
,
00000000
00010000
10000000
00010000
00100000
01000000
10000000
00000000
00000000
00000000
00000000
00000000
,
00000000
00000000
00000000
00000000
00000000
00000000
00000000
00010000
00001000
00000100
00001000
00000100
,
00000001
00000100
00000001
00000000
00000000
00000000
00000000
00000000
00000000
00011000
00000000
00000000
,
01001000
00000000
00000000
01000000
00000000
00000000
00100000
00000000
00010000
00000000
00001000
00000000
00000000
00000000
00000000
00000000
,
00000000
00000001
00001000
00000001
00000010
00000100
00001000
00000000
00000000
00000000
00000000
00000000
,
00000000
00000000
00000000
00000000
00000000
00000000
00000000
00001000
00010000
01000000
00010000
01000000
,
10000000
01000000
10000000
00000000
00000000
00000000
00000000
00000000
00000000
00000000
00000000
00000000
,
00001000
00000000
00010000
01000000
00000000
00000000
00010000
00000000
00001000
00000100
00000000
00000000
00000000
00000000
00000000
00000000
,
00000010
00000000
00000000
00000001
00000000
00000000
00001000
00000000
00000010
00000000
00000000
00000100
00000000
00000000
00001000
00000000
,
00010000
00000000
00000000
00100000
00000000
00000000
00010000
00000000
00001000
00000000
00000000
00000010
00000000
00000000
00000001
00000000
,
00001000
00000000
00000000
00000100
00000000
00000000
00010000
00000000
01000000
00000000
00000000
00100000
00000000
00000000
00010000
00000000
,
10000000
00000000
00000000
00100000
00000000
00000000
00010000
00000000
00001000
00000000
00000000
00000010
00000000
00000000
00001000
00000000
,
00010000
00000000
00000000
00100000
00000000
00000000
01000000
00000000
00010000
00000000
00000000
00100000
00000000
00000000
00001000
00000000
,
00010000
00000000
00000000
00000100
00000000
00000000
00001000
00000000
00000001
00000000
00000000
00000100
00000000
00000000
00001000
00000000
,
00000100
00000000
00000000
00000001
00000000
00000000
00001000
00000000
00000100
00000000
00000000
00010000
00000000
00000000
00001000
00000000
,
01000000
00000000
00000000
00010000
00000000
00000000
10000000
00000000
00020000
00000000
00000000
00000000
00030000
00000000
00000000
00000000
,
00000000
10000000
01000000
00100000
00010000
00100000
00010000
00000000
00000000
00000000
00000000
00000000
,
00000000
00000000
00100000
00000000
00000000
00001000
00000000
00000000
00010000
00000000
00000100
00001000
00000000
00000000
00000000
00000000
,
00000000
00001000
00000100
00000010
00000001
00000010
00000001
00000000
00000000
00000000
00000000
00000000
,
00000100
00000000
00000000
00000000
00000000
00000000
00010000
00000000
00000000
00001000
00000000
00000000
00000000
00000000
00000000
00010000
00000000
00000000
00000000
00000000
00000000
01000000
00000000
00000000
00000000
00000000
00000000
00000000
10000000
00000000
00000000
00000000
01000000
00000000
00000000
00000000
10000000
00000000
00000000
00000000
01000000
00000000
00000000
00000000
10000000
00000000
00000000
00000000
,
00000000
00010000
01000000
00010000
00100000
01000000
10000000
00000000
00000000
00000000
00000000
00000000
,
00000000
00000000
01000000
00000000
00000000
00010000
00000000
00000000
00001000
00000000
00000100
00000001
00000000
00000000
00000000
00000000
,
00000010
00000011
00000100
00001100
,
00000002
00000203
00002300
00023000
,
01030000
11000000
00100000
00110000
,
00010000
00000000
00100000
01000000
00000000
00000000
10000000
00000000
01000000
00100000
00000000
00000000
00000000
00000000
00000000
00000000
,
20000000
32000000
03020000
00032000
,
00003100
00000000
00000001
00000100
00000000
00000010
00000000
00001000
00000000
00000000
00000110
00000000
00000000
00000000
00000000
00000000
,
00010000
00000000
00001000
00010000
00000000
00001000
00000000
00100000
00000000
10010000
00000000
00000000
00000000
00000000
00000000
00000000
,
01000000
00000000
00010000
00001000
00000000
00010000
00000000
00000100
00001000
00000000
00000000
00000000
00000000
00000000
00000000
00000000
;

//--------------- dance-double - forcednature ----------------
#NOTES:
     dance-double:
     forcednature:
     Challenge:
     13:
     0,0,0,0,0:
00000000
00000000
00000000
00000000
,
00000000
00000000
00000000
00000000
,
00000000
00000000
00001000
00000000
00010000
00000000
00100000
00000000
01000000
00000000
00010000
00000000
20000000
00000000
00000000
00000000
00000000
00000000
00000000
00000000
00000000
30000000
00000000
00000000
,
00000000
00000000
00000000
00000000
00000000
00000000
00000000
01000000
00010000
00001000
00000010
00000100
,
00001000
00000002
00000000
00000000
00000003
00000000
00000000
00000000
,
00000100
00000000
00001000
00010000
00000000
01000000
00000000
00100000
00000000
00001000
00000000
00010000
00100000
01000000
00000000
00000000
,
00000000
00000000
00010000
00000000
10000000
00000000
01000000
00000000
00010000
00000000
00001000
00000000
00000020
00000000
00000000
00000000
00000000
00000000
00000000
00000000
00000000
00000030
00000000
00000000
,
00000000
00000000
00000000
00000000
00000000
00000000
00000000
00000100
00010000
00001000
00000100
00000001
,
00000010
00000000
00000100
00000000
00002000
00000000
00000000
00000000
00000000
00000000
00000000
00000000
00000000
00003000
00000000
00000000
00000000
00000000
00000000
00000000
00000000
00000000
00000000
00000000
,
00000010
00000000
00000010
00010000
00001000
01000000
00001000
00010000
00000000
01000000
00000000
00000000
,
00200000
00302000
00003020
00000032
,
00000103
00000000
00000000
00001001
00000000
00000000
00000220
00000000
00000000
00000000
00000000
00000000
00000330
00000000
00000000
00000000
,
00000001
00000000
00000100
00001000
00000000
00010000
00000000
01000000
00000000
10000000
00000000
00000000
00100000
00000000
01000000
00000000
,
01010000
00000000
00000000
10100000
00000000
00000000
00000000
00000000
00000000
00000000
10000000
00000000
01000000
00000000
00010000
00000000
,
00002000
00003020
00000230
00020300
,
00130000
00000000
00000000
01100000
00000000
00000000
10010000
00000000
00000000
00000000
00000000
00000000
11000000
00000000
00000000
00000000
,
00220000
00000000
00330000
00000000
00000000
00001000
00010000
00000010
,
00000100
00000000
00001000
00000100
00000000
00000001
00000000
00000010
00001000
00000000
00000000
00000000
00000000
00000000
00000000
00000000
,
00000000
00000000
00010000
00000000
01000000
00000000
00100000
00000000
00001000
00000000
00010000
00000000
00200000
00000000
00000000
00000000
00000000
00000000
00000000
00000000
00000000
00300000
00000000
00000000
,
00000000
00000000
00000000
00000000
00000000
00000000
00000000
10000000
01000000
00010000
00001000
00000010
,
00000100
00000000
00000000
00000000
00001000
00000000
00000000
00000000
00000002
00000000
00000000
00000000
00000000
00000000
00000000
00000000
00000000
00000000
00000000
00000000
00000000
00000000
00000000
00000000
00000000
00000000
00000003
00000000
00000000
00000000
00000200
00000000
00000000
00000000
00000000
00000000
00000000
00000000
00000000
00000000
00000000
00000000
00001300
00000000
00000000
00010000
00000000
00000000
,
00100000
00000000
00000000
01000000
00000000
00000000
00010000
00000000
20020000
00000000
00000000
00000000
00000000
00000000
30030000
00000000
,
00000000
00000000
10000000
00000000
01000000
00000000
00010000
00000000
00001000
00000000
00000100
00000000
00000002
00000000
00000000
00000000
00000000
00000000
00000000
00000000
00000000
00000003
00000000
00000000
,
00000000
00000000
00000000
00000010
00000000
00000000
00000010
00000000
00000000
00000100
00000000
00000000
00000100
00000000
00001000
00000000
00000001
00000000
00000100
00000000
00001000
00000000
00010000
00000000
,
01000000
00000000
00100000
00000000
00002000
00000000
00000000
00000000
00000000
00000000
00000000
00000000
00000000
00003000
00000000
00000000
00000000
00000000
00000000
00000000
00000000
00000000
00000000
00000000
,
00010100
00000000
00010000
00000010
00000000
00000000
01001000
00000000
00001000
00100000
00000000
00000000
01000000
10000000
01000000
00100000
,
00010000
00000000
00000000
00000000
00000000
00000000
00000000
00000000
00000000
02000000
00000000
00000000
00000000
00000000
00000000
00000000
00000000
00000000
00000000
00000000
00000000
00000000
00000000
00000000
00000000
00000000
00000000
03000000
00000000
00000000
00000000
00000000
00000000
00000000
00000000
00000000
00100000
00000000
00000000
00000000
10000000
00000000
00000000
00000000
00100000
00000000
00000000
00000000
,
00010000
00000000
00001000
00000000
00000010
00000000
00000100
00000000
00001000
00000000
00000001
00000000
00000200
00000000
00000000
00000000
00000000
00000000
00000000
00000000
00000000
00000300
00000000
00000000
,
00000000
00000010
00010000
00001000
00000010
00000100
00001000
00000001
00000100
00001000
00010000
00100000
,
02000000
03002000
00003020
00000230
,
00001300
00000001
00000100
00000010
00010000
00001000
00100000
00000000
01010000
00000000
10100000
00000000
,
10000000
01000000
00010000
00001000
00000020
00000000
00000031
00000100
00001000
00010000
00200000
00000000
,
10300000
01000000
00010000
01000000
00100000
00001000
00010000
00000010
00000100
00001000
00000100
00000001
,
00000010
00000000
00000000
00000110
00000000
00000000
00001000
00000000
00002002
00000000
00000000
00000000
00000000
00000000
00003003
00000000
,
00000000
00000001
00000100
00000010
00001000
00010000
02000000
00000000
00000000
03000000
00000000
00000000
,
00000000
00000000
01100000
00000000
00000000
10100000
00000000
00000000
00110000
00000000
10000000
00020000
00000000
00000000
00030000
00000000
,
00000000
10000000
01000000
00100000
00010000
00001000
00000200
00000000
00000000
00000300
00000000
00000000
,
00000110
00000000
00000000
00000000
00000000
00000000
00000000
00000000
00000001
00000000
00000000
00000000
00001000
00000000
00000000
00000000
00000000
00000000
00000000
00000000
00000101
00000000
00000000
00000000
00000000
00000000
00000000
00000000
00001010
00000000
00000000
00000000
00000000
00000000
00000000
00000000
00000001
00000000
00000000
00000000
00000000
00000000
00000100
00000000
00000000
00000000
00000000
00000000
00001000
00000000
00000000
00000000
00000000
00010000
00000000
00000000
00000000
00000000
00000000
01000000
00000000
00000000
00000000
00000000
,
00000000
00100000
00001000
00010000
00100000
10000000
00020000
00000000
00000000
00030000
00000000
00000000
,
00000000
00000000
01001000
00000000
00000000
00010100
00000000
00000000
00001001
00000000
00000100
00000010
00000000
00000000
00000000
00000000
,
00001001
00000001
00000100
00001000
00100000
01000000
00010000
00001000
,
00000200
00020300
02030000
03200000
,
10300000
01000000
00010000
00001000
00000010
00000100
00001000
00000001
,
00000110
00000000
00001000
00010000
00000000
00000000
01100000
00000000
00010000
00001000
00000000
00000000
00000000
00000000
00000000
00000000
,
01000000
00010000
00100000
01000000
00010000
00001000
00000100
00000010
,
00000110
00000000
00001000
00000001
00000000
00000101
00000000
00001010
00000000
00000000
00011000
00000000
00000000
00000000
00000000
00000000
,
01100000
00000000
10000000
00010000
00000000
11000000
00000000
00110000
00000000
00011000
00000000
00000000
00000000
00000000
00000000
00000000
,
00000110
00000000
00000000
00000000
00000000
00000000
00001000
00000000
00000000
00010000
00000000
00000000
00000000
00000000
00000000
01100000
00000000
00000000
00000000
00000000
00010000
00000000
00000000
00000000
00001000
00000000
00000000
00000000
00000000
00000000
00000000
00000000
00000000
00000000
00000000
00000000
00000000
00000000
00000000
00000000
00000000
00000000
00000000
00000000
00000000
00000000
00000000
00000000
;
