#TITLE:Zorba The Greek;
#SUBTITLE:;
#ARTIST:Big Idea;
#TITLETRANSLIT:;
#SUBTITLETRANSLIT:;
#ARTISTTRANSLIT:;
#GENRE:;
#CREDIT:;
#MUSIC:15. Zorba the Greek.mp3;
#BANNER:;
#BACKGROUND:;
#CDTITLE:;
#SAMPLESTART:7.347;
#SAMPLELENGTH:17.455;
#SELECTABLE:YES;
#OFFSET:1.380;
#BPMS:0.000=165.000;
#STOPS:;
#BGCHANGES:;
#FGCHANGES:;

//--------------- dance-single - UNI4 Step Team ----------------
#NOTES:
     dance-single:
     UNI4 Step Team:
     Beginner:
     1:
     0,0,0,0,0:
0000
0000
0000
0000
,
0000
0000
0000
0000
,
0000
0000
0000
0000
,
0000
0000
0000
0000
,
0000
0000
0000
0000
,
0000
0000
0000
0000
,
1000
0000
0000
0000
,
0000
0000
0000
0000
,
0001
0000
0000
0000
,
0000
0000
0000
0000
,
0100
0000
0000
0000
,
0000
0000
0000
0000
,
0010
0000
0000
0000
,
0000
0000
0000
0000
,
1000
0000
0000
0000
,
0000
0000
0000
0000
,
0000
0000
0000
0000
,
0000
0000
0000
0000
,
0001
0000
0000
0000
,
0000
0000
0000
0000
,
0010
0000
0000
0000
,
0000
0000
0000
0000
,
0100
0000
0000
0000
,
0000
0000
0000
0000
,
0000
0000
0000
0000
,
0000
0000
0000
0000
,
1001
0000
0000
0000
,
0000
0000
0000
0000
,
1000
0000
0000
0000
,
0000
0000
0000
0000
,
0000
0000
0000
0000
,
0000
0000
0000
0000
,
0001
0000
0000
0000
,
0000
0000
0000
0000
,
0100
0000
0000
0000
,
0000
0000
0000
0000
,
0000
0000
0000
0000
,
0000
0000
0000
0000
,
0010
0000
0000
0000
,
0000
0000
0000
0000
,
1000
0000
0000
0000
,
0000
0000
0000
0000
,
0001
0000
0000
0000
,
0000
0000
0000
0000
,
0000
0000
0000
0000
,
0000
0000
0000
0000
,
0000
0000
0000
0000
,
0000
0000
0000
0000
,
1100
0000
0000
0000
,
0000
0000
0000
0000
,
0101
0000
0000
0000
,
0000
0000
0000
0000
,
1010
0000
0000
0000
,
0000
0000
0000
0000
,
1010
0000
0000
0000
,
0000
0000
0000
0000
,
1010
0000
0000
0000
,
0000
0000
0000
0000
,
0001
0000
0000
0000
,
0000
0000
0000
0000
,
1000
0000
0000
0000
,
0000
0000
0000
0000
,
0101
0000
0000
0000
,
0000
0000
0000
0000
,
0101
0000
0000
0000
,
0000
0000
0000
0000
,
0101
0000
0000
0000
;

//--------------- dance-single - UNI4 Step Team ----------------
#NOTES:
     dance-single:
     UNI4 Step Team:
     Easy:
     5:
     0,0,0,0,0:
0000
0000
0000
0000
,
0000
0000
0000
0000
,
0000
0000
0000
0000
,
0000
0000
0000
0000
,
0000
0000
0000
0000
,
0000
0000
0000
0000
,
1000
0000
0001
0000
,
1000
0000
0001
0000
,
0100
0000
0010
0000
,
0100
0000
0010
0000
,
1000
0000
0001
0000
,
1000
0000
0001
0000
,
0010
0000
0100
0000
,
0010
0000
0100
0000
,
1000
0000
0100
0000
,
0001
0000
0100
0000
,
1000
0000
0010
0000
,
0001
0000
0010
0000
,
1000
0000
0100
0000
,
0010
0000
0001
0000
,
0100
0000
0010
0000
,
1000
0000
0001
0000
,
0010
0000
0100
0000
,
1000
0000
0001
0000
,
1001
0000
0110
0000
,
1001
0000
0110
0000
,
1000
1000
0100
0001
,
0100
0000
0010
0000
,
0001
0001
0100
1000
,
0100
0000
0010
0000
,
1000
1000
0010
0001
,
0010
0000
1000
0000
,
0001
0001
0010
1000
,
0010
0000
0001
0000
,
0100
0100
0010
1000
,
0001
0000
0010
0000
,
0100
0100
1000
0001
,
0010
0000
0100
0000
,
1000
1000
0010
0100
,
0001
0000
1000
0000
,
0001
0001
0100
0010
,
1000
0000
0001
0000
,
1000
1000
0100
0010
,
0001
0000
1000
0000
,
0110
0000
1001
0000
,
0110
0000
1001
0000
,
0011
0000
0000
0000
,
1010
0000
0000
0000
,
0001
1000
0001
0000
,
1000
0001
1000
0000
,
0010
0100
0010
0000
,
0100
0010
0100
0000
,
0001
0010
0100
1000
,
0010
0100
0001
0000
,
1000
0100
0010
0001
,
0100
0010
1000
0000
,
0001
1000
0001
0100
,
0010
1000
0100
0000
,
0100
0010
0001
0000
,
0100
0010
1000
0000
,
0001
0010
0100
0000
,
1000
0010
0100
0000
,
0001
0010
0100
1000
,
0010
0100
0001
0000
,
1000
0100
0010
0001
,
0100
0010
1000
0000
,
0001
0010
0100
1000
,
0010
0100
0001
1000
;

//--------------- dance-single - UNI4 Step Team ----------------
#NOTES:
     dance-single:
     UNI4 Step Team:
     Medium:
     8:
     0,0,0,0,0:
0000
0000
0000
0000
,
0000
0000
0000
0000
,
0000
0000
0000
0000
,
0000
0000
0000
0000
,
0000
0000
0000
0000
,
0000
0000
0000
0000
,
1000
0000
0001
0000
,
1000
0000
0001
0000
,
0100
0000
0010
0000
,
0100
0000
0010
0000
,
1000
0000
0001
0000
,
1000
0000
0001
0000
,
0100
0000
0010
0000
,
0100
0000
0010
0000
,
1000
0000
0001
0000
,
1000
0000
0001
0000
,
1000
0000
0001
0000
,
1000
0000
0001
0000
,
0100
0000
0010
0000
,
0100
0000
0010
0000
,
1000
0000
0001
0000
,
1000
0000
0001
0000
,
0100
0000
0010
0000
,
0100
0000
0010
0000
,
1000
0000
0100
0000
,
0010
0000
0001
0000
,
1000
0000
0001
0000
,
1000
0000
0001
0000
,
0100
0000
0010
0000
,
0100
0000
0010
0000
,
1000
0000
0001
0000
,
1000
0000
0001
0000
,
0100
0000
0010
0000
,
0100
0000
0010
0000
,
1000
0000
0001
0000
,
1000
0000
0001
0000
,
1000
0000
0001
0000
,
1000
0000
0001
0000
,
0100
0000
0010
0000
,
0100
0000
0010
0000
,
1000
0000
0001
0000
,
1000
0000
0001
0000
,
0100
0000
0010
0000
,
0100
0000
0010
0000
,
1000
0000
0100
0000
,
0010
0000
0001
0000
,
1001
0000
0000
0000
,
1001
0000
0000
0000
,
0000
0001
0001
0001
0001
0000
0000
0000
,
0000
1000
1000
1000
1000
0000
0000
0000
,
0000
0010
0010
0010
0010
0000
0000
0000
,
0000
0100
0100
0100
0100
0000
0000
0000
,
0000
0001
0000
1000
,
0000
0000
0010
0000
0100
0100
0100
0100
,
0000
0001
0000
1000
,
0000
0000
0100
0000
0010
0010
0010
0010
,
0000
0001
0000
1000
,
0000
0000
0010
0000
0100
0100
0100
0100
,
0000
0000
0001
0000
1000
1000
1000
1000
,
0000
0000
0001
0000
0100
0100
0100
0100
,
0000
0000
0001
0000
0010
0010
0010
0010
,
0000
0000
0001
0000
0100
0100
0100
0100
,
0000
0001
0000
1000
,
0000
0000
0100
0000
0010
0010
0010
0010
,
0000
0001
0000
1000
,
0000
0000
0010
0000
0100
0100
0100
0100
,
0000
0001
0000
1000
,
0000
0000
0010
0000
0100
0100
0100
0100
;

//--------------- dance-single - UNI4 Step Team ----------------
#NOTES:
     dance-single:
     UNI4 Step Team:
     Hard:
     10:
     0,0,0,0,0:
0000
0000
0000
0000
,
0000
0000
0000
0000
,
0000
0000
0000
0000
,
0000
0000
0000
0000
,
0000
0000
0000
0000
,
0000
0000
0000
0000
,
1000
0000
1010
0000
,
0100
0000
0101
0000
,
1000
0000
1010
0000
,
0100
0000
0101
0000
,
0001
0000
0011
0000
,
0100
0000
1100
0000
,
0001
0000
0011
0000
,
0100
0000
1100
0000
,
1000
0000
1001
0000
,
0100
0000
0110
0000
,
1000
0000
1001
0000
,
0100
0000
0110
0000
,
0001
0000
1001
0000
,
0010
0000
0110
0000
,
1000
0000
1001
0000
,
0100
0000
0110
0000
,
0001
0000
1001
0000
,
0010
0000
0110
0000
,
1100
0000
1010
0000
,
0101
0000
0011
0000
,
1001
1001
0101
0010
,
1001
1001
0101
0010
,
1001
1001
1100
0010
,
1001
1001
1100
0010
,
0101
0101
0010
1000
,
0101
0101
0010
1000
,
1100
1100
0010
0001
,
1100
1100
0010
0001
,
1001
1001
0110
1000
,
1001
1001
0110
1000
,
1001
1001
0110
0001
,
1001
1001
0110
0001
,
1100
1100
0010
0001
,
1010
1010
0100
0001
,
1001
1001
0110
0001
,
1001
1001
0110
0001
,
1001
1001
0110
1000
,
1001
1001
0110
1000
,
0001
0010
0100
1000
,
0001
0010
0100
1000
,
1001
0000
0000
0000
,
1001
0000
0000
0000
,
0001
0001
0001
0001
0001
0000
0000
0000
,
1000
1000
1000
1000
1000
0000
0000
0000
,
0010
0010
0010
0010
0010
0000
0000
0000
,
0100
0100
0100
0100
0100
0000
0000
0000
,
0001
1000
0001
0100
,
0010
0000
1000
0000
0001
0001
0001
0001
,
0000
0010
0100
1000
,
0010
0000
0100
0000
0001
0001
0001
0001
,
0000
1000
0010
0100
,
0001
0000
1000
0000
0100
0100
0100
0100
,
0000
0000
0010
0000
0001
0001
0001
0001
,
0000
0000
0100
0000
0010
0010
0010
0010
,
0000
0000
1000
0000
0100
0100
0100
0100
,
0000
0000
1000
0000
0010
0010
0010
0010
,
0000
0100
0001
1000
,
0100
0000
0010
0000
0001
0001
0001
0001
,
0000
1000
0001
0100
,
0010
0000
1000
0000
0100
0100
0100
0100
,
0000
1000
0010
0100
,
0010
0000
1000
0000
0010
0010
0010
0010
;

//--------------- dance-single - UNI4 Step Team ----------------
#NOTES:
     dance-single:
     UNI4 Step Team:
     Challenge:
     16:
     0,0,0,0,0:
0000
0000
0000
0000
,
0000
0000
0000
0000
,
0000
0000
0000
0000
,
0000
0000
0000
0000
,
0000
0000
0000
0000
,
0000
0000
0000
0000
,
2000
3000
0100
0100
0002
0103
0010
0000
,
2000
0000
3000
0000
0010
0000
0010
0000
0002
1000
0003
0000
0001
0000
1000
0000
,
0200
0300
1000
0000
0020
0130
0001
0000
,
0200
0000
0000
0000
0000
0000
0000
0000
0000
0000
0000
0000
0300
0000
0000
0000
0000
0000
0000
0000
0000
0000
0000
0000
0000
0000
0000
0000
0000
0000
0000
0000
0000
0000
0000
0000
1000
0000
0000
0000
0000
0000
0100
0000
0000
0000
0000
0000
0020
0000
0000
0000
0000
0000
0000
0000
0000
0000
0000
0000
0030
0000
0000
0000
0000
1000
0000
0000
0000
0000
0000
0000
0010
0000
0000
0000
0000
0000
0000
0000
0000
0000
0000
0000
0100
0000
0000
0000
0000
0000
0000
0000
0000
0000
0000
0000
,
2000
3100
0000
0000
0002
1003
0010
0000
,
2000
0000
3000
0000
0010
0000
0010
0000
0002
0010
0003
0000
1000
0000
0010
0000
,
0200
0300
0000
0000
0020
1030
1010
0000
,
1200
0000
0300
0000
0000
0000
1000
0001
0020
0000
0030
0000
0001
0000
0100
0000
,
2000
3000
0100
0100
0002
0013
0100
0000
,
2000
0000
3000
0000
0100
0000
0100
0000
0002
1000
0003
0000
0010
0000
0001
0000
,
2000
0000
0000
0000
3010
0000
0000
0000
0000
0000
0000
0000
0000
0000
0000
0100
0002
0000
0000
0000
1003
0000
0000
0000
0010
0000
0000
0000
0000
0000
0000
0000
,
2000
0000
3000
0000
0000
0000
0100
0010
0002
0000
0003
0000
1000
0000
0001
0000
,
0200
0300
0001
0001
0020
0130
0010
0000
,
0200
0000
0300
0000
1000
0000
1000
0000
0020
0001
0030
0000
0010
0000
1000
0000
,
2000
0000
0000
0000
0000
0100
0000
0000
3000
0000
0000
0000
0000
0000
0000
0000
0000
0000
0000
0000
0000
0000
0000
0000
0000
0000
0000
0000
0000
0000
0010
0000
0002
0000
0000
0000
0000
0000
0000
0000
1003
0000
0000
0000
0000
0000
0000
0000
0010
0000
0000
0000
0000
0000
0000
0000
0000
0000
0000
0000
0000
0000
0000
0000
,
2000
0000
0000
0000
0000
0000
3000
0000
0000
0000
0000
0000
0000
0000
0000
0000
0000
0000
0001
0000
0000
1000
0000
0000
0002
0000
0000
0000
0000
0000
0003
0100
0000
0000
0000
0000
0010
0000
0000
0000
0000
1000
0000
0000
0000
0000
0000
0000
,
0200
0000
0000
0000
0000
0010
0300
0000
0000
0000
0000
0000
0001
0000
0000
0000
0000
0000
0001
0000
0000
0000
0000
0000
0020
0000
0000
0000
0000
0000
0130
0000
0000
0000
0000
0000
0010
0000
0000
0000
0000
0000
0000
0000
0000
0000
0000
0000
,
0200
0000
1300
0000
0100
0000
0100
0000
0020
0001
0030
0000
1001
0000
0000
0000
,
0201
0300
0000
0000
1020
0030
0000
0000
,
1200
0300
0000
0000
0021
0030
0000
0001
,
2000
0000
3000
0000
0100
0010
0100
0000
0002
0000
0103
0000
0100
0000
0010
0000
,
2000
3010
0001
0100
0002
1003
0010
0000
,
0200
0000
0300
0000
0001
1000
0001
0000
0020
0000
1030
0000
0010
0000
0001
0000
,
0200
0000
0000
0000
0310
0000
0000
0000
0010
0000
0000
0000
1000
0000
0000
0000
0020
0000
0000
0000
0030
0100
0001
0000
1000
0000
0000
0000
0000
0010
0000
0000
,
2000
0000
3100
0000
0010
0100
0010
0000
0002
0000
1003
0000
0001
0000
0001
0000
,
2000
3100
0100
1000
0002
0003
1001
0001
,
0200
0000
0300
0000
0010
0100
0001
0000
0020
0000
0130
0000
1000
0000
0001
0000
,
0200
0301
0001
1000
0020
0030
0101
0001
,
2000
0000
3010
0000
1000
0010
1000
0000
0002
0000
0103
0000
0001
0010
0001
0000
,
2000
3100
0001
0100
0002
1003
0010
0001
,
2000
0000
3001
0000
0100
0001
0100
0000
0002
0000
0013
0000
0100
0010
0100
0000
,
2000
3010
0001
0010
0002
1003
0100
0010
,
0200
0000
0300
0000
0001
1000
0001
0000
0020
0000
0130
0000
1000
0100
0010
0000
,
0200
0000
0000
0000
0000
0000
1300
0000
0000
0000
0000
0000
0010
0000
0000
0100
0000
0000
0010
0000
0000
0000
0000
0000
0020
0000
0000
0000
0000
0000
0030
1000
0000
0000
0000
0000
0100
0000
0000
0000
0000
0010
0000
0000
0000
0000
0000
0000
,
2000
0000
0000
0000
0000
0010
3000
0000
0000
0000
0000
0000
0100
0000
0000
0000
0000
0000
0100
0000
0000
0000
0000
0000
0002
0000
0000
0000
0000
0000
0103
0000
0000
0000
0000
0000
0010
0000
0000
0000
0000
0000
0001
0000
0000
0000
0000
0000
,
2000
0000
0000
0000
3000
0000
0000
0000
0010
0000
0000
0000
0100
0000
0000
0100
0002
0000
0000
0000
1003
0000
0000
0000
0010
0000
0000
0000
1000
0000
0000
0000
,
0200
0000
0000
0000
0010
0000
0300
0000
0001
0000
0000
0000
1000
0000
0000
0000
0000
0000
1000
0000
0000
0000
0000
0000
0020
0000
0000
0000
0000
0000
0130
0000
0000
0000
0000
0000
0001
0000
0000
1000
0000
0000
0010
0000
0000
0000
0000
0000
,
0200
0301
1000
0100
0020
0030
1001
0000
,
0201
0300
1000
0000
1020
0030
0001
0000
,
0201
0300
1000
0000
1020
0030
0001
0000
,
1000
0000
0010
0100
0010
0000
1000
0001
1000
0000
0100
0000
0010
0000
0000
0000
,
0001
0000
0010
0001
0010
0000
0100
0010
0100
0000
1000
0000
0010
0000
1000
0000
,
0001
0000
0101
0000
0101
0000
0101
0000
0001
0100
0010
0100
0001
0100
0010
0000
,
0000
0000
1010
0000
1010
0000
1010
0000
1000
0010
0100
0010
1000
0010
0100
0000
,
0000
0000
1001
0000
1001
0000
1001
0000
1000
0001
0100
0010
1000
0001
0100
0000
,
0000
0000
0110
0000
0110
0000
0110
0000
0010
0100
0001
1000
0010
0100
0001
0000
,
0000
1000
0000
1000
0020
0000
0230
0000
,
0301
0000
1000
0000
0000
0000
0001
0000
0010
0100
1000
0100
0010
0100
1000
0000
,
0000
0001
1000
0010
0200
0000
0302
0000
,
1003
0000
0100
0000
0010
0000
0001
0000
0100
0001
0010
0001
0100
0001
0010
0000
,
0000
0100
1000
0010
2000
0000
3200
0000
,
0310
0000
0001
0000
1000
0000
0010
0000
1000
0100
0010
0001
1000
0100
0010
0000
,
0000
0000
0101
0000
0101
0000
0101
0000
0100
0010
0100
0001
0100
0010
0100
0000
,
0000
0000
1010
0000
1010
0000
1010
0000
0010
0100
0010
1000
0010
0100
0010
0000
,
0000
0000
1001
0000
0110
0000
1001
0000
1000
0100
0001
0100
1000
0100
0010
0000
,
0000
0000
1001
0000
0110
0000
1001
0000
0001
0100
1000
0100
0001
0100
0010
0000
,
0000
1000
0010
0100
0002
0000
2003
0000
,
3100
0000
0010
0000
0001
0000
1000
0000
0001
0100
1000
0100
0001
0100
1000
0000
,
0000
0100
0010
1000
0002
0000
0023
0000
,
0130
0000
1000
0000
0100
0000
0010
0000
0001
0010
1000
0010
0001
0010
1000
0000
,
0000
0010
0100
1000
0020
0000
0230
0000
,
0301
0000
1000
0000
0001
0000
0100
0000
0010
1000
0100
0010
0001
0100
0010
0000
;
