#TITLE:You Were The One;
#SUBTITLE:;
#ARTIST:good-cool ft. Brenda Vaughn;
#TITLETRANSLIT:;
#SUBTITLETRANSLIT:;
#ARTISTTRANSLIT:;
#GENRE:;
#CREDIT:;
#MUSIC:You Were The One.mp3;
#BANNER:;
#BACKGROUND:;
#CDTITLE:;
#SAMPLESTART:62.558;
#SAMPLELENGTH:15.370;
#SELECTABLE:YES;
#OFFSET:-1.128;
#BPMS:0.000=125.000;
#STOPS:;
#BGCHANGES:;
#FGCHANGES:;

//--------------- dance-single - eataninja ----------------
#NOTES:
     dance-single:
     eataninja:
     Beginner:
     2:
     0,0,0,0,0:
0000
0000
0000
0000
,
0000
0000
0000
0000
,
0000
0000
0000
0000
,
0000
0000
0000
0000
,
1000
0000
0010
0000
,
0100
0000
0000
0000
,
0100
0000
0001
0000
,
0010
0000
0000
0000
,
0001
0000
0010
0000
,
0100
0000
0000
0000
,
0100
0000
1000
0000
,
0010
0000
0000
0000
,
0100
0100
0100
0000
,
0100
0100
0100
0000
,
0100
0100
0100
0000
,
0001
0000
0001
0000
,
1001
0000
0000
0000
,
0010
0000
1000
0000
,
0001
0000
0010
0000
,
0100
0100
0100
0000
,
1001
0000
0000
0000
,
0100
0000
0001
0000
,
1000
0000
0100
0000
,
0010
0010
0010
0000
,
0002
0000
0003
0000
,
2000
0000
3000
0000
,
0010
0000
0100
0000
,
0100
0000
0000
0000
,
0002
0000
0003
0000
,
2000
0000
3000
0000
,
0001
0000
0010
0000
,
0110
0000
0000
0000
,
0100
0100
0100
0000
,
1000
0000
1001
0000
,
0100
0100
0100
0000
,
0001
0000
1001
0000
,
0020
0000
0030
0000
,
0200
0000
0300
0000
,
1000
0000
0001
0000
,
1000
0000
1000
0000
,
0010
0000
0001
0000
,
0010
0000
1000
0000
,
0100
0100
0100
0000
,
0000
0000
0000
0000
,
0001
0001
0001
0000
,
0000
0000
0000
0000
,
0010
0010
0010
0000
,
0000
0000
0000
0000
,
1000
1000
1000
0000
,
1001
0000
0000
0000
,
0001
0000
0010
0000
,
0100
0000
0100
0000
,
1000
0000
0010
0000
,
0100
0000
0100
0000
,
0001
0000
1000
0000
,
0010
0000
0010
0000
,
1000
0000
0001
0000
,
0010
0000
0010
0000
,
0100
0100
0100
0000
,
0100
0100
0100
0000
,
1001
0000
0000
0000
;

//--------------- dance-single - eataninja ----------------
#NOTES:
     dance-single:
     eataninja:
     Easy:
     5:
     0,0,0,0,0:
0000
0000
0000
0000
,
0000
0000
0000
0000
,
0000
0000
0000
0000
,
0000
0000
0000
0000
,
1000
0010
0200
0310
,
1000
0001
0001
0000
,
0001
0010
0200
0310
,
1000
0010
0001
0000
,
0001
0100
0020
0130
,
0001
1000
1000
0000
,
1000
0100
0020
0130
,
0001
0100
1000
0000
,
0010
0010
0010
1000
,
0100
0100
0100
1000
,
0010
0010
0010
1000
,
0001
0001
1000
1000
,
0110
0010
1000
0000
,
0100
0010
0001
0000
,
1000
1000
0001
0001
,
0100
1000
0100
0010
,
0110
0100
0001
0000
,
0010
0100
1000
0000
,
0001
0001
1000
0010
,
0001
0010
1000
0000
,
0002
0010
0013
0000
,
2000
0100
3100
0000
,
0001
1000
0001
0100
,
0010
1000
0100
0010
,
0002
0100
0103
0000
,
2000
0010
3010
0000
,
0100
0001
0010
0000
,
0100
0010
0000
0010
0000
0010
0000
0000
,
0001
0001
1000
1000
,
0010
0100
0001
0000
,
1000
1000
0001
0001
,
0010
0100
1000
0000
,
0001
0100
1000
1000
,
0100
0001
0010
0000
,
0110
1000
0001
0000
,
1001
0010
0100
0000
,
0100
0001
0010
1000
,
0010
0001
0100
0100
,
0010
1000
1001
0000
,
0020
0130
1000
0000
,
1000
1000
1001
0000
,
0200
0310
0100
0000
,
0100
0001
1001
0010
,
0200
1300
0001
0000
,
0001
0001
1001
0010
,
0200
2300
3002
0203
,
0310
0010
1001
1000
,
0001
0010
0100
1000
,
0010
0010
1001
0001
,
1000
0100
0010
0001
,
1000
1000
0110
0001
,
0100
0010
1000
1000
,
0001
0001
0110
1000
,
0001
0100
1000
0100
,
0001
0001
0001
1000
,
0001
0001
0001
1000
,
1100
0000
0000
0000
;

//--------------- dance-single - eataninja ----------------
#NOTES:
     dance-single:
     eataninja:
     Medium:
     9:
     0,0,0,0,0:
0000
0000
0000
0000
,
0000
0000
0000
0000
,
0000
0000
0000
0000
,
0000
0000
0000
0000
,
1000
0100
0001
0000
0200
0000
0310
0000
,
0001
1000
0001
1000
0010
0000
0000
0000
,
1000
0010
0001
0000
0020
0000
0130
0000
,
0001
0010
0100
1000
0001
0000
0000
0000
,
0001
0100
1000
0000
0200
0000
0310
0000
,
1000
0001
1000
0001
0010
0000
0000
0000
,
0001
0010
1000
0000
0020
0000
0130
0000
,
1000
1000
0001
0000
0001
0001
0100
0000
,
0010
0000
0000
0000
0010
0000
0000
0000
0010
1000
0000
0000
1001
0000
0000
0000
,
0010
0000
0000
0000
0010
0000
0000
0000
0010
0001
0000
0000
1001
0000
0000
0000
,
0010
0000
0000
0000
0010
0000
0000
0000
0010
1000
0000
0000
1001
0000
0000
0000
,
0010
0010
0100
0000
1000
1000
0001
0000
,
2000
0000
3010
0000
0001
0010
1000
0000
,
0002
0000
0013
0000
0100
0010
0001
0000
,
2000
0000
3020
0000
0130
0001
1000
0000
,
0100
0001
0100
1000
0010
0100
0001
0000
,
0002
0000
0103
0000
1000
0100
0001
0000
,
2000
0000
3100
0000
0010
0100
1000
0000
,
0002
0000
2003
0000
3010
0100
0001
0000
,
1000
0000
0100
0000
0010
0000
0000
0010
0001
0000
0000
0000
0000
0000
0000
0000
,
2000
0000
3010
0000
0010
0100
0001
0000
,
0002
0000
0013
0000
0010
0100
1000
0000
,
0001
0000
0000
1000
0000
0000
0010
0000
0000
0000
0110
0000
0000
0000
0101
0000
,
0000
1000
0001
0000
0010
0100
1000
0000
,
0002
0000
0103
0000
0100
0010
1000
0000
,
2000
0000
3100
0000
0100
0010
0001
0000
,
1000
0000
0000
0001
0000
0000
0100
0000
0000
0000
0010
0000
0010
0000
1000
0000
,
0001
1001
0000
0110
0000
1001
0000
0000
,
1000
0100
1000
0100
1000
0100
0000
0010
,
0001
0100
0000
0120
0000
1000
1030
0000
,
0001
0100
0001
0100
0001
0100
0000
0010
,
1000
0001
0000
0011
0000
2100
0000
0000
,
3001
0000
0000
0100
0000
0000
0010
0000
0000
0000
1000
0000
1000
0000
0000
0000
,
1000
0000
0000
0100
0000
0000
0010
0000
0000
0000
0001
0000
0001
0000
0000
0000
,
1000
0000
0010
0000
0001
0010
1000
0000
,
0100
0010
1001
0000
,
0001
0000
0000
0100
0000
0000
0010
0000
1000
0000
0000
0001
0000
0000
1000
0000
,
0100
0000
0000
0010
0000
0000
0001
0000
0000
0000
2001
0000
0000
0000
0000
0000
,
3010
0000
0100
0000
0001
0000
0000
1001
0000
0000
0000
0000
0000
0000
0000
0000
,
0001
0000
0001
0000
0010
0100
1000
0000
,
0010
0000
0100
0000
0001
0000
0000
0101
0000
0000
0000
0000
0000
0000
0000
0000
,
0200
0000
1300
0000
1000
0100
0001
0000
,
1000
0000
0100
0000
0010
0000
0000
0011
0000
0000
0000
0000
1000
0000
0000
0000
,
0001
0100
0001
0000
0100
1000
0100
0000
,
0010
0000
1000
0000
0001
0000
0000
1001
0000
0000
0000
0000
0010
0000
0000
0000
,
0100
1000
0001
0000
2000
0010
3010
0000
,
0100
0010
0100
0010
1000
1000
0001
0000
,
0100
0000
1000
0000
0010
0001
0001
0000
,
0001
0010
0001
0010
0100
0100
1000
0000
,
0001
0100
1000
0000
1000
0100
0001
0000
,
1000
1000
0001
0001
0010
0100
1000
0000
,
0010
0000
0100
0000
1000
0010
0001
0000
,
1000
1000
0010
0010
0100
0001
1000
0000
,
0001
0010
0100
0100
1000
0001
0100
0100
,
0010
0000
0000
0000
1000
0000
0000
0000
0001
0010
0000
0000
1001
0000
0000
0000
,
0100
0000
0000
0000
1000
0000
0000
0000
0001
0100
0000
0000
1001
0000
0000
0000
,
1100
0000
0000
0000
;

//--------------- dance-single - eataninja vs KONAMI ----------------
#NOTES:
     dance-single:
     eataninja vs KONAMI:
     Hard:
     11:
     0,0,0,0,0:
0000
0000
0000
0000
,
0000
0000
0000
0000
,
0000
0000
0000
0000
,
0000
0000
0000
0000
,
0010
0000
0001
0000
0100
0000
0001
0000
1000
0100
1000
0000
0100
0000
0000
0000
,
0010
0000
1000
0000
0100
0000
1000
0000
0001
0100
0001
0000
0100
0000
0000
0000
,
1000
0000
0001
0000
1000
0000
0100
0000
0010
0100
0010
0000
0100
0000
0000
0000
,
0001
0000
1000
0000
0001
0000
0100
0000
0010
0100
0010
0000
0100
0000
0000
0000
,
1000
0000
0100
1000
0100
0000
0010
0000
0001
0000
1000
0000
0001
0000
0100
0000
,
0010
0000
1000
0010
1000
0000
0001
0000
0010
0000
0001
0000
1000
0000
0100
0000
,
0010
0001
0010
0001
0100
0001
0010
0000
,
0001
0001
1001
0000
1000
1000
1001
0000
,
0010
0000
1000
0000
0100
0000
0010
0100
0000
0000
1000
0000
0010
0000
0100
0000
,
0001
0000
0010
0000
0001
0000
0100
0010
0000
0000
0100
0000
0001
0000
0000
0000
,
1000
0000
0100
0000
0010
0000
0001
1000
0000
0000
0010
0000
0100
0000
0010
0000
,
1000
0000
0001
0000
0110
0000
1000
0001
,
1000
0010
1000
0001
1000
0010
1000
0100
,
1000
0100
0010
0001
0100
0010
1000
0100
,
1000
0001
0001
0001
0100
0010
0100
0001
,
1000
0001
0001
0001
0100
0010
0100
0001
,
0001
1000
0100
0001
0100
0100
0010
0001
,
1000
0001
0100
1000
0100
0100
0010
1000
,
0001
0010
0100
1000
0010
0100
0001
1000
,
0001
0100
1000
0010
1000
0100
0001
0010
,
0100
0000
1000
0100
1000
0100
0010
0000
,
0001
0000
0100
0001
0100
0001
0010
0000
,
0010
0001
1000
0000
0100
0001
0010
0000
,
0000
0000
1000
0000
0001
0000
0000
0000
1000
0000
0000
0100
0000
0000
0010
0000
,
1000
0000
0000
0000
0001
0100
0001
0000
1000
0000
1000
0000
1000
0000
0000
0000
,
0010
0000
0100
0000
0001
1000
0000
0001
1000
0000
0010
0000
0100
0000
0100
0000
,
0001
0000
0001
0000
0001
1000
0000
0010
1000
0000
0000
0000
0001
0000
0001
0000
,
0000
0100
0000
0010
0000
1000
0000
0010
,
0010
0001
0010
0001
0010
0001
0010
0001
,
0010
1000
0010
1000
0010
1000
0010
1000
,
0100
1000
0100
1000
0100
1000
0100
1000
,
0100
0010
0100
0010
0100
0010
0100
0010
,
0010
0100
0110
0010
0001
0100
1000
0100
,
0001
0000
0000
0010
0000
0000
1000
0000
0010
0000
0001
0000
1000
0000
0000
0000
,
0010
0001
0101
0100
0010
1000
0100
0001
,
0100
0000
0000
1000
0000
0000
0100
0000
0001
0000
0100
0000
1000
0000
0000
0000
,
1000
0010
1000
0001
1000
0100
1000
0001
,
0100
0001
0100
0010
0100
1000
0100
0010
,
0000
0001
0100
0001
1000
1000
0100
1000
,
0000
0010
0100
0010
1000
1000
0100
0010
,
0000
0001
0100
1000
0100
0100
0001
0010
,
0000
0100
0001
0100
0010
0100
1000
0000
,
0010
0000
1000
0001
0000
0100
0000
0001
0000
1000
0000
0010
0100
0000
0001
0000
,
0010
0000
0001
1000
0000
0100
0000
0010
0000
0001
0000
0100
0010
0000
1000
0000
,
0010
0000
1000
0001
0000
0100
0000
0010
0000
0100
0000
0001
0100
0000
0010
0000
,
1000
0000
0001
0010
0000
0100
0000
0010
0000
0001
0000
1000
0000
0001
0100
0000
,
0001
0000
0000
0000
1000
0000
0000
0001
1000
0000
0001
0000
0100
0000
0000
0000
,
0010
0000
0000
0000
1000
0000
0000
0001
1000
0000
0001
0000
0100
0000
0000
0000
,
0010
1000
1001
0000
1001
0100
0101
0010
,
0000
0000
1000
0000
1100
0000
0000
1000
0001
0000
0100
0000
0001
0000
0000
0000
,
1000
0000
0001
0000
0010
0000
1000
0000
0010
0000
0001
0100
0001
0000
0010
0000
,
0001
0000
1000
0000
0010
0000
0001
0000
0010
0000
1000
0100
1000
0000
0001
0100
,
0001
0000
1000
0000
0010
0000
0100
0000
0010
0000
1000
0001
1000
0000
0100
0000
,
0010
0001
0101
0000
1010
0000
1100
0000
,
0100
0010
1000
0000
0001
0100
0001
0000
,
0010
0100
0001
0100
1000
0010
0100
0000
,
2002
0000
0000
3003
;

//--------------- dance-single - eataninja ----------------
#NOTES:
     dance-single:
     eataninja:
     Challenge:
     12:
     0,0,0,0,0:
0000
0000
0000
0000
,
0000
0000
0000
0000
,
0000
0000
0000
0000
,
0000
0000
0000
0000
,
1000
0000
0100
0000
0010
0000
0001
0000
0200
0000
0000
0310
0000
0000
0100
0000
,
0001
0000
1000
0000
0001
0000
0000
0000
0010
0100
0010
0000
0001
0000
0000
0000
,
0001
0000
0100
0000
0010
0000
1000
0000
0200
0000
0000
0310
0000
0000
0100
0000
,
1000
1000
1001
0000
0001
0100
0101
0000
,
1000
0000
0001
0000
0010
0000
0100
0000
2000
0000
0000
3001
0000
0000
1000
0000
,
0010
0000
0100
0000
0001
0000
0000
0000
1000
0010
1000
0000
0001
0000
0000
0000
,
0001
0000
1000
0000
0100
0000
0010
0000
0002
0000
0000
1003
0000
0000
0001
0000
,
1000
0000
0010
0000
0100
0010
0000
0100
0001
0000
0001
0000
1000
0000
0100
0000
,
1100
0000
0000
0000
1100
0000
0000
1100
0000
0000
0001
0000
0000
1000
0000
0000
,
0101
0000
0000
0000
0101
0000
0000
0101
0000
0000
1000
0000
0000
0001
0000
0000
,
0011
0000
0000
0000
0011
0000
0000
0011
0000
0000
1000
0000
0000
0001
0000
0000
,
1010
0000
0000
0000
1010
0000
0000
1010
0000
0000
0001
0000
0000
1000
0000
0000
,
0010
0100
0001
0000
0001
0010
0100
2000
,
0000
0000
3001
0000
0000
0000
0100
0000
0010
0100
0010
0000
1000
0000
0001
0000
,
1000
0000
0100
0000
0010
0000
0000
0010
0001
0000
0100
0000
0000
0000
0110
0000
,
0000
0000
1000
0000
1002
0000
0000
1003
0010
0000
0100
0000
1000
0000
0100
0000
,
0001
0000
1000
0000
0100
0000
0000
0100
0010
0000
0001
0000
1000
0000
0010
0000
,
0000
0000
0110
0000
0000
0000
0100
0000
0001
1000
0001
0000
0010
0000
0100
0000
,
1000
0001
0100
0000
0010
0100
0010
2000
,
0000
0000
3001
0000
0011
0000
0000
0010
1000
0000
0010
0000
0001
0000
0000
0000
,
1000
0000
0010
0000
1000
0000
0010
0000
0100
0010
0100
0000
0001
0000
1000
0000
,
0001
0000
0010
0000
0001
0000
0010
0000
0100
0010
0100
0000
1000
0000
0001
0000
,
0100
0000
0000
0010
0000
0000
1000
0000
0001
0010
0001
0000
1000
0000
0001
0000
,
0000
0000
0020
0000
0000
2030
0000
0000
3002
0000
0000
0203
0000
0000
1300
0000
,
0001
0000
0100
0000
0001
0000
0100
0000
0010
0100
0010
0000
1000
0000
0001
0000
,
1000
0000
0100
0000
1000
0000
0100
0000
0010
0100
0010
0000
0001
0000
1000
0000
,
0010
0000
0000
0110
0000
0000
0102
0000
0000
0000
1003
0000
1000
0000
0001
0010
,
0100
1001
0000
0110
0000
1001
0000
0001
,
0100
1000
0100
0001
0100
1000
0100
0010
,
1000
0100
0000
0120
0000
0001
0031
0000
,
0010
1000
0010
0001
0010
1000
0010
0100
,
1000
0010
0000
0210
0000
0001
0301
0000
,
0010
0000
0000
0100
0000
0000
2000
0000
0000
0000
0001
0000
3001
0000
0000
0000
,
0100
0000
0000
0010
0000
0000
0200
0000
0000
0000
0001
0000
0301
0000
0000
0000
,
0010
0000
0000
0100
0000
0000
1000
0001
1000
0000
0000
0010
0000
0000
0100
0010
,
1000
0000
0000
0001
0000
0000
0100
0000
1000
0000
0100
0000
0001
0000
0000
0000
,
1000
0000
0000
1010
0000
0000
0010
0100
0001
0000
0000
1001
0000
0000
1000
0100
,
0010
0000
0000
0001
0000
0000
1001
0000
0000
0000
0201
0000
0000
0000
0000
0000
,
0310
0000
0100
0000
0001
0000
1000
0100
0000
0000
0010
0000
0011
0000
0000
0000
,
1000
0000
0000
0000
1000
0000
0000
1000
0000
0000
0010
0000
0000
0010
0000
0000
,
0100
0000
1000
0000
0100
0000
0001
1000
0000
0000
0100
0000
1100
0000
0000
0000
,
0001
0000
0000
1000
0000
0000
0001
0000
0000
0000
0100
0010
0100
0010
0100
0000
,
0001
0000
1000
0000
0100
0000
0010
0001
0000
0010
0001
0000
1000
0000
0010
0000
,
0100
0000
0000
0010
0000
0000
1000
0000
0000
0000
0001
0000
0001
0000
0000
0000
,
0010
0000
0100
0000
1000
0000
0001
0100
0000
0001
0100
0000
0010
0000
1000
0000
,
0001
0010
0000
0010
0100
0000
1000
0001
0000
0001
0100
0000
0010
0000
1000
0000
,
0001
0000
0100
0000
1000
0000
0100
0010
0000
0100
0001
0000
1000
0000
0001
0000
,
0010
0000
0100
0000
1100
0000
0000
0000
0001
1000
0001
0000
0100
0000
0000
0000
,
0001
0000
0100
0000
0010
0000
1000
0100
0000
1000
0001
0000
0010
0000
0100
0000
,
1000
0000
0001
0000
0101
0000
0000
0000
0100
0010
1000
0000
0001
0000
0000
0000
,
1000
0000
0100
0000
0001
0000
0100
0010
0000
0100
1000
0000
0001
0000
1000
0000
,
0010
0000
0100
0000
0101
0000
0000
0000
1000
0001
1000
0000
0100
0000
0000
0000
,
1000
0000
0100
0000
0010
0000
0001
0100
0000
0001
1000
0000
0010
0000
0100
0000
,
0001
0000
0001
0000
1000
0100
0000
0001
0000
0100
1000
0000
0001
0000
1000
0000
,
0010
0000
0100
0000
0101
0000
0000
0000
0001
0000
0000
1000
0000
0000
0001
0000
,
0010
0000
0100
0010
0100
0000
0001
0000
0100
1000
0100
0000
1000
0001
1000
0001
,
0100
0000
0000
0000
;

//--------------- dance-double - forcednature vs 5thMIX ----------------
#NOTES:
     dance-double:
     forcednature vs 5thMIX:
     Easy:
     6:
     0,0,0,0,0:
00000000
00000000
00000000
00000000
,
00000000
00000000
00000000
00000000
,
00000000
00000000
00000000
00000000
,
00000000
00000000
00000000
00011000
,
01000000
01000000
00010000
00000000
,
10000000
01000000
00100000
00000000
,
00001000
00001000
00010000
00000000
,
00000010
00000010
00000010
00000100
,
00001001
00000001
00000010
00000000
,
00000100
00001000
00000100
00000000
,
00010000
00010000
00001000
00000000
,
01000000
00010000
01000000
00000000
,
10010000
00000000
10000000
00000000
,
01000000
00100000
01000000
00000000
,
00010000
00000000
00001000
00000000
,
00000100
00000100
00000100
00000110
,
00001001
00000001
00000010
00000000
,
00000100
00010000
00001000
00100000
,
00010000
10000000
00010000
00000000
,
01000000
00001000
00010000
00000000
,
00011000
00000000
00000100
00001000
,
00000100
00000010
00000001
00000000
,
00001000
00000010
00010000
00000000
,
00001000
00001000
00010000
00010000
,
00011000
00000000
01000000
00010000
,
00100000
01000000
10000000
00000000
,
00100000
00000000
01000000
00001000
,
00010000
00001000
00000010
00000000
,
00000110
00000000
00000100
00001000
,
00000001
00000100
00000010
00000000
,
00001000
00001000
00000100
00000000
,
00010000
00001000
00000000
00001000
00000000
00022000
00000000
00033000
,
01001000
01001000
01001000
00000000
,
00001000
00010000
00000010
00000000
,
00010100
00010100
00010100
00000000
,
00010000
00001000
00100000
00000000
,
01000000
10000000
00100000
10000000
,
01000000
00010000
00001000
00000000
,
01000000
00010000
00100000
00001000
,
00010000
00000010
00010000
00000000
,
00001000
00000010
00000001
00000000
,
00000110
00000110
00001001
00000000
,
00000001
00000100
00001000
00000000
,
00010000
01000000
10000000
00000000
,
10000000
00100000
00010000
00000000
,
00001000
00000010
00000001
00000000
,
00000001
00000100
00001000
00000000
,
00010000
00100000
10000000
00000000
,
10000000
01000000
00010000
00000000
,
00001000
00001000
00000010
00000001
,
00001001
00000001
00000100
00000000
,
00000010
00010000
00001000
00100000
,
01000000
10000000
00100000
00000000
,
01000000
00001000
00010000
00000100
,
00010000
00001000
00000100
00000000
,
00000010
00001000
00000001
00001000
,
00000100
00000010
00000001
00000000
,
00000100
00000100
00001000
00010000
,
00022000
00033000
00001000
00010000
,
01000000
01000000
00000000
00100000
00000000
00100000
01000000
00000000
,
20020000
00000000
00000000
30030000
;

//--------------- dance-double - forcednature vs 5thMIX ----------------
#NOTES:
     dance-double:
     forcednature vs 5thMIX:
     Medium:
     8:
     0,0,0,0,0:
00000000
00000000
00000000
00000000
,
00000000
00000000
00000000
00000000
,
00000000
00000000
00000000
00000000
,
00000000
00000000
00000000
00011000
,
01000000
00000000
00010000
00000000
10000000
01000000
00100000
00000000
,
00001000
00000000
00010000
00000000
00000010
00001000
00000001
00000000
,
00000010
00000000
00000100
00000000
00001000
00000001
00000100
00000000
,
00001000
00001000
00010000
00000000
00010000
00010000
00001000
00000000
,
00011000
00000000
00010000
00000000
01000000
00100000
00010000
00000000
,
10000000
00000000
00100000
00000000
01000000
00001000
00010000
00000000
,
00000100
00000000
00001000
00000000
00000010
00000100
00000001
00000000
,
00000010
00000010
00000010
00000000
00000200
00000000
00001300
00000000
,
00001001
00000100
00001000
00010000
,
01000000
00100000
00010000
00001000
,
00000010
00000100
00001000
00010000
,
01000000
01000000
01000000
01000000
00100000
00000000
01100000
00000000
,
10010000
00000000
10000000
00000000
01000000
00010000
00001000
00000000
,
01000000
00010000
00100000
00000000
,
00001000
00000000
00010000
00000000
00000010
00001000
00000100
00000000
,
00000010
00000001
00000100
00000000
,
00000110
00000000
00000010
00000000
00010000
00001000
00100000
00000000
,
01000000
00010000
00001000
00000000
,
01000000
00000000
00010000
00000000
10000000
00100000
00010000
00000000
,
00001000
00001000
00001000
00000000
00000010
00000001
00000001
00000001
,
00000100
00000110
00000010
00001000
,
00000100
00000010
00000100
00000000
00010000
00001000
00000100
00000000
,
00001000
00000000
00011000
00000000
00010000
00000000
01000000
01000000
,
00000000
00000000
10000000
00000000
00000000
10000000
00000000
00000000
00010000
00000000
00000000
00010000
00000000
00000000
01000000
00000000
,
01000000
00000000
00001000
00000000
00010000
00000100
00010000
00000000
,
00001000
00000000
00000100
00000000
00000001
00000010
00000001
00000000
,
00001000
00001000
00001000
00000000
00000100
00000100
00000100
00000000
,
00010000
00010000
00000000
00001000
00000000
00022000
00000000
00033000
,
00001000
01000000
00001000
01000000
00001000
01000000
00000000
00010000
,
10000000
00010000
00000000
20020000
00000000
30030000
00000000
00000000
,
00100000
00001000
00100000
00001000
00100000
00001000
00000000
00010000
,
00000100
00010000
00000000
00000010
00000000
00002002
00000000
00003003
,
00000001
00000000
00000100
00000000
00000010
00001000
00000010
00000000
,
00010000
00000000
00001000
00000000
00100000
00010000
00100000
00000000
,
01000000
00000000
10000000
00000000
00010000
01000000
00010000
00000000
,
00100000
00100000
00100000
00000000
00001000
00001000
00001000
00000000
,
00011000
00000000
00010000
00000000
00000100
00001000
00000100
00000000
,
00000010
00000010
00000010
00000000
00000001
00001000
00000001
00000000
,
00001001
00000110
00000001
00000000
,
00000100
00001000
00010000
01000000
,
10010000
01100000
10000000
00000000
,
01000000
00010000
00001000
00000100
,
00001001
00000110
00000001
00001000
,
00000100
00010000
00001000
01000000
,
10010000
01100000
10000000
00010000
,
01000000
01000000
01000000
00000000
00001000
00001000
00001000
00000000
,
00011000
00000000
00010000
00000000
00000100
00001000
00000010
00000000
,
00000100
00000000
00001000
00000000
00010000
01000000
00100000
00000000
,
10010000
00000000
01100000
00000000
10000000
01000000
00100000
00000000
,
00001000
00000000
00010000
00000000
00000010
00001000
00000100
00000000
,
00000110
00000000
00000010
00000000
00000001
00001000
00000010
00000000
,
00000100
00000000
00001000
00000000
00010000
00100000
10000000
00000000
,
10010000
00000000
01000000
00000000
00001000
00010000
00000100
00000000
,
00001000
00001000
00001000
00000000
00000001
00000001
00000001
00000000
,
00000110
00001000
00010000
01000000
,
00100000
00100000
00000000
00010000
00010000
00000000
10000000
00000000
,
20020000
00000000
00000000
30030000
;

//--------------- dance-double - forcednature vs 5thMIX ----------------
#NOTES:
     dance-double:
     forcednature vs 5thMIX:
     Hard:
     10:
     0,0,0,0,0:
00000000
00000000
00000000
00000000
,
00000000
00000000
00000000
00000000
,
00000000
00000000
00000000
00000000
,
00000000
00000000
00000000
00011000
,
00001000
00000000
00010000
00000000
01000000
00000000
00100000
00000000
00010000
10000000
00010000
00000000
01000000
00000000
00000000
00000000
,
00100000
00000000
10000000
00000000
00010000
00000000
10000000
00000000
01000000
00100000
01000000
00000000
00010000
00000000
00000000
00000000
,
00001000
00000000
00000100
00000000
00000001
00000000
00000010
00000000
00000100
00001000
00000100
00000000
00010000
00000000
00000000
00000000
,
00001000
00000000
00000100
00000000
00000001
00000000
00000010
00000000
00000100
00010000
00000100
00000000
00001000
00000000
00001000
00000000
,
00001001
00000000
00000001
00000100
00001000
00010000
01000000
00000000
,
00100000
00000000
00001000
00000000
00010000
00000000
00100000
00000000
01000000
00010000
01000000
00000000
00100000
00000000
00000000
00000000
,
10010000
00000000
10000000
01000000
00010000
00001000
00000010
00000000
,
00000001
00000000
00000001
00000000
00000100
00000000
00000100
00000000
00000010
00001000
00000010
00000000
00010000
00000000
00010000
00000000
,
00011000
00000000
00000000
00000000
00100000
00000000
00000000
01000000
00000000
00000000
00010000
00000000
00000000
00001000
00000000
00000000
,
00000100
00000000
00000000
00000000
00000010
00000000
00000000
00000100
00000000
00000000
00001000
00000000
00000000
00010000
00000000
00000000
,
01000000
00000000
00000000
00000000
00100000
00000000
00000000
01000000
00000000
00000000
00010000
00000000
00000000
00001000
00000000
00000000
,
00000100
00000000
00000000
00000000
00000010
00000000
00000000
00000100
00000000
00000000
00001000
00000000
00011000
00000000
00000000
00000000
,
01000000
00000000
01010000
00000000
00010000
10000000
01000000
00000000
,
00100000
00000000
00001000
00000000
00010000
00010000
00010000
00000000
,
00000100
00000000
00001000
00000000
00000001
00000100
00000001
00000000
,
00000010
00000000
00001000
00000000
00010000
00100000
01100000
00000000
,
10010000
00000000
10000000
00000000
01000000
00010000
00001000
00000000
,
00000100
00000000
00000001
00000000
00000010
00000100
00001000
00001000
,
00000010
00000000
00000110
00000000
00000100
00001000
00010000
00000000
,
00100000
10000000
00010000
10000000
01000000
00010000
00001000
00000000
,
00011000
00000000
00010000
00000000
00000100
00001000
00000001
00000100
,
00000010
00000000
00001000
00000000
00000100
00000010
00000100
00000001
,
00000100
00000000
00000000
00001000
00000000
00000000
00000010
00000000
00000000
00000000
00000100
00000000
00001000
00000000
00010000
00000000
,
00000000
00000000
01000000
00000000
00000000
10000000
00000000
00000000
00100000
00000000
00000000
00010000
00000000
00000000
00001000
00000000
,
00011000
00000000
00010000
00000000
01000000
00100000
00010000
10000000
,
00010000
00000000
01000000
00000000
00001000
00010000
00000100
00000000
,
00000010
00000010
00000010
00000000
00000001
00000001
00000001
00000100
,
00001000
00002000
00003000
00020000
00030000
00022000
00000000
00033000
,
00001000
00010000
01000000
00010000
00001000
00010000
00000000
00100000
,
10000000
00010000
00000000
20020000
00000000
00000000
30030000
00000000
,
10000000
01000000
00010000
00001000
00000100
00000001
00000000
00000010
,
00000100
00001000
00000000
00000110
00000000
00002002
00000000
00003003
,
00000002
00000000
00000000
00000203
00000000
00000000
00002300
00000000
00000000
00000000
00013000
00000000
01000000
00000000
00100000
00000000
,
00010000
00000000
00000000
10000000
00000000
00000000
20020000
00000000
00000000
00000000
30030000
00000000
10000000
00000000
00100000
00000000
,
01000000
00000000
00000000
01000000
00000000
00000000
00010000
00000000
00100000
00000000
00000000
01000000
00000000
00000000
00010000
00000000
,
00001000
00000000
00000000
00000100
00000000
00000000
00000020
00000000
00000000
00000000
00000000
00000000
00000030
00000000
00000000
00000000
,
00001001
00000000
00000000
00000001
00000000
00000000
00000100
00000000
00001000
00000000
00000000
00010000
00000000
00000000
01000000
00000000
,
00100000
00000000
00100000
00000000
00010000
00000000
00010000
00000000
10000000
00000000
10000000
00000000
00100000
01000000
00100000
01000000
,
00010000
00000000
00000000
00000000
00100000
00000000
00000000
01000000
00000000
00000000
00010000
00000000
00000000
00001000
00000000
00000000
,
00000100
00000000
00000000
00000000
00000010
00000000
00000000
00000100
00000000
00000000
00001000
00000000
00000000
00010000
00000000
00000000
,
01000000
00000000
00000000
00000000
00100000
00000000
00000000
01000000
00000000
00000000
00010000
00000000
00000000
00001000
00000000
00000000
,
00000100
00000000
00000000
00000000
00000010
00000000
00000000
00000100
00000000
00000000
00001000
00000000
00000000
00010000
00000000
00000000
,
01100000
00000000
00000000
00000000
10000000
00000000
00000000
01000000
00000000
00000000
00010000
00000000
00000000
00001000
00000000
00000000
,
00000100
00000000
00000000
00000000
00000001
00000000
00000000
00000100
00000000
00000000
00001000
00000000
00000000
00010000
00000000
00000000
,
01000000
00000000
00000000
00000000
10000000
00000000
00000000
00100000
00000000
00000000
00010000
00000000
00000000
00001000
00000000
00000000
,
00000010
00000000
00000010
00000000
00000100
00000000
00000100
00000000
00001000
00000000
00001000
00000000
00000001
00000100
00000001
00000100
,
00000010
00001000
00000100
00000010
00000100
00010000
00001000
00000000
,
00000100
00001000
00010000
00000000
01000000
00010000
00001000
00000000
,
00010000
00100000
10000000
00010000
10000000
01000000
00010000
00000000
,
01000000
00100000
00001000
00000000
00010000
00100000
01000000
00000000
,
00001000
00010000
00000100
00001000
00000010
00010000
00001000
00000000
,
00000010
00000001
00000100
00000000
00000010
00001000
00000100
00000000
,
00000010
00001000
00010000
00100000
00010000
00001000
00010000
00000000
,
01000000
00000000
01000000
00000000
00100000
00000000
00100000
00000000
00010000
00000000
00010000
00000000
10000000
00000000
00010000
01000000
,
00010000
00000000
00110000
00000000
01000000
00001000
00010000
00000000
,
00000100
00001000
00000100
00000000
00000010
00000000
00000001
00000100
00000001
00000000
00000010
00000000
00001000
00000000
00000000
00000000
,
00022000
00000000
00000000
00033000
;

//--------------- dance-double - forcednature ----------------
#NOTES:
     dance-double:
     forcednature:
     Challenge:
     12:
     0,0,0,0,0:
00000000
00000000
00000000
00000000
,
00000000
00000000
00000000
00000000
,
00000000
00000000
00000000
00000000
,
00000000
00000000
00000000
00011000
,
00001000
00000000
00010000
00000000
00000100
00000000
00001000
00000000
00000002
00000000
00000000
00000103
00000000
00000000
00001000
00000000
,
00010000
00000000
01000000
00000000
10000000
00000000
00010000
00000000
00100000
01000000
00100000
00000000
00010000
00000000
00000000
00000000
,
01000000
00000000
00001000
00000000
00010000
00000000
00000100
00000000
00000020
00000000
00000000
00000031
00000000
00000000
00000100
00000000
,
00000010
00000010
00010010
00000000
00100000
00100000
00101000
00000000
,
00011000
00000000
00001000
00000000
00100000
00000000
00010000
00000000
20000000
00000000
00000000
31000000
00000000
00000000
00010000
00000000
,
00001000
00000000
00010000
00000000
00100000
00000000
01000000
00000000
00010000
10000000
00010000
00000000
00100000
00000000
00000000
00000000
,
01000000
00000000
00010000
00000000
00001000
00000000
00000010
00000000
00000200
00000000
00000000
00001300
00000000
00000000
00000001
00000000
,
00000100
00000000
00001000
00000000
00010000
00100000
00000000
00100000
10000000
00000000
10000000
00000000
00010000
00000000
00000000
00000000
,
11000000
00000000
00000000
00000000
10000000
00000000
00000000
00010000
00000000
00000000
00001000
00000000
00000000
00000001
00000000
00000000
,
00000100
00000000
00000000
00000000
00000001
00000000
00000000
00001000
00000000
00000000
00010000
00000000
00000000
10000000
00000000
00000000
,
01000000
00000000
00000000
00000000
10000000
00000000
00000000
00010000
00000000
00000000
00001000
00000000
00000000
00000001
00000000
00000000
,
00000101
00000000
00000000
00000000
00001100
00000000
00000000
00001100
00000000
00000000
00010000
00000000
00011000
00000000
00000000
00000000
,
00001000
00010000
00100000
00000000
10000000
00010000
00100000
00020000
,
00000000
00000000
01030000
00000000
00000000
00000000
00001000
00000000
00010000
00001000
00010000
00000000
00000100
00000000
00001000
00000000
,
00000010
00000000
00000100
00000000
00000001
00000000
00000000
00000001
00000010
00000000
00000100
00000000
00000000
00000000
00000110
00000000
,
00000000
00000000
00001000
00000000
00001002
00000000
00000000
00000103
00001000
00000000
00010000
00000000
01000000
00000000
00000000
00000000
,
01100000
00000000
00000000
00000000
10000000
00000000
00000000
10000000
00100000
00000000
00010000
00000000
00001000
00000000
00000010
00000000
,
00000000
00000000
00000110
00000000
00000000
00000000
00000100
00000000
00001000
00000001
00001000
00000000
00000010
00000000
00000100
00000000
,
00001000
00010000
01000000
00000000
00100000
00001000
00010000
00200000
,
00000000
00000000
10300000
00000000
10010000
00000000
00000000
10000000
01000000
00000000
00010000
00000000
00001000
00000000
00000000
00000000
,
00011000
00000000
00000000
00000000
00000100
00000000
00001000
00000000
00000001
00000100
00000001
00000000
00000010
00000000
00000100
00000000
,
00010000
00000000
00001000
00000000
01000000
00000000
00010000
00000000
10000000
01000000
10000000
00000000
00100000
00000000
01000000
00000000
,
00001000
00000000
00000000
00010000
00000000
00000000
00001000
00000000
00000010
00000001
00000010
00000000
00000100
00000000
00001000
00000000
,
00000000
00000000
02000000
00000000
00000000
03200000
00000000
00000000
00302000
00000000
00000000
00023000
00000000
00000000
00130000
00000000
,
10000000
00000000
00010000
00000000
10000000
00000000
01000000
00000000
00010000
00001000
00010000
00000000
00100000
00000000
00010000
00000000
,
00001000
00000000
00010000
00000000
00000100
00000000
00010000
00000000
00001000
00000010
00001000
00000000
00010000
00000000
00001000
00000000
,
00000100
00000000
00000000
00000110
00000000
00000000
00002002
00000000
00000000
00000000
00003003
00000000
00000000
00000000
00000001
00000100
,
00001000
00001000
00000000
02001000
00000000
20000000
00000000
33000000
,
00010000
00100000
00010000
00000010
00010000
00100000
01000000
00010000
,
00001000
00000100
00000000
00000220
00000000
00000000
00000330
00000000
,
00001000
00000010
00001000
00100000
00001000
00000010
00000100
00001000
,
00010000
01000000
00000000
01100000
00000000
20020000
00000000
30030000
,
10000000
00000000
00000000
01000000
00000000
00000000
00020000
00000000
00000000
00000000
00001000
00000000
00031000
00000000
00000010
00000000
,
00000001
00000000
00000000
00000100
00000000
00000000
00000020
00000000
00000000
00000000
00001000
00000000
00001030
00000000
00000000
00000000
,
00010000
00000000
00000000
00001000
00000000
00000000
01000000
00010000
01000000
00000000
00000000
00100000
00000000
00000000
10000000
01000000
,
00100000
00000000
00000000
00010000
00000000
00000000
01000000
00000000
00001000
00000000
00010000
00000000
00000100
00000000
00000000
00000000
,
00000010
00000000
00000000
00000011
00000000
00000000
00000001
00001000
00000010
00000000
00000000
00010010
00000000
00000000
00010000
00001000
,
01000000
00000000
00000000
00010000
00000000
00000000
10010000
00000000
00000000
00000000
02200000
00000000
00000000
00000000
03300000
00000000
,
10000000
00000000
01000000
00000000
00010000
00000000
00001000
00010000
00000000
00000000
00000010
00000000
00000000
00000010
00000000
00000000
,
00000100
00000000
00000000
00000000
00001000
00000000
00000000
00001000
00000000
00000000
00010000
00000000
00000000
00010000
00000000
00000000
,
01000000
00000000
10000000
00000000
00100000
00000000
01000000
00010000
00000000
00000000
00100000
00000000
00000000
00100000
00000000
00000000
,
00001000
00000000
00000000
00000000
00010000
00000000
00000000
00010000
00000000
00000000
00000010
00001000
00000010
00001000
00000010
00000000
,
00001001
00000000
00000001
00000000
00000100
00000000
00000010
00001000
00000000
00000010
00001000
00000000
00010000
00000000
00100000
00000000
,
01000000
00000000
00000000
00000000
01000000
00000000
00000000
01000000
00000000
00000000
10000000
00000000
00000000
10000000
00000000
00000000
,
00100000
00000000
01000000
00000000
00010000
00000000
00100000
00001000
00000000
00100000
00001000
00000000
00010000
00000000
00000010
00000000
,
00000100
00000001
00000000
00000001
00001000
00000000
00001000
00000100
00000000
00000100
00010000
00000000
00001000
00000000
01000000
00000000
,
00100000
00000000
00010000
00000000
00100000
00000000
10000000
00100000
00000000
10000000
01000000
00000000
00010000
00000000
00001000
00000000
,
00000010
00000000
00000100
00000000
00000110
00000000
00000000
00000000
00001000
00000001
00001000
00000000
00000010
00000000
00000000
00000000
,
00000100
00000000
00001000
00000000
00010000
00000000
01000000
00100000
00000000
01000000
10000000
00000000
00100000
00000000
01000000
00000000
,
00001000
00000000
00010000
00000000
00010100
00000000
00000000
00000000
00100000
00010000
00100000
00000000
01000000
00000000
00000000
00000000
,
00010000
00000000
00001000
00000000
00000010
00000000
00000100
00001000
00000000
00000100
00010000
00000000
00001000
00000000
00000100
00000000
,
00000001
00000000
00001000
00000000
00001100
00000000
00000000
00000000
00010000
00001000
00010000
00000000
01000000
00000000
00000000
00000000
,
00100000
00000000
00001000
00000000
00010000
00000000
00100000
10000000
00000000
00010000
10000000
00000000
01000000
00000000
00010000
00000000
,
00001000
00000000
00001000
00000000
00000010
00000001
00000000
00000100
00000000
00000001
00000010
00000000
00001000
00000000
00010000
00000000
,
00100000
00000000
00100000
00000000
01100000
00000000
00000000
00000000
10000000
00000000
00000000
10000000
00000000
00000000
01000000
00000000
,
00010000
00000000
00000100
00001000
00000100
00000000
00010000
00000000
00001000
01000000
00001000
00000000
00010000
00001000
00010000
00001000
,
00000100
00000000
00000000
00000000
;
