#TITLE:YUMENONAKA;
#SUBTITLE:;
#ARTIST:nc ft. mioco;
#TITLETRANSLIT:;
#SUBTITLETRANSLIT:;
#ARTISTTRANSLIT:;
#GENRE:;
#CREDIT:;
#MUSIC:YUMENONAKA.mp3;
#BANNER:;
#BACKGROUND:;
#CDTITLE:;
#SAMPLESTART:24.069;
#SAMPLELENGTH:12.000;
#SELECTABLE:YES;
#OFFSET:-0.069;
#BPMS:0.000=160.000;
#STOPS:;
#BGCHANGES:;
#FGCHANGES:;

//--------------- dance-single - MEGAtive ----------------
#NOTES:
     dance-single:
     MEGAtive:
     Beginner:
     3:
     0,0,0,0,0:
0000
0000
0000
0000
,
0000
0000
0000
0000
,
0000
0000
0000
0000
,
0000
0000
0000
0000
,
1000
0000
0000
0000
,
1000
0000
0000
0000
,
0001
0000
0000
0000
,
0001
0000
0000
0000
,
0100
0000
0000
0100
0000
0000
0000
0000
,
0010
0000
0000
0010
0000
0000
0000
0000
,
1000
0000
0000
1000
0000
0000
0000
0000
,
0001
0000
0000
0001
0000
0000
0000
0000
,
0010
0000
0000
0010
0000
0000
0000
0000
,
0100
0000
0000
0100
0000
0000
0000
0000
,
1000
0000
0000
1000
0000
0000
0000
0000
,
0010
0000
0000
0010
0000
0000
0000
0000
,
1000
0010
1000
0000
,
0001
0100
0001
0000
,
1000
0100
1000
0000
,
0001
0010
0001
0000
,
1000
0010
1000
0010
,
0100
0000
0000
0001
,
0010
0001
0010
0200
,
0000
0000
0000
0000
,
1300
0000
0000
1000
0000
0000
0000
0000
,
0010
0000
0000
0010
0000
0000
0000
0000
,
0100
0000
0000
0100
0000
0000
0000
0000
,
0001
0000
0000
0001
0000
0000
0000
0000
,
1000
0000
0000
1000
0000
0000
0000
0000
,
0100
0000
0000
0100
0000
0000
0000
0000
,
0010
0000
0000
0010
0000
0000
0000
0000
,
0001
0000
0000
0001
0000
0000
0000
0000
,
1000
0000
0000
1000
0000
0000
0000
0000
,
0010
0000
0000
0010
0000
0000
0000
0000
,
0100
0000
0000
0100
0000
0000
0000
0000
,
0001
0000
0000
0001
0000
0000
0000
0000
,
0010
0000
0000
0010
0000
0000
0000
0000
,
0100
0000
0000
0100
0000
0000
0000
0000
,
1000
0000
0000
1000
0000
0000
0000
0000
,
0001
0000
0000
0001
0000
0000
0000
0000
,
0001
0100
0001
0000
,
1000
0010
1000
0000
,
0001
0010
0001
0000
,
1000
0100
1000
0000
,
0001
0100
0001
0100
,
0010
0000
0000
1000
,
0100
1000
0100
0020
,
0000
0000
0000
0000
,
0031
0000
0000
0001
0000
0000
0000
0000
,
1000
0000
0000
1000
0000
0000
0000
0000
,
0010
0000
0000
0010
0000
0000
0000
0000
,
0100
0000
0000
0100
0000
0000
0000
0000
,
0001
0000
0000
0001
0000
0000
0000
0000
,
0010
0000
0000
0010
0000
0000
0000
0000
,
0100
0000
0000
0100
0000
0000
0000
0000
,
1000
0000
0000
1000
0000
0000
0000
0000
,
0001
0000
0000
0001
0000
0000
0000
0000
,
0100
0000
0000
0100
0000
0000
0000
0000
,
0010
0000
0000
0010
0000
0000
0000
0000
,
0100
0000
0000
0100
0000
0000
0000
0000
,
0001
0000
0000
0000
,
0010
0000
0000
0000
,
0100
0000
0000
0000
,
1000
0000
0000
0000
0000
0002
0000
0000
,
0000
0000
0000
0000
,
0000
0000
0000
0000
,
0000
0000
0000
0000
,
0003
0000
0000
0000
;

//--------------- dance-single - MEGAtive ----------------
#NOTES:
     dance-single:
     MEGAtive:
     Easy:
     6:
     0,0,0,0,0:
0000
0000
0000
0000
,
0000
0000
0000
0000
,
0000
0000
0000
0000
,
0000
0000
0000
0000
,
0001
0000
0000
0000
,
0010
0000
0000
0000
,
0100
0000
0000
0000
,
1000
0000
0000
0000
,
0010
0000
0000
1010
0000
0000
0000
0000
,
1000
0000
0000
1001
0000
0000
0000
0000
,
0001
0000
0000
0011
0000
0000
0000
0000
,
0010
0000
0000
0110
0000
0000
0000
0000
,
0100
0000
0000
1100
0000
0000
0000
0000
,
1000
0000
0000
1010
0000
0000
0000
0000
,
0010
0000
0000
0110
0000
0000
0000
0000
,
0100
0000
0000
0201
0000
0000
0000
0000
,
0301
0010
0001
1000
,
0100
0010
0100
1000
,
0001
0100
0001
1000
,
0010
0100
0010
1000
,
0001
0010
0001
0010
,
0100
1000
0001
1000
,
0010
1000
0010
0100
,
0001
0100
0001
1000
,
0001
0000
0000
0011
0000
0000
0000
0000
,
0010
0000
0000
0110
0000
0000
0000
0000
,
0100
0000
0000
1100
0000
0000
0000
0000
,
1000
0000
0000
1001
0000
0000
0000
0000
,
0001
0000
0000
0101
0000
0000
0000
0000
,
0100
0000
0000
0110
0000
0000
0000
0000
,
0010
0000
0000
1010
0000
0000
0000
0000
,
1000
0000
0000
1001
0000
0000
0000
0000
,
0001
0000
0000
0011
0000
0000
0000
0000
,
0001
0000
0000
1001
0000
0000
0000
0000
,
0001
0000
0000
0101
0000
0000
0000
0000
,
0100
0000
0000
0110
0000
0000
0000
0000
,
0010
0000
0000
1010
0000
0000
0000
0000
,
1000
0000
0000
1001
0000
0000
0000
0000
,
1000
0000
0000
1100
0000
0000
0000
0000
,
0100
0000
0000
0210
0000
0000
0000
0000
,
1300
0010
1000
0001
,
1000
0100
0010
0001
,
1000
0100
1000
0001
,
1000
0010
0100
0001
,
1000
0100
1000
0001
,
0010
0100
0010
0001
,
0100
0001
0100
0010
,
1000
0001
1000
0100
,
0010
0000
0000
0011
0000
0000
0000
0000
,
0001
0000
0000
0101
0000
0000
0000
0000
,
0100
0000
0000
0110
0000
0000
0000
0000
,
0010
0000
0000
1010
0000
0000
0000
0000
,
1000
0000
0000
1001
0000
0000
0000
0000
,
1000
0000
0000
1100
0000
0000
0000
0000
,
0100
0000
0000
0110
0000
0000
0000
0000
,
0010
0000
0000
0011
0000
0000
0000
0000
,
0001
0000
0000
1001
0000
0000
0000
0000
,
0001
0000
0000
0101
0000
0000
0000
0000
,
0100
0000
0000
0110
0000
0000
0000
0000
,
0010
0000
0000
1010
0000
0000
0000
0000
,
1000
0000
0000
1000
0000
0000
0000
0000
,
0001
0000
0000
0001
0000
0000
0001
0000
,
0000
0010
0000
0000
0010
0000
0000
0000
,
0100
0000
0000
0100
0000
2000
0000
0000
,
0000
0000
0000
0000
,
0000
0000
0000
0000
,
0000
0000
0000
0000
,
3000
0000
0000
0000
;

//--------------- dance-single - MEGAtive ----------------
#NOTES:
     dance-single:
     MEGAtive:
     Medium:
     10:
     0,0,0,0,0:
0000
0000
0000
0000
,
0000
0000
0000
0000
,
0000
0000
0000
0000
,
0000
0000
0000
0000
,
0000
0000
0000
0000
,
0000
0000
0000
0000
,
0000
0000
0000
0000
,
0000
0000
0000
0000
,
1000
0000
0001
0010
0000
0011
0000
0000
,
0001
0000
1000
0010
0000
0010
0100
0000
,
0100
0001
0000
0001
0010
0000
0011
0000
,
0001
0000
1000
0010
0000
0210
0000
0000
,
0301
0000
1000
0100
0000
1100
0000
0000
,
1000
0000
0001
0100
0000
0100
0010
0000
,
0010
1000
0000
1000
0100
0000
1100
0000
,
1000
0000
0001
0100
0020
0000
0000
0000
,
1030
0000
0001
0010
0001
0000
1000
0010
,
0200
0010
1000
0010
,
0301
0000
1000
0100
1000
0000
0001
0100
,
0020
0001
0100
1030
,
0001
0000
0010
0000
0100
1000
0200
0000
,
0010
0001
0010
1300
,
0010
0000
0100
0001
1000
0000
0020
0000
,
0001
0000
0100
0000
1000
0000
0130
0001
,
1000
0000
0001
0100
0000
0101
0000
0000
,
0001
0000
1000
0100
0000
0010
0100
0000
,
1000
0010
0000
0100
0001
0000
0010
0100
,
1000
0000
0001
0010
0000
0120
0000
0000
,
0031
0000
1000
0100
0000
1100
0000
0000
,
1000
0000
0001
0100
0000
0010
0100
0000
,
0001
0010
0000
0100
1000
0000
0010
0100
,
0001
0000
1000
0010
0000
0120
0000
0000
,
1030
0000
0001
0010
0000
0011
0000
0000
,
0001
0000
1000
0010
0000
0100
0010
0000
,
1000
0100
0000
0010
0001
0000
0100
0010
,
1000
0000
0001
0100
0000
0210
0000
0000
,
0301
0000
1000
0010
0000
1010
0000
0000
,
1000
0000
0001
0010
0000
0100
0010
0000
,
0001
0100
0000
0010
1000
0000
0100
0010
,
0001
0000
1000
0100
0020
0000
0000
0000
,
0031
0000
1000
0010
1000
0000
0001
0010
,
0200
0010
0001
0010
,
1300
0000
0001
0100
0001
0000
1000
0100
,
0020
1000
0100
0031
,
1000
0000
0010
0000
0100
0001
0200
0000
,
0010
1000
0010
0301
,
0010
0000
0100
1000
0001
0000
0020
0000
,
1000
0000
0100
0000
0001
0000
0130
1000
,
0001
0000
1000
0010
0000
1010
0000
0000
,
1000
0000
0100
0010
0000
0001
0100
0000
,
0010
1000
0000
0001
0010
0000
0100
1000
,
0001
0000
0100
0010
0000
0120
0000
0000
,
1030
0000
0001
0010
0000
0011
0000
0000
,
0001
0000
0100
0010
0000
1000
0100
0000
,
0010
0001
0000
1000
0010
0000
0100
0001
,
1000
0000
0100
0010
0000
0120
0000
0000
,
0031
0000
1000
0010
0000
1010
0000
0000
,
1000
0000
0100
0010
0000
0001
0100
0000
,
0010
1000
0000
0001
0010
0000
0100
1000
,
0001
0000
0100
0010
0000
0120
0000
0000
,
1030
0000
0100
0000
0000
1100
0000
0000
,
1000
0000
0001
0100
0000
0010
1000
0000
,
0001
0010
0000
0100
1000
0000
0010
0100
,
0001
0000
1000
0100
0010
0002
0000
0000
,
0000
0000
0000
0000
,
0000
0000
0000
0000
,
0000
0000
0000
0000
,
0003
0000
0000
0000
;

//--------------- dance-single - MEGAtive ----------------
#NOTES:
     dance-single:
     MEGAtive:
     Hard:
     12:
     0,0,0,0,0:
0000
0000
0000
0000
,
0000
0000
0000
0000
,
0000
0000
0000
0000
,
0000
0000
0000
0000
,
1000
0000
0001
0000
0010
0100
0000
0000
,
2000
0000
3010
0200
0000
0301
0020
0000
,
0130
2000
0000
3010
0200
0000
0301
1000
,
0001
0000
1000
0100
0010
0002
0000
0000
,
1003
0000
0001
0100
0010
0100
0001
0000
,
2000
0000
3100
0020
0000
0031
0200
0000
,
0310
0002
0000
0013
0200
0000
0301
1000
,
0100
0000
0010
0001
0100
0020
0001
0000
,
1030
0000
0001
0010
0100
0010
0001
0000
,
2000
0000
3010
0200
0000
0301
0020
0000
,
0130
0002
0000
0103
0020
0000
0031
1000
,
0010
0000
0100
0001
0020
0000
0000
0000
,
0032
0000
1003
0100
0001
0100
2000
0000
,
3001
0100
0010
1000
0020
0000
0100
0000
,
2030
0000
3001
0100
1000
0100
0002
0000
,
1003
0100
0010
0001
0100
1000
0200
0000
,
0301
1000
0200
0000
0310
0001
0200
0000
,
0310
0001
0010
1000
0001
0000
2000
0000
,
3001
0010
1000
0010
0002
0000
0203
0000
,
1300
0100
0020
0000
2030
0000
3001
0001
,
1000
0100
1000
0001
0010
0100
1000
0000
,
2010
0000
3001
0200
0000
1300
0200
0000
,
0301
0020
0000
1030
0020
0000
0031
1000
,
0010
0000
0100
0010
1000
0200
1000
0000
,
1300
0010
1000
0001
0100
0010
1000
0000
,
2100
0000
3001
0020
0000
0130
0002
0000
,
0103
2000
0000
3010
0002
0000
0013
0100
,
0001
0000
0010
0001
1000
2100
0000
0000
,
3001
0100
0001
1000
0010
0100
0001
0000
,
0012
0000
1003
0200
0000
0301
0200
0000
,
1300
0020
0000
0031
0020
0000
0130
0001
,
0010
0000
0100
1000
0001
0200
0010
0000
,
0301
0010
0001
1000
0100
0010
0001
0000
,
0102
0000
1003
0020
0000
0130
2000
0000
,
3100
0020
0000
1030
0200
0000
0310
0001
,
0100
0000
0010
1000
0002
0000
0000
0000
,
2003
0000
3010
0100
1000
0100
0020
0000
,
1030
0100
0010
0001
0200
0000
0010
0000
,
0302
0000
0013
0100
0001
0100
0020
0000
,
0031
1000
0010
0001
0010
1000
0200
0000
,
1300
0001
0020
0000
0130
1000
0020
0000
,
0031
0020
0100
0030
0001
0000
2000
0000
,
3100
0010
1000
0010
0200
0000
2300
0000
,
3010
0002
0000
0013
2000
0000
3002
0000
,
1003
0100
1000
0001
0010
1000
0010
0000
,
0002
0000
0103
0020
0000
0031
0020
0000
,
0130
0002
0000
1003
0200
0000
0310
0100
,
1000
0001
1000
0010
0100
0002
2003
0000
,
3001
0010
0001
1000
0100
0001
0100
0000
,
2000
0000
3010
0200
0000
1300
0200
0000
,
0310
2000
0000
3001
0020
0000
0130
0010
,
0001
1000
0001
0100
0010
2000
0000
0000
,
3001
0010
0001
1000
0010
0100
0010
0000
,
2000
0000
3001
0020
0000
0130
0020
0000
,
0031
0200
0000
0310
2000
0000
3100
0010
,
0001
1000
0001
0100
0010
0200
0000
0000
,
0301
0000
0100
0010
1000
0001
0010
0000
,
0200
0000
1300
0020
0000
0130
0002
0000
,
1003
0200
0000
0310
0002
0000
0103
0010
,
1000
0001
0000
0010
0100
2000
0000
0000
,
0000
0000
0000
0000
,
0000
0000
0000
0000
,
0000
0000
0000
0000
,
3000
0000
0000
0000
;

//--------------- dance-single - aboutblank ----------------
#NOTES:
     dance-single:
     aboutblank:
     Challenge:
     15:
     0,0,0,0,0:
0000
0000
0000
0000
,
0000
0000
0000
0000
,
0000
0000
0000
0000
,
0000
0000
0000
0000
,
2000
0000
3010
0100
0010
1000
0001
0000
,
0202
0000
0303
2200
0000
3300
0001
0000
,
1000
0001
1000
0000
0020
0030
0010
0100
,
0001
0000
1000
0000
0001
0000
0001
0010
0100
0000
1001
0000
0000
0000
0001
1000
,
0002
0000
0013
0100
1000
0001
0100
0000
,
0022
0000
0033
2002
0000
3003
1000
0000
,
1000
0010
1000
0001
0200
0000
0310
1000
,
0010
0000
0100
0000
0001
0000
1000
0100
0010
0000
0002
0000
0100
0000
0003
0000
,
1001
0000
0010
0100
1000
0100
0010
0000
,
1200
0000
0310
0002
1000
0000
0203
0000
,
0310
0000
1000
0000
0010
0000
0100
0001
0100
0000
0001
0000
1000
0000
0010
0000
,
1000
0000
0100
0000
0010
0000
0001
0000
1000
0001
1000
0001
1000
0001
1000
0001
,
2000
0000
0000
0000
3100
0000
0010
0001
0010
0000
0100
0000
0010
0000
0000
0000
,
0002
0000
1003
0010
0200
0000
0301
0000
,
0021
0000
0000
0000
1030
0000
0010
0100
0001
0000
0100
0000
2000
0000
0000
0000
,
3200
0000
0310
0011
0000
0100
1100
0000
,
0001
1000
0001
0000
0100
0010
0100
0000
0001
1000
0001
0000
0020
0000
0000
0000
,
0130
0000
2000
0000
0010
0000
3000
0000
1001
0000
0000
0000
1000
0100
1000
0000
,
0001
0010
0001
0000
1000
0010
1000
0000
0001
0100
0001
0000
2000
0000
0000
0000
,
3001
0000
0200
0000
0000
0000
0310
0000
1000
0100
0010
0001
0100
0010
0100
0001
,
2000
0000
0000
0000
3010
0100
0010
0000
0001
0000
0010
0000
1000
0000
0000
0000
,
0002
0000
0103
0020
0000
0030
2001
0000
,
3100
0000
0010
0000
0100
0000
1000
0010
1000
0000
0001
0000
0100
0000
0100
0000
,
0001
0000
0001
0000
1000
0000
0010
0100
0001
0000
2000
0000
0100
0000
3000
0000
,
0011
0000
0000
0000
0001
0000
0010
0100
1000
0000
0100
0000
0010
0000
0000
0000
,
0002
0000
1003
0020
1000
0030
1200
0000
,
0310
0000
0001
0000
1000
0000
0001
0100
0010
0000
0100
0000
0001
0000
1000
0000
,
0010
0000
0010
0000
0100
0000
0001
0010
0100
0000
1001
0000
0000
0001
1000
0001
,
2000
0000
0000
0000
3010
0000
0100
0001
1000
0000
0001
0000
0010
0000
0000
0000
,
0002
0000
1003
0200
0010
0300
2001
0000
,
3010
0000
0100
0000
0001
0000
0010
0001
0010
0000
0001
0000
1000
0000
0010
0000
,
1000
0000
0100
0000
0100
0000
1000
0001
0010
0000
0200
0000
1000
0000
0300
0000
,
1001
0000
0000
0000
1000
0000
0001
1000
0001
0000
0100
0000
0010
0000
0000
0000
,
1002
0000
1003
0020
0100
0030
1002
0000
,
0103
0000
0001
0000
0001
0000
1000
0010
1000
0000
0001
0000
0100
0000
0100
0000
,
0001
0000
0010
0100
0010
0000
0001
0000
1000
0100
0010
0001
0010
0100
0010
0100
,
2000
0000
0000
0000
3001
0000
1000
0010
0100
0000
0001
0000
0020
0000
0000
0000
,
0230
0000
1300
0001
0020
0000
0031
0000
,
2000
0000
0000
0000
3010
0000
0100
0001
1000
0000
0010
0000
1000
0000
0000
0000
,
1200
0000
0310
0002
0000
1003
0020
0000
,
0130
0001
0100
0000
0010
1000
0010
0000
0100
0001
0100
0000
0020
0000
0000
0000
,
1030
0000
0200
0000
1000
0000
0300
0000
1001
0000
0000
0000
1000
0001
1000
0000
,
0100
1000
0100
0000
1000
0001
1000
0000
0010
1000
0010
0000
0200
0000
0000
0000
,
0301
0020
0001
0030
1002
0000
0203
0000
,
0320
0000
0000
0000
1030
0100
0010
0001
1000
0100
1000
0100
0010
0100
0010
0100
,
2000
0000
3010
0200
0001
0300
1002
0000
,
0013
0100
0020
0000
1000
0000
0000
0000
0031
0100
0001
0000
1000
0000
0010
0000
,
0100
0001
0100
0001
1000
0010
0100
0001
1000
0000
0200
0000
0001
0000
0000
0000
,
1300
0001
1000
0000
0010
0000
0100
0000
0001
1000
0001
0000
0100
0000
0000
0000
,
0020
0000
1030
0200
1000
0000
0320
0000
,
0031
1000
0100
0000
0010
0000
0001
0000
0100
0001
1000
0000
0001
0000
0010
0000
,
0100
1000
0100
0000
0010
0000
0001
0100
0010
1000
0020
0000
0030
1000
0001
1000
,
0100
0010
0100
1000
0010
0100
0001
0010
,
0001
1000
0100
0000
0010
0000
0001
0100
0010
0000
0100
0000
0001
1000
0010
0000
,
1000
0000
0200
0000
0001
0000
0000
0000
1300
0010
1000
0000
0001
0000
1000
0000
,
0001
0010
0100
0000
1000
0000
0010
0100
0010
1000
0020
0000
0001
0000
0000
0000
,
1030
0000
0001
0100
0010
1000
0001
0000
,
2000
0000
0000
3020
0000
0000
0230
0000
,
0000
0302
0000
0000
1003
0000
0001
1000
,
0010
0000
0000
0000
0010
0000
0001
0010
1000
0010
0200
0000
0000
0000
0000
0000
,
0000
0000
0000
0000
,
0300
0000
0000
0000
;
