#TITLE:Y&Co. Is Still Alive;
#SUBTITLE:;
#ARTIST:Y&Co.;
#TITLETRANSLIT:;
#SUBTITLETRANSLIT:;
#ARTISTTRANSLIT:;
#GENRE:;
#CREDIT:;
#MUSIC:Y&Co. Is Still Alive.ogg;
#BANNER:;
#BACKGROUND:;
#CDTITLE:;
#SAMPLESTART:13.459;
#SAMPLELENGTH:8.392;
#SELECTABLE:YES;
#OFFSET:1.646;
#BPMS:0.000=143.000;
#STOPS:;
#BGCHANGES:;
#FGCHANGES:;

//--------------- dance-single - OrangeRight ----------------
#NOTES:
     dance-single:
     OrangeRight:
     Beginner:
     3:
     0,0,0,0,0:
0000
0000
0000
0000
,
0000
0000
0000
0000
,
0000
0000
0000
0000
,
0000
0000
0000
0000
,
0000
0000
0000
0000
,
1000
0000
1000
0000
,
0001
0000
0001
0000
,
1000
0000
0001
0000
,
1000
0000
0000
0000
,
0001
0000
0001
0000
,
1000
0000
1000
0000
,
0001
0000
1000
0000
,
0100
0000
0000
0000
,
1000
0000
1000
0000
,
0001
0000
0001
0000
,
1000
0000
0001
0000
,
1000
0000
0001
0000
,
1000
0000
0000
0000
,
0100
0000
0000
0000
,
0010
0000
0000
0000
,
0001
0000
0000
0000
,
1000
0000
0000
0000
,
0001
0000
0000
0000
,
0100
0000
0000
0000
,
0010
0000
0000
0000
,
1000
0000
1000
0000
,
0001
0000
0001
0000
,
1000
0000
1000
0000
,
0001
0000
0010
0000
,
0001
0000
0001
0000
,
1000
0000
1000
0000
,
0001
0000
0001
0000
,
1000
0000
0010
0000
,
1000
0000
0000
0000
,
0100
0000
0000
0000
,
1000
0000
0000
0000
,
1000
0000
0000
0000
,
0001
0000
0000
0000
,
0100
0000
0000
0000
,
0001
0000
0000
0000
,
0010
0000
0000
0000
,
0100
0000
0000
0000
,
1000
0000
0000
0000
,
0010
0000
0000
0000
,
1000
0000
0001
0000
,
1000
0000
0000
0000
,
0001
0000
0000
0000
,
0100
0000
0000
0000
,
0010
0000
0000
0000
,
1000
0000
1000
0000
,
0100
0000
0100
0000
,
0010
0000
0010
0000
,
0001
0000
1000
0000
,
0001
0000
0100
0000
,
0001
0000
0100
0000
,
0001
0000
1000
0000
,
0100
0000
0100
0000
,
1000
0000
0010
0000
,
1000
0000
0010
0000
,
1000
0000
0001
0000
,
0100
0000
0100
0000
,
0010
0000
0010
0000
,
0100
0000
0001
0000
,
0010
0000
0010
0000
,
0100
0000
1000
0000
,
0100
0000
0100
0000
,
0010
0000
0001
0000
,
0100
0000
0100
0000
,
0001
0000
1000
0000
,
1001
0000
0000
0000
;

//--------------- dance-single - OrangeRight ----------------
#NOTES:
     dance-single:
     OrangeRight:
     Easy:
     6:
     0,0,0,0,0:
0000
0000
0000
0000
,
0000
0000
0000
0000
,
0000
0000
0000
0000
,
0000
0000
0000
0000
,
0000
0000
0000
0000
,
1000
0100
0010
0001
,
1000
0010
0100
0001
,
1000
0001
0100
0010
,
2000
0000
3002
0000
,
1003
0100
1000
0000
0010
0000
0010
0000
,
1000
0100
1000
0000
0001
0000
0001
0000
,
0100
0001
0100
0000
0010
0000
1000
0000
,
0002
1000
1003
0000
,
0001
0100
0001
0000
0010
0000
0010
0000
,
0001
0100
0001
0000
1000
0000
1000
0000
,
0100
1000
0100
0000
0010
0000
0001
0000
,
1000
0000
0001
0000
1000
0001
1000
0000
,
0002
0000
0000
0000
,
0203
0000
0000
0300
,
0020
0000
0000
0030
,
2000
0000
0000
3000
,
1000
0000
0000
0001
0000
0000
0100
0000
,
0001
0000
0000
1000
0000
0000
0100
0000
,
1000
0000
0000
0100
0000
0000
0010
0000
,
0001
0000
0000
0100
0000
0000
0010
0000
,
1000
1000
0100
0010
,
0001
0001
0100
0010
,
1000
1000
0100
0010
,
0001
1001
1000
1001
,
0001
0001
1000
0010
,
1000
1000
0001
0010
,
0001
0001
1000
0100
,
1000
1100
0001
0101
,
2000
0000
0000
0000
3000
0000
0001
1000
,
0002
0000
0000
0000
0003
0000
1000
0100
,
2000
0000
3000
0001
,
2002
0000
0000
3003
,
2000
0000
0010
0000
0010
0000
3010
1000
,
0020
0000
0100
0000
0100
0000
0130
0010
,
0200
0000
0001
0000
0001
0000
0301
1000
,
0002
0000
0010
0000
0010
0000
1003
0001
,
2000
0000
0100
0000
0100
0000
3001
1000
,
0002
0000
0100
0000
0100
0000
1003
0001
,
2000
0000
0010
0000
0010
0000
3010
0100
,
0002
0000
1003
0001
,
2000
0000
0100
0000
,
0010
0000
0100
0000
,
3002
0000
0100
0000
,
0013
0100
1000
0001
,
1000
0100
0010
0100
,
1000
0010
0100
0010
,
1000
0100
0010
0001
,
2000
0001
3001
0000
,
1000
0100
1000
0000
0100
0000
0010
0000
,
0100
0010
0100
0000
0010
0000
0001
0000
,
1000
0001
1000
0000
0010
0000
0100
0000
,
0001
1000
0001
0000
0010
0000
0100
0000
,
1000
0100
1000
0000
0001
0000
0010
0000
,
0001
0100
0001
0000
1000
0000
0010
0000
,
1000
0010
1000
0000
0001
0100
0001
0000
,
1000
0001
1000
0000
0001
1000
0001
1000
,
0002
0000
0000
0100
0000
0000
0103
0000
,
0001
0000
0010
0000
0100
1000
0100
0000
,
2000
0000
0000
0100
0000
0000
3100
0000
,
1000
0000
0001
0000
1000
0001
1000
0001
,
2000
0000
0000
0010
0000
0000
3100
0000
,
1000
0000
0010
0000
0100
0001
0100
0000
,
0002
0000
0000
0010
0000
0000
0100
0000
,
1003
0001
1000
0001
,
2002
0000
0000
3003
;

//--------------- dance-single - OrangeRight ----------------
#NOTES:
     dance-single:
     OrangeRight:
     Medium:
     11:
     0,0,0,0,0:
0000
0000
0000
0000
,
0000
0000
0000
0000
,
0000
0000
0000
0000
,
0000
0000
0000
0000
,
0000
0000
0000
0000
,
1000
0100
1000
0000
0100
0000
0010
0000
,
0100
0010
0100
0000
0010
0000
0001
0000
,
1000
0001
1000
0000
0001
1000
0001
0000
,
1000
0100
0010
0001
2000
0000
3001
0000
,
1000
0000
0100
0000
1000
0000
0000
0010
0000
0000
0100
0000
0001
0000
0000
0000
,
0001
0000
0100
0000
0001
0000
0000
0010
0000
0000
0100
0000
1000
0000
0000
0000
,
1000
0000
0010
0000
1000
0000
0000
0001
0000
0000
0010
0000
0001
0000
0000
0000
,
2000
0000
3002
0000
0203
0000
0310
0100
,
0001
0000
0010
0000
0001
0000
0000
0100
0000
0000
0010
0000
1000
0000
0000
0000
,
1000
0000
0010
0000
1000
0000
0000
0100
0000
0000
0010
0000
0001
0000
0000
0000
,
1000
0000
0010
0000
0100
0000
0000
0001
0000
0000
1000
0000
0001
0000
0000
0000
,
1000
0100
1000
0000
0001
0100
0001
0100
,
0002
0100
0000
0100
,
0203
0010
0000
0010
,
0320
1000
0000
1000
,
2030
0001
0000
3001
,
1000
0000
0100
1000
0000
0010
0100
0000
,
0001
0000
0100
0001
0000
0010
0100
0000
,
1000
0000
0010
0100
0000
0001
1000
0000
,
0100
0000
0010
0001
0000
1000
0010
0000
,
1000
0100
1000
0100
1000
0000
1001
0000
,
0001
0100
0001
0100
0001
0000
1001
0000
,
1000
0010
1000
0010
1000
0000
1001
0000
,
0001
0010
1000
0010
0001
1000
0001
0000
,
1000
0010
1000
0010
0100
0000
1001
0000
,
0001
0010
0001
0010
0100
0000
1001
0000
,
1000
0100
1000
0100
0010
0000
1001
0000
,
0001
0100
1000
0100
0001
1000
0001
0000
,
1000
0000
0000
1000
0000
0000
1000
0000
0000
1000
0000
0000
2000
0000
0000
0000
,
3001
0000
0000
0001
0000
0000
0001
0000
0000
0001
0000
0000
0002
0000
0000
0000
,
0103
0000
0000
0100
0000
0000
0100
0000
0000
0100
0000
0000
0100
0000
0000
0000
,
2002
0000
0000
0000
3003
1000
0001
0000
,
1000
0000
0000
0100
0000
0000
1000
0000
0000
0100
0000
0000
1000
0000
0001
0000
,
0100
0000
0000
0010
0000
0000
0100
0000
0000
0010
0000
0000
0100
0000
0001
0000
,
0010
0000
0000
0100
0000
0000
0010
0000
0000
0100
0000
0000
0010
0000
0001
0000
,
1000
0000
0000
0010
0000
0000
0100
0000
0000
0001
0000
0000
1000
0000
0001
0000
,
1000
0000
0000
0100
0000
0000
0010
0000
0000
0100
0000
0000
1000
0000
1000
0000
,
0001
0000
0000
0100
0000
0000
0010
0000
0000
0100
0000
0000
0001
0000
0001
0000
,
1000
0000
0000
0010
0000
0000
0001
0000
0000
0010
0000
0000
1000
0000
0001
0000
,
2000
0001
0002
3003
,
2000
0001
0100
0001
,
3002
1000
0100
1000
,
2003
0010
0100
0001
,
3001
0000
0000
0001
0000
0000
0100
0000
0000
0100
0000
0000
0010
0000
0000
0000
,
1000
0000
0100
0000
1000
0000
0000
1000
0010
0000
0100
0000
0001
0000
0000
0000
,
0001
0000
0010
0000
0001
0000
0000
0001
0100
0000
0010
0000
1000
0000
0000
0000
,
0001
0000
1000
0000
0001
0000
0000
1000
0100
0000
0010
0000
0100
0000
0000
0000
,
1000
0000
0100
0000
0010
0000
0001
0000
1000
0000
0000
0001
0000
0000
0001
0000
,
1000
0000
0010
0000
1000
0000
0000
0100
0000
0100
0010
0000
0001
0000
1000
0000
,
0001
0000
0100
0000
0001
0000
0000
0010
0000
0010
0100
0000
1000
0000
0001
0000
,
1000
0000
0010
0000
0100
0000
0000
0001
0000
0001
1000
0000
0001
0000
1000
0000
,
0001
0000
0010
0000
0100
0000
0000
1000
0000
1000
0001
0000
0100
0000
0010
0000
,
1000
0000
0100
0000
1000
0000
0000
0001
0000
0100
0010
0000
1000
0000
0001
0000
,
1000
0000
0010
0000
1000
0000
0000
0001
0000
1000
0100
0000
0010
0000
0001
0000
,
0100
0000
0010
0000
0100
0000
0000
0001
0000
1000
0100
0000
0010
0000
0001
0000
,
0100
0000
0010
0000
0100
0000
0010
0000
1000
0001
1000
0001
1000
0000
0000
0000
,
1000
0100
0001
1000
0010
0001
1000
0001
,
0100
0000
0010
0000
0000
1000
0000
0000
0100
0000
0010
0000
0001
0000
1000
0000
,
0001
0100
1000
0001
0010
1000
0001
1000
,
0100
0000
0010
0000
0000
0001
0000
0000
0100
0000
0010
0000
1000
0000
0001
0000
,
1000
0100
0001
1000
0010
0001
1000
0010
,
0001
0000
0010
0000
0000
1000
0000
0000
0001
0000
0010
0000
0100
0000
1000
0000
,
0002
0010
1000
0100
,
2003
0010
0001
3100
,
2002
0000
0000
0000
3003
0100
0010
0000
;

//--------------- dance-single - OrangeRight ----------------
#NOTES:
     dance-single:
     OrangeRight:
     Hard:
     13:
     0,0,0,0,0:
0000
0000
0000
0000
,
0000
0000
0000
0000
,
0000
0000
0000
0000
,
0000
0000
0000
0000
,
0000
0000
0000
0000
,
1000
0000
0100
0000
1000
0000
0000
0001
0000
0001
0100
0000
0010
0000
1000
0000
,
0001
0000
0100
0000
0001
0000
0000
1000
0000
1000
0100
0000
0010
0000
0001
0000
,
0100
0000
0010
0000
0100
0000
0000
0001
0000
1000
0100
0000
0010
0000
0001
0000
,
0100
0000
0010
0000
1000
0001
0000
0001
2000
0000
0000
0000
3001
0000
0000
0000
,
1000
0000
0010
0000
1000
0000
0100
1000
0000
0010
0100
0000
0001
0000
1000
0000
,
0001
0000
0010
0000
0001
0000
0100
0001
0000
0010
0100
0000
1000
0000
0001
0000
,
1000
0000
0100
0000
1000
0000
0010
0100
0000
0001
1000
0000
0100
0000
0010
0000
,
0001
0000
0000
0001
0100
0000
0000
0100
0010
0000
0000
1000
0000
0000
0001
0000
,
1000
0000
0100
0000
1000
0000
0001
0100
0000
0100
0010
0000
1000
0000
0001
0000
,
1000
0000
0010
0000
1000
0000
0001
0010
0000
0010
0100
0000
1000
0000
0001
0000
,
1000
0000
0010
0000
0100
0000
0001
0010
0000
0100
1000
0000
0001
0000
1000
0000
,
0001
0000
0100
0000
0010
0000
1000
0001
0000
0010
0000
0100
1000
0000
0001
0000
,
2000
0000
0010
0000
0000
0010
0000
0000
0100
0000
0000
0100
0000
0000
0010
0000
,
3002
0000
0010
0000
0000
0010
0000
0000
0100
0000
0000
0100
0000
0000
0010
0000
,
2003
0000
0001
0000
0000
0001
0000
0000
0010
0000
0000
0010
0000
0000
0100
0000
,
3002
0000
1000
0000
0000
1000
0000
0000
0010
0000
0000
0010
0000
0000
0100
0000
,
1003
0000
0100
0000
0010
0000
0001
0000
0100
0000
0001
0000
1000
0010
0000
0100
,
0001
0000
0010
0000
0100
0000
1000
0000
0010
0000
1000
0000
0001
0010
0000
0100
,
1000
0000
0001
0000
0100
0000
0001
0000
1000
0000
0010
0000
1000
0001
0000
0100
,
0010
0000
1000
0000
0100
0000
0010
0000
0001
0000
0100
0000
0001
0010
0000
0100
,
1000
0010
0001
0010
0100
0001
1001
0000
,
0001
0010
1000
0010
0100
1000
1001
0000
,
1000
0000
0100
0000
0010
0000
0100
0000
0001
0000
0100
0000
1100
0000
0001
0100
,
0001
0000
0100
0000
0010
0000
1000
0000
1000
0000
0100
0000
0010
0000
0001
1000
,
0001
0010
1000
0010
0100
1000
1001
0000
,
1000
0010
0001
0010
0100
0001
1001
0000
,
0001
0000
0100
0000
0010
0000
0100
0000
1000
0000
0100
0000
0101
0000
1000
0100
,
1000
0000
0100
0000
0010
0000
0001
0000
0001
0000
0100
0000
0010
0000
1000
0001
,
1000
0000
0100
1000
0000
0100
1000
0000
0100
1000
0000
0100
1000
0000
1000
0000
,
0001
0000
0100
0001
0000
0100
0001
0000
0100
0001
0000
0100
0001
0000
0001
0000
,
1000
0000
0001
1000
0000
0001
1000
0000
0001
1000
0000
0001
1000
0000
0001
0000
,
2002
0000
0000
0000
0000
0000
0000
0000
3003
0000
1000
0001
1000
0000
0000
0000
,
1000
0000
0010
1000
0000
0010
1000
0000
0001
0100
0000
0001
0100
0000
0001
0000
,
0010
0000
0001
0010
0000
0001
0010
0000
0100
1000
0000
0100
1000
0000
0001
0000
,
0100
0000
0010
0100
0000
0010
0100
0000
0001
1000
0000
0001
1000
0000
0001
0000
,
1000
0000
0100
0010
0000
0001
1000
0000
0010
0100
0000
0100
0001
0000
1000
0000
,
0001
0000
0010
0001
0000
1000
0001
0000
1000
0100
0000
1000
0001
0000
1000
0000
,
0010
0000
1000
0010
0000
1000
0001
0000
0100
0001
0000
1000
0001
0000
1000
0000
,
0100
0000
0010
0100
0000
0100
1000
0000
1000
0001
0000
0001
0100
0000
0010
0000
,
1000
0001
1000
0001
0100
0010
1000
0000
,
0100
1010
0100
0011
,
0010
0101
0010
1100
,
1000
0101
0001
1010
,
0010
0000
0000
1000
0000
0000
0100
0000
0000
0001
0000
0000
0100
0000
1000
0000
,
0010
0000
0100
0000
0001
0000
0010
0100
0010
0000
0001
0000
1000
0000
0010
0000
,
0100
0000
0010
0000
1000
0000
0100
0010
0100
0000
0010
0000
0001
0000
1000
0000
,
0010
0000
0100
0000
0001
0000
1000
0001
1000
0000
0100
0000
0010
0000
0001
0000
,
1000
0010
0000
0000
0010
0100
0000
0000
0100
0000
0000
0001
0000
0000
0001
0000
,
1000
0000
0100
0000
0001
0000
0100
1000
0000
0010
0100
0000
0001
0000
1000
0000
,
0001
0000
0010
0000
1000
0000
0010
0001
0000
0100
0010
0000
1000
0000
0001
0000
,
1000
0000
0100
0000
0001
0000
0100
0010
0000
0100
1000
0000
0001
0000
0100
0000
,
0010
0000
1000
0000
0100
0000
0010
0001
0000
0001
0100
0000
0010
0000
1000
0000
,
0001
0000
0100
0000
1000
0000
0100
0001
0000
0100
0010
0000
1000
0000
0100
0000
,
1000
0000
0010
0000
0001
0000
0010
1000
0000
0010
0100
0000
0001
0000
0010
0000
,
0001
0000
0100
0000
1000
0000
0100
0010
0000
0100
0001
0000
1000
0000
0100
0000
,
0010
0000
0001
0000
0100
0000
0010
1000
0010
1000
0100
0010
0001
1000
0001
0000
,
1000
0100
1000
0000
0010
0000
0100
0010
0100
0000
0001
0000
0010
0001
0010
0000
,
0001
0000
0100
0000
0010
1000
0000
1000
0100
0000
0100
0010
0000
0010
0001
0000
,
1000
0010
1000
0000
0100
0000
1000
0001
1000
0000
0001
0000
0100
0010
0100
0000
,
0001
0000
0100
0000
0001
0010
0000
0010
1000
0000
1000
0010
0000
0010
0001
0000
,
1000
0010
0100
0000
0001
0000
1000
0100
0010
0000
0001
0000
1000
0001
1000
0000
,
0001
0000
0100
0000
1000
0100
0000
0100
0001
0000
0001
0100
0000
0100
0010
0000
,
2000
0000
0010
0000
0000
0100
0000
0000
0001
0000
0000
0010
0000
0000
0100
0000
,
3002
0000
0100
0000
0000
0010
0000
0000
1003
0000
0001
0100
0000
0010
1000
0000
,
2002
0000
0000
0000
0000
0000
0000
0000
3003
0000
0100
0010
0100
0000
0000
0000
;

//--------------- dance-double - OrangeRight ----------------
#NOTES:
     dance-double:
     OrangeRight:
     Easy:
     7:
     0,0,0,0,0:
00000000
00000000
00000000
00000000
,
00000000
00000000
00000000
00000000
,
00000000
00000000
00000000
00000000
,
00000000
00000000
00000000
00000000
,
00000000
00000000
00000000
00000000
,
10000000
10000000
00010000
01000000
,
00001000
00001000
00010000
00000100
,
00001000
00001000
00000001
00000100
,
00000020
00000000
00000230
00000000
,
00000301
00001000
00000001
00000000
00000100
00000000
00000100
00000000
,
00000001
00001000
00000001
00000000
00000010
00000000
00000010
00000000
,
00000100
00001000
00000100
00000000
00010000
00000000
00001000
00000000
,
00100000
00010000
01000000
00010000
,
10000000
00010000
10000000
00000000
00100000
00000000
00100000
00000000
,
10000000
00010000
10000000
00000000
01000000
00000000
01000000
00000000
,
00100000
00010000
00100000
00000000
00001000
00000000
00010000
00000000
,
00000100
00000000
00001000
00000000
00000001
00001000
00000001
00000000
,
00002001
00000000
00000000
00000000
,
00003200
00000000
00000000
00000000
,
00020300
00000000
00000000
00000000
,
00032000
00000000
00000000
00000000
,
00103000
00000000
00000000
00010000
00000000
00000000
01000000
00000000
,
00001000
00000000
00000000
00010000
00000000
00000000
00000100
00000000
,
00001000
00000000
00000000
00000010
00000000
00000000
00000100
00000000
,
00000001
00000000
00000000
00001000
00000000
00000000
00000001
00000000
,
00001000
00001000
00000100
00010000
,
00001000
00001000
00100000
00010000
,
01000000
01000000
00100000
10000000
,
00010000
01000000
00010000
00000000
10000000
01000000
10000000
00000000
,
00010000
00010000
01000000
00001000
,
00010000
00010000
00000010
00001000
,
00000100
00000100
00000010
00000001
,
00001000
00000010
00001000
00000000
00000001
00000010
00000001
00000000
,
00002000
00000000
00000000
00003100
,
00020000
00000000
00000000
00031000
,
00200000
00000000
00000000
00310000
,
20020000
00000000
00000000
30030000
,
10000000
00000000
00010000
00000000
00100000
00000000
01000000
10000000
,
01000000
00000000
00100000
00000000
00001000
00000000
00010000
00001000
,
00010000
00000000
00000100
00000000
00001000
00000000
00000010
00000100
,
00000010
00000000
00001000
00000000
00000100
00000000
00001000
00000001
,
00001000
00000000
00000010
00000000
00000100
00000000
00000001
00001000
,
00000001
00000000
00000010
00000000
00000100
00000000
00001000
00000100
,
00010000
00000000
00001000
00000000
00100000
00000000
00010000
01000000
,
00200000
00000000
20000000
30300000
,
20000000
00000000
01000000
00000000
,
00100000
00000000
30010000
00000000
,
00020000
00000000
01000000
00000000
,
00130000
00010000
10000000
01000000
,
10000000
10000000
00010000
00100000
,
00001000
00001000
00010000
00000010
,
00001000
00001000
00000001
00000010
,
00000002
00000000
00002000
00003003
,
00000001
00000100
00000001
00000000
00000100
00000000
00000010
00000000
,
00001000
00000010
00001000
00000000
00000100
00000000
00010000
00000000
,
00001000
00010000
00001000
00000000
00100000
00000000
00010000
00000000
,
01000000
00010000
01000000
00000000
00100000
10000000
00100000
00000000
,
10000000
01000000
10000000
00000000
01000000
00000000
00100000
00000000
,
00010000
00100000
00010000
00000000
01000000
00000000
00001000
00000000
,
00010000
00001000
00010000
00000000
00000010
00000000
00001000
00000000
,
00000001
00001000
00000001
00000000
00001000
00000001
00001000
00000000
,
00000001
00001001
00001000
00001100
,
00000100
00000000
00010100
00000000
00010000
00001000
00010000
00000000
,
00001000
00101000
00100000
00110000
,
00010000
00000000
01010000
00000000
00010000
01000000
00100000
00000000
,
10000000
10010000
00010000
01010000
,
01000000
00000000
01001000
00000000
00001000
00010000
00001000
00000000
,
00021000
00000100
00001000
00031000
,
00012000
00100000
00010000
00013000
,
00022000
00000000
00000000
00033000
;

//--------------- dance-double - OrangeRight ----------------
#NOTES:
     dance-double:
     OrangeRight:
     Medium:
     11:
     0,0,0,0,0:
00000000
00000000
00000000
00000000
,
00000000
00000000
00000000
00000000
,
00000000
00000000
00000000
00000000
,
00000000
00000000
00000000
00000000
,
00000000
00000000
00000000
00000000
,
10000000
00000000
00010000
00000000
10000000
00000000
00000000
00010000
00000000
00000000
01000000
00000000
00001000
00000000
00000000
00000000
,
00010000
00000000
00001000
00000000
00010000
00000000
00000000
00000100
00000000
00000000
00001000
00000000
00000001
00000000
00000000
00000000
,
00001000
00000000
00000001
00000000
00001000
00000000
00000000
00000010
00000000
00000000
00000100
00000000
00000001
00000000
00001000
00000000
,
00000200
00020300
00002000
00033000
,
00001000
00000000
00100000
00000000
00001000
00000000
00000000
00010000
00000000
00000000
00000100
00000000
00010000
00000000
00000000
00000000
,
00001000
00000000
01000000
00000000
00001000
00000000
00000000
00010000
00000000
00000000
00000010
00000000
00001000
00000000
00000000
00000000
,
00000001
00000000
00000010
00000000
00000100
00000000
00000000
00001000
00000000
00000000
00000010
00000000
00000100
00000000
00000001
00000000
,
00002000
00003020
00020030
00032000
,
00013000
00000000
00000010
00000000
00010000
00000000
00000000
00001000
00000000
00000000
01000000
00000000
00001000
00000000
00000000
00000000
,
00010000
00000000
00000100
00000000
00010000
00000000
00000000
00001000
00000000
00000000
00100000
00000000
00010000
00000000
00000000
00000000
,
10000000
00000000
00100000
00000000
01000000
00000000
00000000
00010000
00000000
00000000
00100000
00000000
01000000
00000000
10000000
00000000
,
00010000
10000000
00010000
00000000
01000000
00100000
01000000
00100000
,
20000000
00010000
00010000
30010000
,
00020000
01000000
01000000
01030000
,
02000000
00001000
00001000
03001000
,
00002000
00010000
00010000
00013000
,
00020000
00000100
00001000
00030100
,
00000200
00001000
00000010
00001300
,
00002000
00000010
00000001
00000100
,
00003002
00000010
00001000
00000100
,
00001003
00000100
00001000
00000000
00000100
00000000
00010000
00000000
,
00001000
00010000
00001000
00000000
00100000
00000000
00010000
00000000
,
01000000
00010000
01000000
00000000
00100000
00000000
10000000
00000000
,
01000000
00100000
00010000
00000000
01000000
00100000
10000000
00000000
,
00010000
01000000
00010000
00000000
01000000
00000000
00001000
00000000
,
00010000
00001000
00010000
00000000
00000010
00000000
00001000
00000000
,
00000100
00001000
00000010
00000000
00000100
00000000
00000001
00000000
,
00001000
00000001
00000100
00000000
00000001
00001000
00000100
00000000
,
00001000
00000000
00000000
00001000
00000000
00000000
00000100
00000000
00000000
00000100
00000000
00000000
00020000
00000000
00000000
00000000
,
00031000
00000000
00000000
00001000
00000000
00000000
00100000
00000000
00000000
00100000
00000000
00000000
00020000
00000000
00000000
00000000
,
01030000
00000000
00000000
01000000
00000000
00000000
00100000
00000000
00000000
10000000
00000000
00000000
00020000
00000000
00000000
00000000
,
20030000
00000000
00000000
00000000
30010000
10000000
00010000
00000000
,
10000000
00000000
00000000
00100000
00000000
00000000
01000000
00000000
00000000
00010000
00000000
00000000
00100000
00000000
00000000
00000000
,
00001000
00000000
00000000
00100000
00000000
00000000
00010000
00000000
00000000
00100000
00000000
00000000
00001000
00000000
00000000
00000000
,
00010000
00000000
00000000
00000100
00000000
00000000
00001000
00000000
00000000
00000100
00000000
00000000
00010000
00000000
00000000
00000000
,
00000100
00000000
00000000
00001000
00000000
00000000
00000010
00000000
00000000
00000100
00000000
00000000
00000001
00000000
00001000
00000000
,
00000001
00000000
00000000
00000100
00000000
00000000
00000010
00000000
00000000
00001000
00000000
00000000
00000100
00000000
00000000
00000000
,
00010000
00000000
00000000
00000100
00000000
00000000
00001000
00000000
00000000
00000100
00000000
00000000
00010000
00000000
00000000
00000000
,
00001000
00000000
00000000
00100000
00000000
00000000
00010000
00000000
00000000
00100000
00000000
00000000
00001000
00000000
00000000
00000000
,
00020000
00000000
00002000
00033000
,
00001000
00100000
00010000
00100000
,
00001000
00010000
00000100
00010000
,
00001000
00100000
00010000
01000000
,
00100000
00000000
00000000
00100000
00000000
00000000
10000000
00000000
00000000
10000000
00000000
00000000
00010000
00000000
00000000
00000000
,
10000000
00000000
11000000
00000000
10000000
00010000
01000000
00000000
,
00010000
00000000
01010000
00000000
01000000
00001000
00010000
00000000
,
00001000
00000000
00011000
00000000
00010000
00000100
00001000
00000000
,
00000020
00000230
00000302
00002003
,
00003001
00000000
00000010
00000000
00000001
00000000
00000000
00000100
00000000
00000000
00000010
00000000
00001000
00000000
00000100
00000000
,
00010000
00000000
00001000
00000000
00010000
00000000
00000000
00001000
00000000
00000000
00100000
00000000
00010000
00000000
00100000
00000000
,
01000000
00000000
10000000
00000000
00010000
00000000
00000000
10000000
00000000
00000000
00100000
00000000
01000000
00000000
00010000
00000000
,
10000000
00000000
01000000
00000000
00100000
00000000
00000000
00010000
00000000
10000000
00010000
00000000
01000000
00000000
00100000
00000000
,
10000000
00000000
00010000
00000000
10000000
00000000
00000000
00100000
00000000
00000000
01000000
00000000
00010000
00000000
00100000
00000000
,
00001000
00000000
00010000
00000000
00001000
00000000
00000000
00010000
00000000
00000000
00000100
00000000
00001000
00000000
00000010
00000000
,
00000100
00000000
00000001
00000000
00001000
00000000
00000000
00000001
00000000
00000000
00000100
00000000
00000010
00000000
00001000
00000000
,
00000001
00000000
00001000
00000000
00000001
00000000
00001000
00000000
00000010
00000100
00000010
00000100
00000010
00000000
00000000
00000000
,
00001000
00000010
00000100
00000001
00000010
00000100
00001000
00000100
,
00010000
00001000
00100000
00010000
01000000
00100000
01000000
00100000
,
10000000
00100000
01000000
00010000
00100000
01000000
10000000
00010000
,
01000000
00001000
00010000
00000100
00001000
00000010
00001000
00000010
,
00000100
00000001
00000010
00000100
00001000
00000010
00001000
00000100
,
00010000
00001000
00100000
00010000
10000000
00010000
10000000
00010000
,
01000000
00000000
00100000
00000000
00000000
10000000
00000000
00000000
00010000
00000000
00000000
00100000
00000000
00000000
00001000
00000000
,
00010000
00000000
00000100
00000000
00000000
00001000
00000000
00000000
00000010
00000000
00000000
00000100
00000000
00000000
00000001
00000000
,
00002002
00000000
00000000
00000000
00003003
00001000
00000001
00000000
;

//--------------- dance-double - OrangeRight ----------------
#NOTES:
     dance-double:
     OrangeRight:
     Hard:
     13:
     0,0,0,0,0:
00000000
00000000
00000000
00000000
,
00000000
00000000
00000000
00000000
,
00000000
00000000
00000000
00000000
,
00000000
00000000
00000000
00000000
,
00000000
00000000
00000000
00000000
,
10000000
00000000
00010000
00000000
10000000
00000000
00000000
00100000
00000000
01000000
00010000
00000000
00100000
00000000
00001000
00000000
,
00010000
00000000
00000100
00000000
00010000
00000000
00000000
00000010
00000000
00001000
00000001
00000000
00000010
00000000
00000100
00000000
,
00001000
00000000
00000001
00000000
00001000
00000000
00000000
00000010
00000000
00000100
00000010
00000000
00001000
00000000
00000001
00000000
,
00002000
00000001
00000200
00003300
,
00000100
00000000
00010000
00000000
00001000
00000000
00100000
00001000
00000000
00010000
00000100
00000000
00010000
00000000
00001000
00000000
,
01000000
00000000
00001000
00000000
00010000
00000000
00000010
00010000
00000000
00001000
01000000
00000000
00001000
00000000
00010000
00000000
,
00000100
00000000
00010000
00000000
00001000
00000000
00100000
00010000
00000000
01000000
00100000
00000000
10000000
00000000
00010000
00000000
,
10000000
00000000
00000000
10000000
00100000
00000000
00000000
00100000
01000000
00000000
00000000
01000000
00010000
00000000
01000000
00000000
,
00001000
00000000
00010000
00000000
00000100
00000000
00001000
00000010
00000000
00001000
00000100
00000000
00010000
00000000
00000010
00000000
,
00001000
00000000
00000100
00000000
00010000
00000000
00001000
00100000
00000000
00010000
01000000
00000000
00100000
00000000
01000000
00000000
,
00010000
00000000
00100000
00000000
01000000
00000000
10000000
00100000
00000000
01000000
00010000
00000000
00100000
00000000
01000000
00000000
,
10000000
00000000
01000000
00000000
00100000
00000000
00010000
01000000
00000000
00100000
00000000
10000000
00010000
00000000
10000000
00000000
,
02000000
00000000
00100000
00000000
00000000
00100000
00000000
00000000
00010000
00000000
00000000
00010000
00000000
00000000
00100000
00000000
,
23000000
00000000
00010000
00000000
00000000
00100000
00000000
00000000
01000000
00000000
00000000
00100000
00000000
00000000
00010000
00000000
,
30200000
00000000
01000000
00000000
00000000
01000000
00000000
00000000
10000000
00000000
00000000
10000000
00000000
00000000
01000000
00000000
,
10300000
00000000
00010000
00000000
00010000
00100000
00000000
00100000
00001000
00000000
00001000
00010000
00000000
00010000
00000010
00000000
,
00000200
00000000
00000010
00000000
00000000
00000010
00000000
00000000
00001000
00000000
00000000
00001000
00000000
00000000
00000010
00000000
,
00000302
00000000
00001000
00000000
00000000
00000010
00000000
00000000
00000100
00000000
00000000
00000010
00000000
00000000
00001000
00000000
,
00000023
00000000
00000100
00000000
00000000
00000100
00000000
00000000
00000001
00000000
00000000
00000001
00000000
00000000
00000100
00000000
,
00000031
00000000
00001000
00000000
00001000
00000010
00000000
00000010
00010000
00000000
00010000
00001000
00000000
00001000
00100000
00000000
,
00010000
00100000
10000000
00100000
00010000
00000000
10010000
00000000
,
10000000
00100000
00010000
00100000
10000000
00000000
10010000
00000000
,
10000000
01000000
00010000
01000000
00100000
00000000
01100000
00000000
,
00100000
00001000
00010000
00000100
00001000
00000010
00000100
00000010
,
00001000
00000100
00000001
00000100
00000010
00000000
00000011
00000000
,
00000001
00000100
00001000
00000100
00000010
00000000
00001010
00000000
,
00000010
00010000
00001000
00100000
00010000
00000000
01010000
00000000
,
00010000
00000000
01000000
00000000
10000000
00000000
01000000
00000000
00010000
00000000
00000000
00100000
00000000
00000000
01000000
00000000
,
10000000
00000000
01000000
10000000
00000000
01000000
10000000
00000000
01000000
10000000
00000000
01000000
10000000
00000000
00100000
00000000
,
01000000
00000000
00010000
01000000
00000000
00010000
01000000
00000000
00010000
01000000
00000000
00010000
01000000
00000000
00001000
00000000
,
00010000
00000000
00001000
00010000
00000000
00001000
00010000
00000000
00001000
00010000
00000000
00001000
00010000
00000000
00000100
00000000
,
00002000
00000000
00000000
00000000
00003020
00000000
00000000
00000000
00000130
00000000
00000001
00001000
00000001
00000000
00000000
00000000
,
00000001
00000000
00000100
00000001
00000000
00000100
00000001
00000000
00001000
00000001
00000000
00001000
00000001
00000000
00000010
00000000
,
00000100
00000000
00001000
00000100
00000000
00001000
00000100
00000000
00010000
00000100
00000000
00010000
00000100
00000000
00010000
00000000
,
00001000
00000000
00010000
00001000
00000000
00010000
00001000
00000000
01000000
00001000
00000000
01000000
00001000
00000000
01000000
00000000
,
00010000
00000000
01000000
00010000
00000000
01000000
00010000
00000000
01000000
00100000
00000000
00100000
10000000
00000000
00010000
00000000
,
10000000
00000000
00100000
01000000
00000000
01000000
00100000
00000000
10000000
00010000
00000000
00010000
10000000
00000000
00010000
00000000
,
01000000
00000000
00010000
01000000
00000000
01000000
00001000
00000000
00001000
00010000
00000000
00010000
00000100
00000000
00001000
00000000
,
00000001
00000000
00001000
00000010
00000000
00000100
00000001
00000000
00000010
00000100
00000000
00001000
00000001
00000000
00000100
00000000
,
00000010
00001000
00000100
00000010
00000001
00001000
00000001
00000000
,
00001000
00001100
00000100
00010100
,
00010000
00011000
00001000
00101000
,
00100000
00110000
00010000
01010000
,
01000000
00000000
00000000
00010000
00000000
00000000
00100000
00000000
00000000
10000000
00000000
00000000
00100000
00000000
00010000
00000000
,
01000000
00000000
00100000
00000000
01000000
00000000
00010000
00100000
00010000
00000000
00100000
00000000
00001000
00000000
00010000
00000000
,
00000100
00000000
00001000
00000000
00000010
00000000
00000100
00000001
00000100
00000000
00000010
00000000
00001000
00000000
00000001
00000000
,
00000010
00000000
00000100
00000000
00000010
00000000
00000001
00000100
00000001
00000000
00000100
00000000
00000010
00000000
00001000
00000000
,
00000100
00010000
00000000
00000000
00010000
00001000
00000000
00000000
00001000
00000000
00000000
01000000
00000000
00000000
00010000
00000000
,
10000000
00000000
00100000
00000000
01000000
00000000
00010000
00100000
00000000
00010000
01000000
00000000
00001000
00000000
00010000
00000000
,
00000100
00000000
00001000
00000000
00000010
00000000
00000100
00000001
00000000
00000010
00000001
00000000
00000100
00000000
00000010
00000000
,
00001000
00000000
00000100
00000000
00010000
00000000
00001000
00010000
00000000
00010000
00001000
00000000
00100000
00000000
00010000
00000000
,
01000000
00000000
00001000
00000000
00010000
00000000
00000100
00001000
00000000
00000010
00000100
00000000
00000001
00000000
00001000
00000000
,
00000001
00000000
00000010
00000000
00001000
00000000
00000010
00000001
00000000
00000100
00000010
00000000
00001000
00000000
00000100
00000000
,
00010000
00000000
00001000
00000000
01000000
00000000
00010000
00100000
00000000
01000000
10000000
00000000
00010000
00000000
10000000
00000000
,
00010000
00000000
00100000
00000000
10000000
00000000
00100000
00010000
00000000
01000000
00100000
00000000
10000000
00000000
00010000
00000000
,
10000000
00000000
01000000
00000000
00100000
00000000
00010000
01000000
00010000
01000000
00100000
10000000
00100000
10000000
00010000
00000000
,
10000000
00100000
00010000
10000000
01000000
00010000
00100000
00001000
,
00010000
00000000
00000100
00000000
00001000
00000010
00000000
00000100
00000001
00000000
00001000
00000100
00000000
00000010
00000001
00000000
,
00001000
00000010
00000001
00001000
00000100
00000001
00001000
00000001
,
00000010
00000000
00000100
00000000
00001000
00000100
00000000
00010000
00001000
00000000
01000000
00010000
00000000
01000000
00100000
00000000
,
10000000
00100000
10000000
00000000
00010000
00000000
01000000
00010000
01000000
00000000
00010000
00000000
00100000
00001000
00100000
00000000
,
00001000
00000000
00010000
00000000
00000100
00001000
00000000
00000010
00000100
00000000
00000001
00001000
00000000
00000100
00000010
00000000
,
00000002
00000000
00000010
00000000
00000000
00000100
00000000
00000000
00001000
00000000
00000000
00000010
00000000
00000000
00000100
00000000
,
00002003
00000000
00000001
00000000
00000000
00000010
00000000
00000000
00003100
00000000
00001000
00000010
00000000
00000100
00000001
00000000
,
00002002
00000000
00000000
00000000
00000000
00000000
00000000
00000000
00003003
00000000
00000100
00000010
00000100
00000000
00000000
00000000
;
