#TITLE:Worry About You;
#SUBTITLE:;
#ARTIST:2AM Club;
#TITLETRANSLIT:;
#SUBTITLETRANSLIT:;
#ARTISTTRANSLIT:;
#GENRE:;
#CREDIT:;
#MUSIC:Worry About You.mp3;
#BANNER:;
#BACKGROUND:;
#CDTITLE:;
#SAMPLESTART:25.917;
#SAMPLELENGTH:15.000;
#SELECTABLE:YES;
#OFFSET:2.235;
#BPMS:0.000=85.250;
#STOPS:;
#DISPLAYBPM:85.000;
#BGCHANGES:2.235=Worry About You.avi=1.000=1=0=0,
99999=-nosongbg-=1.000=0=0=0 // don't automatically add -songbackground-
;
#FGCHANGES:;

//--------------- dance-single - fallingasleep ----------------
#NOTES:
     dance-single:
     fallingasleep:
     Beginner:
     1:
     0,0,0,0,0:
0000
0000
0000
0000
,
0000
0000
0000
0000
,
1000
0000
0000
0000
,
0010
0000
0010
0000
,
0010
0000
0000
0000
,
0100
0000
0001
0000
,
0001
0000
0000
0000
,
0010
0000
0100
0000
,
1000
0000
1000
0000
,
0010
0000
0100
0000
,
1001
0000
0000
0000
,
1000
0000
0000
0000
,
0010
0000
0010
0000
,
0100
0100
0100
0000
,
1001
0000
0000
0000
,
0001
0000
0000
0000
,
0010
0000
0010
0000
,
0100
0100
0100
0000
,
1000
0000
0000
1000
,
1000
0000
0010
0000
,
1000
0000
0000
0000
,
0001
0000
0010
0000
,
0100
0000
0010
0000
,
0001
0000
0000
0000
,
0100
0000
0010
0000
,
1000
0000
0100
0000
,
1000
0000
0010
0000
,
1001
0000
0000
0000
,
0100
0100
1001
0000
,
0000
0000
1000
0000
,
0000
0000
0100
0000
,
0100
0000
0100
0000
,
0010
0000
1001
0000
,
0000
0000
0001
0000
,
0000
0000
0100
0000
,
0100
0000
0010
0010
,
0010
0000
1001
0000
;

//--------------- dance-single - fallingasleep ----------------
#NOTES:
     dance-single:
     fallingasleep:
     Easy:
     4:
     0,0,0,0,0:
0000
0000
0000
0000
,
0000
0000
0000
0000
,
1000
0000
0010
0010
,
0010
0000
0100
0000
,
0001
0010
0001
0010
,
0100
0000
1000
0001
,
1000
0010
1000
0100
,
0010
0000
0100
1000
,
0010
0010
0010
0000
,
0100
0000
0001
0000
0010
0010
0010
0000
,
1001
1000
0010
0100
,
0001
0010
0100
0010
,
0100
0100
1000
0001
,
0100
0010
0100
0000
0010
0100
0010
0000
,
1001
1000
0010
0100
,
0001
1000
0100
0010
,
0100
1000
0100
0000
0010
0100
0010
0000
,
0001
0000
1000
0000
0001
0100
0001
0000
,
1000
1000
1000
0001
,
0110
0000
1000
0000
0001
0100
0001
0000
,
0020
0000
0030
0000
0100
1000
0100
0000
,
0010
0001
1000
0010
,
0100
1000
0100
0000
0002
0000
0013
0000
,
0001
0000
0100
0000
0010
1000
0010
0000
,
0100
0000
0001
0000
0010
0100
0020
0000
,
0031
1000
0010
0010
,
0100
0001
0100
0000
0010
0000
1000
0000
,
0100
0000
0000
0100
0000
0000
0010
0000
0000
0000
0020
0000
0000
0000
0000
0000
,
0030
0000
0100
0100
1001
0000
0001
0000
,
0100
0010
0100
0000
0001
0000
1000
0000
,
0100
0010
0100
0000
1000
0000
0010
0000
,
0100
0000
0001
0000
0010
0100
0010
0000
,
0100
0010
0100
0000
1001
0000
1000
0000
,
0010
0100
0001
1000
,
0100
0000
0010
0000
0100
1000
0100
0000
,
0010
0001
0010
0000
0001
0000
0100
0000
,
0010
1000
0010
0000
1001
0000
0000
0000
;

//--------------- dance-single - fallingasleep ----------------
#NOTES:
     dance-single:
     fallingasleep:
     Medium:
     6:
     0,0,0,0,0:
0000
0000
0000
0000
,
0000
0000
0000
0000
,
0001
0000
1000
0000
0010
0100
0001
1000
,
0100
0100
0010
0000
0001
1000
0010
0010
,
0000
0000
0100
0000
0110
0000
0000
0001
0000
1001
0000
0000
1000
0000
0100
0000
,
0010
0010
0110
0000
1000
0001
0100
0000
,
1000
1000
0100
0000
0001
0010
0100
1000
,
0010
0100
0110
0000
0001
1000
0001
0000
,
0010
0100
1000
0000
0010
0100
0001
0100
,
1000
0100
0010
0000
1000
0001
1001
0000
,
0110
0000
0001
0010
1100
0000
0011
0000
,
1001
0000
1000
0010
0101
0000
1010
0000
,
0001
1000
0100
0000
0010
0100
1000
0000
,
0010
0010
0010
0100
0001
1000
0100
0000
,
0110
0000
1000
0001
0101
0000
1010
0000
,
0001
0000
1000
0100
0110
0000
1001
0000
,
1000
0010
1000
0001
0100
0001
0010
0000
,
0100
0100
1000
0001
0100
0010
1000
0000
,
0100
0100
0100
0100
,
0010
0001
0010
0000
0100
1000
0001
0000
,
0100
0000
0100
0000
0000
0000
0000
0010
0000
1000
0000
0000
0001
0000
1001
0000
,
0000
1000
0100
0000
1000
0010
1000
0000
,
0001
0100
0001
0010
0100
0010
0001
0000
,
1001
0000
1000
0000
0010
0100
0001
0000
,
0010
0100
0001
0100
1000
0001
1000
0010
,
0100
0100
0001
0000
0010
0100
1000
0000
,
0001
0100
0001
0010
0100
0100
1000
0000
,
2002
0000
0000
3003
0000
0000
0020
0000
0000
0030
0000
0000
0200
0000
0000
0000
0000
0000
0000
0000
0320
0000
0000
0000
0000
0000
0000
0000
0030
0000
0000
0000
,
1000
0000
0000
0000
0001
0010
0001
0000
1001
0000
0000
0000
0001
0000
0100
0000
,
0010
1000
0001
0000
0010
0000
0100
0010
,
0100
1000
0001
0000
1010
0000
0001
0100
,
0001
0010
0100
0000
0010
0010
0010
0000
,
0100
1000
0010
0000
1001
0000
1000
0010
,
1000
0100
0010
0000
0110
0000
0100
1000
,
0001
0000
0100
0000
0010
0000
0000
0000
1000
0000
0000
0100
0000
0100
0000
0100
,
0000
0010
0001
0000
0100
0010
1000
0000
,
0001
0000
0010
0100
1001
0000
0000
0000
;

//--------------- dance-single - fallingasleep ----------------
#NOTES:
     dance-single:
     fallingasleep:
     Hard:
     10:
     0,0,0,0,0:
0000
0000
0000
0000
,
0000
0000
0000
0000
,
0001
0000
0001
0000
0001
0000
0000
1000
0000
0010
0000
1000
0000
0100
0000
1000
,
0001
0000
0100
0000
0001
0000
0000
1000
0000
1000
0000
0010
1000
0000
0002
0000
,
0003
0000
0010
0000
0110
0000
0000
0100
0000
0110
0000
1000
0000
0001
0000
0100
,
0001
0000
0022
0000
0033
0000
0000
1000
0000
1100
0000
2002
0000
0000
3003
0001
,
0100
0000
0010
0000
1000
0000
0000
0100
0000
0100
0000
0010
0000
0001
0000
0100
,
0010
0000
2002
0000
3003
0000
0000
1000
0000
0100
0000
0010
0001
0000
0101
0000
,
1000
0000
0010
0000
2002
0000
3003
1000
0000
0100
0000
0110
0000
1001
0000
0001
,
0100
0010
1000
0000
1001
0000
1000
0100
0010
0010
0000
0001
1000
0001
0100
0100
,
0110
0000
0001
1000
2200
3300
0022
0033
,
0010
0000
0110
1000
2002
3003
0220
0330
,
1001
0000
1000
0010
0000
0100
0000
0202
0000
0000
0303
0000
1000
0000
0000
0100
,
0010
0000
1000
0001
0000
0000
0010
0100
0000
1000
0100
0000
0010
0001
1000
0000
,
1001
0000
0000
0001
0100
0000
0010
0000
2020
0000
3030
0000
0202
0000
0303
0000
,
0001
0000
1000
0100
0220
0330
2002
3003
,
1000
0010
0000
0100
0000
0001
0000
0020
0100
0000
0000
0000
0031
0000
0000
1000
,
0001
1000
0000
0010
0100
0001
0000
0010
0100
0000
0100
0000
1000
0001
0100
0000
,
0010
0000
0000
0000
0010
0000
0000
0010
1000
0000
0100
0010
0001
0000
0000
0000
,
0100
0000
0100
0000
0110
0000
0000
0001
0000
1000
0000
0010
0000
1000
0000
0001
,
1000
0000
0100
0000
0110
0000
0000
0010
0000
0001
0000
1000
0001
0000
0101
0000
,
0010
0000
0010
0000
1010
0000
0000
1000
0000
0001
0000
0010
0100
0010
0000
0001
,
1000
0000
0101
0000
0010
0000
0000
0001
0000
1000
0100
0000
0010
0100
1000
0000
,
0010
0000
0010
0000
2001
0000
0000
0200
0000
3300
0000
0010
0000
0001
0000
1000
,
0000
0001
0000
0202
0000
0303
0000
1000
0000
0010
0000
1000
0100
0000
0110
0000
,
0010
0000
0010
0000
1001
0000
0001
0100
0000
0010
0000
1000
0000
0001
0000
0010
,
0100
0000
2200
0000
0000
3300
0000
0000
1000
0000
0010
0000
0100
0001
0100
0000
,
1010
0000
0000
1001
0000
0000
1100
0000
0000
0000
0020
0000
0000
0000
0030
0000
,
0011
0000
0000
1000
0001
1000
0001
0000
0110
0000
0000
0000
1001
0000
0001
0000
,
2200
3300
0022
0033
0101
0000
1000
0010
,
0220
0000
0330
0000
2002
0000
3003
0000
1100
0000
0001
0010
0000
0100
0000
2200
,
0000
0000
3300
0000
0011
0000
0000
0001
1000
0000
0010
0100
0001
0000
0010
0100
,
0000
1000
0010
0000
0100
0001
0010
0000
1001
0000
0000
0000
1100
0000
0010
0000
,
0202
0303
2200
3300
0110
0000
0001
1000
,
2020
0000
3030
0000
0022
0000
0033
0000
0001
1000
0000
0010
0000
0100
0000
0220
,
0000
0000
0000
0000
0330
0000
0000
0001
1000
0001
0000
0011
0000
1100
0000
1000
,
0010
0000
0100
0001
0010
0100
0010
0000
1001
0000
0000
0000
0000
0000
0000
0000
;
