#TITLE:Worlds Apart (Impact Remix);
#SUBTITLE:;
#ARTIST:Jarvis feat. Taya;
#TITLETRANSLIT:;
#SUBTITLETRANSLIT:;
#ARTISTTRANSLIT:;
#GENRE:;
#CREDIT:;
#MUSIC:Worlds Apart (Impact Remix).mp3;
#BANNER:;
#BACKGROUND:;
#CDTITLE:;
#SAMPLESTART:45.248;
#SAMPLELENGTH:11.294;
#SELECTABLE:YES;
#OFFSET:-0.072;
#BPMS:0.000=170.000
,60.000=85.000
,62.000=170.000
,122.000=85.000
,124.000=170.000
,184.000=85.000
,186.000=170.000
;
#STOPS:;
#BGCHANGES:;
#FGCHANGES:;

//--------------- dance-single - eataninja ----------------
#NOTES:
     dance-single:
     eataninja:
     Beginner:
     5:
     0,0,0,0,0:
0000
0000
0000
0000
,
0000
0000
0000
0000
,
0000
0000
0000
0000
,
0000
0000
0000
0000
,
1000
0000
1000
0000
,
0001
0000
0001
0000
,
0100
0000
0100
0000
,
0010
0000
0200
0300
,
0001
0000
0001
0000
,
1000
0000
1000
0000
,
0100
0000
0100
0000
,
0020
0000
0031
0000
,
1000
1000
1000
0000
,
0010
0010
0010
0000
,
0100
0100
0100
0000
,
0000
0000
0010
0000
,
1000
0000
0100
0000
,
0010
0000
0001
1000
,
0001
0000
0010
0100
,
0010
0000
0001
0000
,
1000
0000
0010
0000
,
0100
0000
0002
0000
,
0013
0000
2000
0000
,
3010
0000
0001
0000
,
1000
0000
0100
0000
,
0010
0000
0001
1000
,
0001
0000
0100
0010
,
0100
0000
0200
0000
,
1300
0000
0200
0000
,
0301
0000
1000
0000
,
0001
0000
0000
0000
0020
0000
0000
0030
,
0001
1000
0010
0000
,
0010
1000
0001
0000
,
1000
0001
0010
0000
,
0010
0001
1000
0000
,
0010
0000
0200
0000
,
0302
0000
0013
0000
,
0100
0000
0100
0000
,
1000
0001
1000
1000
,
0001
1000
0100
0000
,
0100
1000
0001
0000
,
1000
0001
0100
0000
,
0100
0001
1000
0000
,
0100
0010
0100
0000
,
1000
0001
1000
0000
,
0010
0000
0100
0000
,
0002
0003
1000
0100
,
0010
0000
0001
0100
,
0010
0000
0010
0100
,
0001
0000
0010
0100
,
1000
0000
0010
0000
,
0001
0000
0010
0000
,
1000
0000
0001
0001
,
0010
0000
0001
0001
,
2000
3001
1000
0010
,
0100
0000
0100
0010
,
1000
0000
0001
0010
,
0100
0000
0100
0010
,
0001
0000
1000
0010
,
1000
0000
0001
0010
,
0001
0000
1000
0000
,
0100
0000
0010
0010
,
0001
1000
0020
0000
,
0030
0000
0000
0000
;

//--------------- dance-single - eataninja ----------------
#NOTES:
     dance-single:
     eataninja:
     Easy:
     7:
     0,0,0,0,0:
0000
0000
0000
0000
,
0000
0000
0000
0000
,
0000
0000
0000
0000
,
0000
0000
0000
0000
,
1000
0010
0001
0010
,
0200
0000
0320
0000
,
1030
0001
0010
0100
,
1000
0001
0200
0300
,
0010
0010
1000
0001
,
0010
0010
0001
1000
,
0010
0100
0001
0010
,
2000
3020
0032
1003
,
0010
0010
0100
0100
,
0001
0001
1000
1000
,
0100
0010
0001
0200
,
0000
0310
1000
0001
,
1000
1000
0001
0010
,
0100
1000
0010
0001
,
0010
1000
0100
0001
,
0100
1000
0010
0010
,
0100
0001
0010
0010
,
0100
1000
0020
0031
,
0002
0013
2000
3100
,
0010
0000
0001
1000
,
0010
0010
1000
0001
,
0010
0010
0100
0001
,
0100
1000
0010
0001
,
0010
0000
1000
0000
0200
0000
0000
0310
,
0000
0000
0001
0000
0200
0000
0000
0310
,
0000
0000
1000
0000
0010
0000
0000
0100
,
0000
0001
2000
3002
,
0013
0100
0010
0001
,
0100
1000
0100
0001
,
0010
0100
1000
0010
,
0100
0001
0010
0010
,
0100
0001
0100
1000
,
0010
0001
0010
1000
,
0200
0310
0002
1003
,
0010
0010
0100
0100
,
0001
1000
0001
0010
,
1000
0010
0001
0100
,
0010
0010
1000
2000
,
3200
0302
0203
1300
,
0020
0230
0001
0301
,
0020
0230
1000
1300
,
0001
0100
1000
0100
,
0002
0000
1003
1000
,
0100
0010
0001
0001
,
0100
0010
0001
0010
,
1000
0100
0001
0100
,
1000
0010
0100
0100
,
0001
1000
0100
0100
,
1000
0001
0100
0010
,
1000
0100
0020
0001
,
0032
0000
1003
0010
,
1000
0001
0010
0100
,
1000
0001
0100
0001
,
1000
0200
0302
0203
,
2300
3002
1003
0010
,
0100
0100
0001
0010
,
0100
0100
1000
0001
,
0100
0010
1000
0200
,
0302
0203
2300
0000
,
3000
0000
0000
0000
;

//--------------- dance-single - eataninja ----------------
#NOTES:
     dance-single:
     eataninja:
     Medium:
     10:
     0,0,0,0,0:
0000
0000
0000
0000
,
0000
0000
0000
0000
,
0000
0000
0000
0000
,
0000
0000
0000
0000
,
1000
0000
0010
0000
0100
0000
0001
0010
,
0100
1000
0001
1000
,
0010
0100
0100
0001
,
0001
0000
0010
0000
0100
0100
1000
0000
,
0001
0000
0001
0000
1000
0000
0010
0100
,
0001
0010
0100
1000
,
0001
0001
1000
0020
,
0032
0023
2030
3001
,
0010
0100
0010
0000
0001
1000
0001
0000
,
0100
0010
0100
0000
0001
1000
0001
0000
,
1000
0100
0100
0000
0001
0100
0100
0000
,
2000
3002
1003
0010
,
0100
0000
0100
1000
0100
0000
0001
0000
,
0010
0100
1000
0000
0002
0000
0013
0000
,
2000
0000
3010
0000
0001
1000
0001
0000
,
1000
0010
1000
0000
0001
0000
0100
0000
,
1000
0000
0100
0010
1000
0000
0100
0000
,
0010
0001
2000
0010
,
3002
0010
2003
0100
,
3001
0001
0100
0000
0010
0000
1000
0000
,
0100
0000
0100
0001
0100
0000
0010
0000
,
0001
0001
1000
0000
0010
0000
0001
0000
,
0010
0000
0100
0000
0001
1000
0001
0000
,
0010
0100
1000
0000
0001
0000
0001
0100
,
1000
0000
0100
0000
0010
0000
0001
0010
,
1000
0000
0100
0000
0001
0000
0100
1000
,
0001
0100
0020
0230
,
0301
0000
1000
0100
0020
0000
0031
0100
,
0010
0000
0001
0010
2000
0000
3100
0010
,
0001
1000
0001
0000
0010
0100
1000
0000
,
1000
0001
1000
0000
0010
0100
0001
0000
,
1000
0100
0010
0001
1000
0000
1000
0000
,
0001
0100
0010
1000
0001
0000
0001
0000
,
2000
3020
0032
0013
,
0100
0100
0001
0000
1000
0001
0010
0100
,
1000
0000
0001
0100
2000
0000
3100
0010
,
1000
0000
0100
0001
0200
0000
0310
0001
,
2000
0000
3010
0000
0100
0100
0100
0000
,
0002
0000
0023
0000
0230
0000
0301
0100
,
1000
0001
1000
0000
0010
0100
0001
0000
,
0001
1000
0001
0000
0010
0100
1000
0000
,
0001
1000
0001
1000
0100
0010
0001
0000
,
2000
0000
3020
0000
0130
0000
0100
0001
,
0010
0100
1000
0000
0100
0000
0100
0010
,
0001
1000
0010
0000
0100
0000
1000
0000
,
0100
0000
0001
0000
0010
0000
0100
0010
,
0100
0010
0001
0000
1000
0000
1000
0010
,
0100
0001
1000
0000
0001
0000
0001
0010
,
0100
1000
0001
0000
1000
0010
1000
0000
,
0001
0010
0001
0000
0010
0000
0010
0000
,
0200
0000
0300
0000
1000
0000
1000
0010
,
0001
0000
0010
0100
0001
0000
0010
0100
,
1000
0001
0100
0010
,
0100
0002
0023
2030
,
3020
0000
0130
0000
1000
1000
0001
0000
,
0010
0010
0100
0000
1000
1000
0001
0000
,
0100
0100
0010
0000
1000
0000
0001
0010
,
0100
1000
0001
0000
0100
0000
0020
0000
,
0032
0023
2030
0000
,
3000
0000
0000
0000
;

//--------------- dance-single - eataninja ----------------
#NOTES:
     dance-single:
     eataninja:
     Hard:
     13:
     0,0,0,0,0:
0000
0000
0000
0000
,
0000
0000
0000
0000
,
0000
0000
0000
0000
,
0000
0000
0000
0000
,
1000
0010
1000
0010
0100
0000
0001
0010
,
0200
0302
0203
1300
,
0010
0100
0001
0000
0010
0100
1000
0000
,
0001
0001
1000
1000
0010
0001
1000
0000
,
0100
0010
0100
0010
1000
0001
1000
0000
,
0100
0010
0100
0010
0001
1000
0001
0000
,
0100
1000
0100
0000
0100
0001
0020
0000
,
0230
2300
3020
0130
,
0100
0001
0010
0100
1000
0001
1000
0001
,
0010
0100
1000
0001
0100
0010
0100
0010
,
1000
0001
0010
0100
1000
0010
0100
0001
,
2000
0000
0010
3010
1000
0001
0010
0100
,
0000
0100
0010
0100
1000
0001
0100
0010
,
0000
0010
0100
0010
1000
0001
0010
0200
,
0000
1000
1300
0000
0001
0100
1000
0100
,
0001
0010
1000
0010
0001
1000
0010
0100
,
0000
0100
0010
0100
0001
1000
0100
0010
,
0000
0010
0100
0010
0002
1000
1003
0000
,
2000
0010
3010
0000
0010
0100
0001
0010
,
0100
0100
1001
0000
0001
0100
0010
0100
,
0000
0100
0001
0100
0010
1000
0100
0010
,
0000
0010
0001
0010
0100
1000
0001
2000
,
0000
0010
3010
0000
1000
0010
0001
0010
,
1000
0100
0001
0100
0020
0000
0001
0032
,
0000
1000
2003
0000
3020
0000
0001
0032
,
0000
1000
2003
0000
3200
0000
0301
0020
,
0000
0130
0002
0000
0203
0000
2300
0000
,
3001
0000
0000
0100
0000
0000
0010
0000
1000
0000
0000
0001
0000
0000
0010
0000
,
0100
0000
0000
0001
0000
0000
0100
0000
1000
0000
0001
0000
1000
0000
1000
0000
,
0010
0000
0000
0100
0000
0000
0001
0000
0010
0000
0000
0100
0000
0000
1000
0000
,
0010
0000
0000
0100
0000
0000
0010
0000
2000
0000
0000
0000
3001
0000
0010
0000
,
1000
0000
0000
0010
0000
0000
0100
0000
1000
0000
0000
0001
0000
0000
0100
0000
,
0010
0000
0000
0001
0000
0000
0010
0000
0100
0000
0000
0001
0000
0000
1000
0000
,
0100
0000
0000
0010
0000
0000
0001
0000
0100
0000
0000
0010
0000
0000
1000
0000
,
0001
0010
0100
0100
1000
0010
0100
0001
,
1001
0000
0000
0100
0000
0000
0010
0000
0001
0000
0000
0100
0000
0000
0010
0000
,
0001
0000
0000
0010
0000
0000
1000
0000
0001
0000
0001
0000
0010
0000
0100
0000
,
1000
0000
0000
0010
0000
0000
0100
0000
0001
0000
0000
1000
0000
0000
0100
0000
,
0001
0000
0000
0100
0000
0000
0010
0000
0001
0000
0000
1000
0000
0000
0010
0000
,
0100
0100
0001
1000
0100
0010
0001
1000
,
0010
0010
0100
0001
1000
0100
1000
0001
,
0100
1000
0100
0001
0010
1000
0010
0001
,
0200
0000
0010
0310
1000
0010
1000
0010
,
0100
0001
0100
0001
1000
0100
1000
0100
,
0010
1000
0010
0001
1000
0010
0100
0010
,
1000
0001
0010
0100
0001
0100
1000
0010
,
0200
0000
0302
0000
1003
0100
1000
0001
,
0100
0010
0100
0001
1000
0010
0100
0001
,
1000
0100
0010
0001
0100
1000
0100
0001
,
0010
0100
0001
0100
2000
0000
3002
0000
,
0103
0000
0101
0000
1000
0001
1000
0001
,
0010
0100
0010
0100
1000
0010
0100
0001
,
1000
1000
0100
0010
0001
1000
0010
0001
,
0010
0100
0001
0010
0200
0000
2300
0000
,
3020
0000
0230
0000
1300
0001
1000
0100
,
0001
1000
0001
0010
1000
0001
1000
0010
,
0001
1000
0001
0100
0010
1000
0100
0010
,
0001
1000
0010
0100
0001
0000
0020
0000
,
2030
3200
0302
0000
,
0003
0000
0000
0000
;

//--------------- dance-single - eataninja ----------------
#NOTES:
     dance-single:
     eataninja:
     Challenge:
     16:
     0,0,0,0,0:
0000
0000
0000
0000
,
0000
0000
0000
0000
,
0000
0000
0000
0000
,
0000
0000
0000
0000
,
1000
0100
0010
0001
0100
0010
0100
0001
,
1000
0010
0100
0001
0010
0100
0010
0001
,
1000
0010
0100
0001
1000
0100
0010
0001
,
1000
0000
0010
0000
1000
0000
0010
0000
0100
0001
0100
0001
2000
0000
0000
0000
,
3001
0010
0100
1000
0001
1000
0010
0001
,
0010
1000
0100
0010
0001
1000
0010
1000
,
0001
0010
0100
1000
0010
0100
1000
0100
,
0010
0100
0001
0010
0100
0100
1000
1000
,
0001
0100
0001
0000
1000
0000
0010
0000
0100
0010
0100
0000
0001
0000
1000
0000
,
0001
0010
0001
0000
1000
0000
0100
0000
1000
0001
1000
0000
0010
0000
0100
0000
,
0001
0100
0001
0100
0010
1000
0010
1000
0001
0010
0001
0010
0100
1000
0100
1000
,
0002
0000
0000
0000
0100
0100
0100
0103
0010
0000
1000
0000
0100
0000
0010
0001
,
1000
0010
0100
0001
1000
0100
0001
0100
,
1000
0000
0010
0000
0001
0000
0010
0000
0100
0000
0001
0000
1000
0000
0001
0010
,
0100
0000
1000
0000
0001
0000
1000
0010
0100
0000
0001
0000
0100
0000
0010
1000
,
0001
0010
0100
1000
0001
0100
0010
0100
,
1000
0000
0001
0000
0010
0000
0100
0001
1000
0000
0001
0000
1000
0000
0100
0000
,
0010
0000
1000
0000
0010
0000
0001
0000
1000
0000
0010
0000
0100
0000
0001
1000
,
0001
0000
0010
0000
0100
0000
1000
0001
1000
0000
0010
0000
0001
0000
0010
0000
,
1000
0010
1000
0010
0200
0000
0000
0000
0310
0000
1000
0000
0001
0000
0010
0100
,
1000
0100
0010
0001
1000
0010
0001
0010
,
0100
0000
0001
0000
1000
0000
0001
0000
0010
0000
0100
0000
1000
0000
0001
0010
,
0100
0000
1000
0000
0010
0000
0100
0001
1000
0000
0001
0000
0010
0000
0100
0010
,
0100
1000
0001
0100
1000
0100
0010
1000
,
0001
0010
0100
0001
1000
0010
0100
1000
,
0010
0100
0001
1000
0100
0010
0100
0010
,
1000
0010
0001
0100
0020
0000
0130
0110
,
1000
0000
0001
0010
0000
0001
0000
0010
0100
0000
1000
0001
0000
0100
0010
0000
,
1000
0000
0001
0010
0000
0001
0000
0100
0010
0000
1000
0001
0010
0000
0100
0000
,
1000
0000
0000
0100
0000
1000
0000
0010
0001
0000
0000
0010
0000
1000
0100
0000
,
0001
0000
0000
0100
0000
1000
0000
0010
0001
0000
0010
0100
0000
0001
1000
0000
,
0100
0000
0010
0000
0001
0000
1000
0000
0010
0100
0002
0000
1000
0000
1003
0000
,
0100
0010
0002
0000
1000
0000
1003
0000
0100
0000
0000
0010
0000
0001
1000
0000
,
0100
0001
0100
0010
0001
0100
1000
0100
,
0010
0000
1000
0001
0010
0000
0100
0010
0001
0000
0100
0010
1000
0000
0010
0000
,
0100
0000
0010
1000
0000
0001
0000
1000
0100
0000
0010
0001
0000
1000
0010
0000
,
1000
0000
0001
1000
0000
0001
0000
0100
0010
0000
1000
0001
1000
0000
0100
0000
,
0010
0000
0000
0001
0000
1000
0000
0010
0100
0000
0010
0000
0002
0000
0013
0000
,
2000
3100
0020
0031
0200
0310
1000
1000
,
0001
0010
0001
0010
0001
0000
0000
0000
0010
0000
0100
0000
1000
0000
0001
0000
,
0100
0010
0100
0010
0100
0000
0000
0000
0001
0000
0100
0000
0010
0000
1000
0000
,
0001
0010
0001
0000
1000
0000
0010
0000
0100
0010
0100
0000
0010
0000
1000
0000
,
0200
0000
0000
0000
0001
0000
1300
0000
1000
0000
0001
0010
0000
0100
0000
1000
,
0001
0000
0100
0010
0000
1000
0001
0000
0010
0000
0100
1000
0000
0010
0000
0100
,
0001
0000
1000
0010
1000
0000
0100
0000
0001
0000
0100
0010
0000
0001
0000
0100
,
1000
0000
0100
0010
0000
1000
0001
0000
0100
0000
0000
0010
0000
1000
0000
0100
,
1000
0001
1000
0001
0100
0000
0000
0000
0100
0000
0001
1000
0000
0010
0000
0100
,
0001
0000
1000
0100
0000
0010
0100
0000
1000
0000
0010
0100
0000
1000
0000
0100
,
0010
0000
1000
0001
0000
0010
0100
1000
0001
0000
0100
0010
0000
0001
0000
0010
,
1000
0000
0001
1000
0000
0100
0010
0001
2000
0000
0000
0000
3020
0000
0000
0000
,
0130
0000
0000
0000
0101
0000
0000
0000
1000
0000
0001
1000
0000
0100
0000
0010
,
0001
0000
0100
0010
0000
1000
0001
1000
0100
0000
0010
0001
0000
1000
0000
0010
,
1000
0000
0100
0010
0001
0000
0100
0000
1000
0000
0100
0010
0000
1000
0000
0100
,
0001
0000
0100
0010
0000
0001
1000
0001
0200
0000
1300
0000
0200
0000
0301
0000
,
1000
0010
1000
0010
0100
0000
0000
0000
1000
0000
0000
0001
0000
0010
0000
0100
,
1000
0000
0000
0001
0000
0010
0100
0000
0001
0000
0000
1000
0000
0100
0000
0010
,
0001
0000
0100
0010
0000
1000
0001
1000
0010
0000
0100
0010
0000
1000
0000
0100
,
0010
0000
0001
1000
0000
0010
0100
0000
0002
0000
0000
0000
0023
0000
0000
0000
,
2030
3200
0302
0000
,
0003
0000
0000
0000
;
