#TITLE:Wind Me Up;
#SUBTITLE:;
#ARTIST:Smashtrax;
#TITLETRANSLIT:;
#SUBTITLETRANSLIT:;
#ARTISTTRANSLIT:;
#GENRE:;
#CREDIT:;
#MUSIC:Wind Me Up.mp3;
#BANNER:;
#BACKGROUND:;
#CDTITLE:;
#SAMPLESTART:31.720;
#SAMPLELENGTH:10.549;
#SELECTABLE:YES;
#OFFSET:-0.072;
#BPMS:0.000=182.000;
#STOPS:;
#BGCHANGES:;
#FGCHANGES:;

//--------------- dance-single - MEGAtive ----------------
#NOTES:
     dance-single:
     MEGAtive:
     Beginner:
     1:
     0,0,0,0,0:
0000
0000
0000
0000
,
0000
0000
0000
0000
,
0000
0000
0000
0000
,
0000
0000
0000
0000
,
1000
0000
0000
0000
,
0000
0000
0000
0000
,
0001
0000
0000
0000
,
0000
0000
0000
0000
,
1000
0000
0000
0000
,
0000
0000
0100
0000
,
0010
0000
0000
0000
,
0000
0000
0001
0000
,
0100
0000
0000
0000
,
0000
0000
0010
0000
,
1000
0000
0000
0000
,
0100
0000
0100
0000
,
0100
0000
0000
0000
,
1000
0000
0010
0000
,
1000
0000
0000
0000
,
0001
0000
0010
0000
,
0001
0000
0000
0000
,
1000
0000
0100
0000
,
1000
0000
0000
0000
,
0001
0000
0100
0000
,
0002
0000
0003
0000
,
2000
0000
3000
0000
,
0200
0000
0000
0000
,
0310
0000
0000
0000
,
0002
0000
0003
0000
,
0200
0000
0300
0000
,
0020
0000
0000
0000
,
1030
0000
0000
0000
,
2000
0000
3000
0000
,
0200
0000
0300
0000
,
0020
0000
0000
0000
,
0031
0000
0000
0000
,
2000
0000
3000
0000
,
0020
0000
0030
0000
,
2000
0000
0000
0000
,
0000
0000
0000
0000
,
3002
0000
0000
0000
,
0000
0000
0000
0000
,
0103
0000
0000
0000
,
0000
0000
0000
0000
,
0001
0000
0000
0000
,
0000
0000
0000
0000
,
0010
0000
0000
0000
,
0000
0000
0000
0000
,
0100
0000
0000
0000
,
0000
0000
0000
0000
,
1000
0000
0000
0000
,
0000
0000
0010
0000
,
0100
0000
0000
0000
,
0000
0000
0001
0000
,
0010
0000
0000
0000
,
0000
0000
0100
0000
,
1000
0000
0000
0000
,
0010
0000
0010
0000
,
0010
0000
0000
0000
,
1000
0000
0100
0000
,
1000
0000
0000
0000
,
0001
0000
0100
0000
,
0001
0000
0000
0000
,
1000
0000
0010
0000
,
1000
0000
0000
0000
,
0001
0000
0010
0000
,
0002
0000
0003
0000
,
2000
0000
3000
0000
,
0020
0000
0000
0000
,
0130
0000
0000
0000
,
0002
0000
0003
0000
,
0020
0000
0030
0000
,
0200
0000
0000
0000
,
1300
0000
0000
0000
,
2000
0000
3000
0000
,
0020
0000
0030
0000
,
0200
0000
0000
0000
,
0301
0000
0000
0000
,
2000
0000
3000
0000
,
0200
0000
0300
0000
,
2000
0000
0000
0000
,
0000
0000
0000
0000
,
3002
0000
0000
0000
,
0000
0000
0000
0000
,
0023
0000
0000
0000
,
0000
0000
0000
0000
,
0030
0000
0000
0000
;

//--------------- dance-single - MEGAtive ----------------
#NOTES:
     dance-single:
     MEGAtive:
     Easy:
     6:
     0,0,0,0,0:
0000
0000
0000
0000
,
0000
0000
0000
0000
,
0000
0000
0000
0000
,
0000
0000
0000
0000
,
1000
0000
0000
0000
1000
0000
0000
1000
,
0000
0000
0000
0000
,
0002
0000
0000
0000
,
0000
0000
0000
0000
,
1003
0100
0010
0100
,
0000
0100
0000
0000
1001
0000
0000
0000
,
0001
0100
0010
0100
,
0000
0100
0000
0000
1001
0000
0000
0000
,
0001
0010
0100
0010
,
0000
0000
1001
0000
,
1000
0010
0100
0010
,
0000
1001
0000
0000
1001
0000
0000
0000
,
1000
0010
0100
0010
,
0000
0010
0000
0000
1001
0000
0000
0000
,
0001
0010
0100
0010
,
0000
0010
0000
0000
1001
0000
0000
0000
,
0001
0100
0010
0100
,
0000
0000
1001
0000
,
1000
0100
0010
0100
,
0000
1001
0000
0000
1001
0000
0000
0000
,
2000
0000
3001
0010
,
0000
0010
0000
0000
1001
0000
0000
0000
,
1000
0010
0100
0001
,
0000
0100
0000
0000
1001
0000
0000
0000
,
0001
0010
0100
1000
,
0000
0010
0100
0000
,
0001
0100
0010
1000
,
0100
0000
0100
0000
,
2000
0000
3001
0100
,
0000
0100
0000
0000
1001
0000
0000
0000
,
1000
0100
0010
0001
,
0000
0010
0000
0000
1001
0000
0000
0000
,
0001
0100
0010
1000
,
0000
0100
0010
0000
,
0002
0003
0020
0030
,
2000
3000
0020
0030
,
0002
0003
0200
0300
,
0020
0030
2000
3000
,
0001
0000
0000
0000
0001
0000
0000
0001
,
0000
0000
0000
0000
,
1000
0000
0000
0000
1000
0000
0000
1000
,
0000
0000
0000
0000
,
0100
0000
0000
0000
0100
0000
0000
0100
,
0000
0000
0000
0000
,
0020
0000
0000
0000
,
0000
0000
0000
0000
,
0031
0100
0010
0100
,
0000
0100
0000
0000
1001
0000
0000
0000
,
1000
0100
0010
0100
,
0000
0100
0000
0000
1001
0000
0000
0000
,
1000
0010
0100
0010
,
0000
0000
1001
0000
,
0001
0010
0100
0010
,
0000
1001
0000
0000
1001
0000
0000
0000
,
0001
0010
0100
0010
,
0000
0010
0000
0000
1001
0000
0000
0000
,
1000
0010
0100
0010
,
0000
0010
0000
0000
1001
0000
0000
0000
,
1000
0100
0010
0100
,
0000
0000
1001
0000
,
0001
0100
0010
0100
,
0000
1001
0000
0000
1001
0000
0000
0000
,
0002
0000
1003
0010
,
0000
0010
0000
0000
1001
0000
0000
0000
,
0001
0010
0100
1000
,
0000
0100
0000
0000
1001
0000
0000
0000
,
1000
0010
0100
0001
,
0000
0010
0100
0000
,
1000
0100
0010
0001
,
0100
0000
0100
0000
,
0002
0000
1003
0100
,
0000
0100
0000
0000
1001
0000
0000
0000
,
0001
0100
0010
1000
,
0000
0010
0000
0000
1001
0000
0000
0000
,
1000
0100
0010
0001
,
0000
0100
0010
0000
,
2000
3000
0020
0030
,
0002
0003
0020
0030
,
2000
3000
0200
0300
,
0020
0030
0002
0003
,
0200
0000
0000
0000
,
0000
0000
0000
0000
,
0300
0000
0000
0000
;

//--------------- dance-single - MEGAtive ----------------
#NOTES:
     dance-single:
     MEGAtive:
     Medium:
     9:
     0,0,0,0,0:
0000
0000
0000
0000
,
0000
0000
0000
0000
,
0000
0000
0000
0000
,
0000
0000
0000
0000
,
1000
0000
1000
0000
1000
0000
0000
0010
,
0000
0000
0000
0100
,
0002
0000
0000
0000
,
0000
0000
0000
0000
0000
0003
0000
0001
,
1000
0010
0100
0101
,
0000
1001
0000
0000
1100
0000
0000
0100
,
1000
0000
0010
0000
0100
0000
0001
0020
,
0000
0130
0020
0000
0031
1000
0000
1000
,
0001
0010
0100
1100
,
0000
0000
1001
0000
0001
0100
0000
0100
,
0001
0010
0100
2000
,
3010
0200
0000
0000
0301
0020
0000
0000
,
0031
0010
0100
0110
,
0000
1001
0000
0000
1010
0000
0000
1000
,
0001
0000
0100
0000
0010
0000
0100
0002
,
0000
0013
0200
0000
1300
0001
0000
0000
,
1000
0010
0100
0110
,
0000
0000
1001
0000
1000
0100
0000
0010
,
0100
1000
0010
0200
,
0301
0020
0000
0000
0130
0020
0000
0000
,
0032
0000
0203
0000
2300
0000
3100
0010
,
0000
1010
0000
0000
1001
0000
0001
0000
,
0010
0010
0010
0100
,
0010
0000
0001
1000
0001
0000
0100
0000
,
0001
0000
0010
0000
1000
0000
0010
0100
,
0000
0000
1100
0000
1000
0001
0000
0001
,
0100
0100
0100
0010
,
0100
0000
0001
1000
0010
0000
0100
0000
,
0001
0000
0100
0000
1000
0000
0100
0010
,
0000
1010
0000
0000
1001
0000
0001
0000
,
0010
0010
0010
0100
,
0010
0000
0001
1000
0001
0200
0000
0000
,
0301
0000
0010
0000
1000
0000
0010
0100
,
0000
0000
1100
0000
1000
0010
0100
0000
,
0020
0032
0023
2030
,
3020
0032
0023
2030
,
3200
0302
0203
2300
,
3200
0320
0032
2003
,
3010
0000
0010
0000
0010
0000
0000
1010
,
0000
2000
0000
0000
0000
0000
0000
3001
,
0010
0000
0010
0000
0010
0000
0000
0011
,
0000
0002
0000
0000
0000
0000
0000
1003
,
0100
0000
0100
0000
0100
0000
0000
1100
,
0000
2000
0000
0000
0000
0001
0001
0000
,
3002
0000
0000
0000
,
0000
0000
0000
0000
0000
0003
0000
0000
,
0001
0010
0100
1100
,
0000
1001
0000
0000
0101
0000
0000
0100
,
0001
0000
0010
0000
0100
0000
1000
0020
,
0000
0130
0020
0000
1030
0001
0000
0001
,
1000
0010
0100
0101
,
0000
0000
1001
0000
1000
0100
0000
0100
,
1000
0010
0100
0002
,
0013
0200
0000
0000
1300
0020
0000
0000
,
1030
0010
0100
0110
,
0000
1001
0000
0000
0011
0000
0000
0001
,
1000
0000
0100
0000
0010
0000
0100
2000
,
0000
3010
0200
0000
0301
1000
0000
0000
,
0001
0010
0100
0110
,
0000
0000
1001
0000
0001
0100
0000
0010
,
0100
0001
0010
0200
,
1300
0020
0000
0000
0130
0020
0000
0000
,
2030
0000
3200
0000
0302
0000
0103
0010
,
0000
0011
0000
0000
1001
0000
1000
0000
,
0010
0010
0010
0100
,
0010
0000
1000
0001
1000
0000
0100
0000
,
1000
0000
0010
0000
0001
0000
0010
0100
,
0000
0000
0101
0000
0001
1000
0000
1000
,
0100
0100
0100
0010
,
0100
0000
1000
0001
0010
0000
0100
0000
,
1000
0000
0100
0000
0001
0000
0100
0010
,
0000
0011
0000
0000
1001
0000
1000
0000
,
0010
0010
0010
0100
,
0010
0000
1000
0001
1000
0200
0000
0000
,
1300
0000
0010
0000
0001
0000
0010
0100
,
0000
0000
0101
0000
0001
0010
0100
0000
,
0020
2030
3020
0032
,
0023
2030
3020
0032
,
0203
2300
3200
0302
,
0203
0320
2030
3002
,
0023
0000
0000
0000
,
0000
0000
0000
0000
,
0030
0000
0000
0000
;

//--------------- dance-single - MEGAtive ----------------
#NOTES:
     dance-single:
     MEGAtive:
     Hard:
     12:
     0,0,0,0,0:
0000
0000
0000
0000
,
0000
0000
0000
0000
,
0000
0000
0000
0000
,
0000
0000
0000
0000
,
1000
0000
1000
0000
1000
0000
0000
1010
,
0000
0000
0000
0000
0000
0100
0001
0000
,
0010
0000
0010
0000
0010
0000
0000
0200
,
0000
0000
0000
0000
,
1300
0000
0100
0000
0110
0000
0010
0002
,
0000
0103
0010
1000
0001
0000
0010
0000
,
0100
0000
0010
0000
0011
0000
0001
2000
,
0000
3010
0100
0010
1000
0001
0000
0001
,
1000
0000
0010
0000
1010
0000
1000
0200
,
0000
0310
0001
1000
0010
0100
0000
0100
,
0001
1000
1010
0010
,
0100
0001
1000
0000
0100
1000
0000
1000
,
0001
0000
0010
0000
0110
0000
0100
1000
,
0001
0000
0100
0001
1000
0000
0100
0000
,
0010
0000
0001
0000
1001
0000
1000
0010
,
0100
0000
0010
0100
0001
0000
0010
0000
,
0100
1000
1010
0010
,
0100
0001
1000
0000
0100
0010
0100
0000
,
1000
1000
1100
0100
,
1000
0010
0100
0000
0010
0100
0001
1000
,
0002
0000
0013
0100
1000
0000
0010
0002
,
0000
0013
0100
0010
1000
0000
0100
0010
,
0100
0000
1000
0000
0001
0000
0100
0010
,
1000
0000
0100
0010
0000
0002
0000
0000
,
0103
0000
0010
0000
1000
0000
0100
0002
,
0000
0103
1000
0001
1000
0000
0010
0100
,
0001
0000
0001
0000
0101
0000
0100
0010
,
1000
0001
1000
0200
0000
1300
0010
0100
,
0001
0000
0010
0000
0001
0000
0100
2000
,
0000
3100
0010
0100
0001
0000
0010
0100
,
0010
0000
0001
0000
1000
0000
0010
0100
,
0001
0000
0010
0100
0000
2000
0000
0000
,
3010
0000
0100
0000
0001
0000
0010
2000
,
0000
3010
0001
1000
0001
0100
0010
0000
,
2000
0010
3002
0010
,
2003
0010
3002
0010
,
2003
0100
3002
0100
,
2003
3200
0320
0032
,
1003
0000
1000
0000
1010
0000
0010
0100
,
0000
0100
0001
1000
0001
0010
0000
0010
,
0001
0000
0001
0000
0011
0000
0010
0100
,
0010
0001
0000
0000
0100
0010
0000
1000
,
1000
0000
1000
0000
1010
0000
0010
0100
,
0000
0100
0001
1000
0001
0010
0000
0010
,
0001
0000
0001
0000
0011
0000
0010
0100
,
0000
0100
2000
0000
0000
0000
0000
3010
,
1000
0000
0001
0000
0011
0000
0010
0200
,
0000
0310
0001
1000
0020
0000
0100
0000
,
1030
0000
0010
0000
0110
0000
0100
0001
,
0000
0001
0010
0100
0010
0001
0000
1000
,
0010
0000
0100
0000
0101
0000
0001
1000
,
0000
1000
0100
0020
0100
0000
0031
0000
,
1000
0001
0100
0020
0000
0000
0031
0000
,
0010
0100
0001
0000
1000
0000
0001
0000
,
0010
0100
0010
0100
2000
0000
3010
0100
,
0002
0000
0013
2000
0000
0000
3010
0000
,
0100
1000
0100
1000
0002
0000
0103
0010
,
1000
0100
0001
0100
,
0010
0001
0010
0001
2000
0000
3010
0000
,
0001
0010
0001
0010
0100
0000
0001
0000
,
2000
0100
0001
3020
,
0130
0001
1000
0000
0100
1000
0001
0000
,
2000
0000
3010
0100
0001
0000
0010
2000
,
0000
3010
0100
0010
0001
0000
1000
0010
,
0200
0010
0001
0310
,
2000
0000
3100
0002
0000
0000
1003
0010
,
0100
0000
1000
0000
0001
0000
0100
2000
,
0000
3100
0010
0100
0001
0000
1000
0100
,
0020
0100
0001
0130
,
2000
0000
3010
0002
0000
0000
1003
0100
,
0010
0000
1000
0000
0001
0000
0010
2000
,
0000
3010
0100
0010
0001
0000
1000
0010
,
0200
0010
0001
0310
,
2000
0000
3100
0002
0000
0000
1003
0010
,
0100
0000
1000
0000
0001
0000
0100
2000
,
0000
3100
0010
0100
0001
1000
0001
0000
,
0200
0001
0320
1000
,
0230
0001
0320
2030
,
3200
1000
0320
0001
,
0230
2300
3002
0203
,
0320
0000
0000
0000
,
0000
0000
0000
0000
,
0030
0000
0000
0000
;

//--------------- dance-single - aboutblank ----------------
#NOTES:
     dance-single:
     aboutblank:
     Challenge:
     12:
     0,0,0,0,0:
0000
0000
0000
0000
,
0000
0000
0000
0000
,
0000
0000
0000
0000
,
0000
0000
0000
0000
,
1100
0000
0010
0000
0101
0000
0001
1000
,
0000
MMMM
0000
MMMM
0000
MMMM
0000
MMMM
,
0011
0000
0100
0000
1010
0000
1000
0001
,
0000
0100
0000
0100
0010
0000
1000
0001
,
1000
0000
1000
0100
0010
0000
0010
0002
,
0000
0203
0000
0301
1000
0010
MMMM
0010
,
0001
0000
1000
0000
0101
0000
0001
0020
,
0000
0130
1000
0100
1000
0010
MMMM
0010
,
0001
0000
1000
0000
0011
0000
0010
0200
,
0000
2300
0000
3001
1000
0010
MMMM
0010
,
0001
0000
1000
0001
2000
0000
3100
0000
,
0001
0010
MMMM
0000
1000
0100
MMMM
0000
,
0110
0000
1001
0000
0110
0000
1000
0200
,
0001
0000
0010
0000
1300
0010
MMMM
0010
,
0001
0000
1010
0000
0101
0000
0001
0020
,
1000
0000
0100
0000
0031
0100
MMMM
0100
,
1000
0000
1100
0000
0011
0000
1000
0020
,
0001
0000
0100
0000
1030
0100
MMMM
0100
,
0001
0000
1000
0001
0010
0000
0100
0000
,
1000
0010
MMMM
0000
0001
0100
MMMM
0000
,
0110
0000
1000
0010
0002
0000
0013
0200
,
0000
0301
1000
0001
0010
0100
MMMM
0100
,
0010
0000
1010
0000
0011
0000
1000
0002
,
0000
0103
0001
1000
0100
0010
MMMM
0010
,
0100
0000
1100
0000
0101
0000
0001
0020
,
0000
0130
1000
0100
0010
0001
MMMM
0001
,
0010
0000
1010
0000
0101
0000
0001
1000
,
0001
0100
MMMM
0000
1000
0010
MMMM
0000
,
1001
0000
0110
0000
1001
0000
1000
0020
,
0000
0031
0010
0100
0001
0010
MMMM
0010
,
0001
0000
1010
0000
0101
0000
1000
0200
,
0000
0310
0000
0010
0001
1000
MMMM
1000
,
0001
0000
0110
0000
1001
0000
1000
0020
,
0000
0031
1000
0100
0001
0010
0100
0000
,
1100
MMMM
1010
MMMM
,
0011
MMMM
0101
MMMM
,
1010
MMMM
0101
0000
,
1000
0001
0100
0000
0001
1000
0100
0000
,
0110
0000
0001
0000
1010
0000
0100
0001
,
0000
MMMM
0000
MMMM
0000
MMMM
0000
MMMM
,
0110
0000
1000
0000
0101
0000
0010
1000
,
0000
MMMM
0000
MMMM
0000
MMMM
0000
MMMM
,
0011
0000
0100
0000
1010
0000
1000
0001
,
0000
MMMM
0000
MMMM
0000
MMMM
0000
MMMM
,
1010
0000
0100
0000
0011
0000
1000
0002
,
0000
0203
0000
0310
1000
0001
1000
0100
,
0010
0000
1010
0000
0011
0000
1000
0002
,
0000
0203
0000
0310
1000
0010
MMMM
0010
,
0001
0000
0101
0000
1010
0000
0010
2000
,
0000
3200
0000
0310
0001
0100
MMMM
0100
,
1000
0000
1001
0000
1100
0000
1000
0200
,
0000
0302
0000
1003
0010
0100
MMMM
0100
,
0001
0000
0001
1000
0020
0000
0130
0000
,
0001
0010
MMMM
0000
1000
0100
MMMM
0000
,
0001
0010
0001
0010
0100
0000
1000
0001
,
0100
MMMM
1000
0001
0100
MMMM
1000
0001
,
0100
0010
1000
0010
0100
0000
0001
1000
,
0100
MMMM
0001
1000
0100
MMMM
0001
1000
,
0100
0010
0100
0010
0001
0000
0010
0001
,
0100
MMMM
0010
0001
0100
MMMM
0010
0001
,
0100
0000
0001
1000
0020
0000
0130
0000
,
0001
1000
MMMM
0000
1000
0001
MMMM
0000
,
0011
0000
0010
0100
2000
0000
3010
0200
,
0000
0301
0010
0001
1000
0010
MMMM
0010
,
1000
0000
0011
0000
1100
0000
1000
0020
,
0000
0230
0000
0301
0010
0100
MMMM
0100
,
0010
0000
0110
0000
1001
0000
0001
2000
,
0000
3100
0001
0100
0010
0001
MMMM
0001
,
0010
0000
1010
0000
0101
0000
0001
0010
,
0001
0100
MMMM
0000
1000
0010
MMMM
0000
,
0110
0000
0001
1000
0001
0000
1000
0200
,
0000
0310
0001
0010
0100
1000
MMMM
1000
,
0100
0000
0101
0000
0011
0000
0001
0020
,
0000
0230
0000
1300
0100
0001
MMMM
0001
,
0100
0000
0011
0000
1010
0000
0010
0200
,
0000
0301
1000
0001
0010
0100
1000
0000
,
0101
MMMM
1100
MMMM
,
1010
MMMM
0011
MMMM
,
1100
MMMM
0011
MMMM
,
0001
1000
0010
0000
1000
0001
0100
0000
,
0220
0000
0000
0000
,
0330
0000
0000
0000
;
