#TITLE:Wildest Dream;
#SUBTITLE:;
#ARTIST:Smashtrax;
#TITLETRANSLIT:;
#SUBTITLETRANSLIT:;
#ARTISTTRANSLIT:;
#GENRE:;
#CREDIT:;
#MUSIC:40. Wildest Dream.mp3;
#BANNER:;
#BACKGROUND:;
#CDTITLE:;
#SAMPLESTART:0.000;
#SAMPLELENGTH:0.000;
#SELECTABLE:YES;
#OFFSET:1.814;
#BPMS:0.000=254.000;
#STOPS:;
#BGCHANGES:;
#FGCHANGES:;

//--------------- dance-single - aboutblank ----------------
#NOTES:
     dance-single:
     aboutblank:
     Beginner:
     4:
     0,0,0,0,0:
0000
0000
0000
0000
,
0000
0000
0000
0000
,
0000
0000
0000
0000
,
0000
0000
0000
0000
,
0000
0000
0000
0000
,
0000
0000
0000
0000
,
1000
0000
0000
0000
,
0000
0000
0000
0000
,
1000
0000
0000
0000
,
0000
0000
0000
0000
,
0001
0000
0000
0000
,
0000
0000
0000
0000
,
0001
0000
0000
0000
,
0000
0000
0000
0000
,
0100
0000
0000
0000
,
0000
0000
0000
0000
,
0100
0000
0000
0000
,
0000
0000
0000
0000
,
0010
0000
0000
0000
,
0000
0000
0000
0000
,
0010
0000
0000
0000
,
0000
0000
0000
0000
,
1000
0000
0000
0000
,
0000
0000
0000
0000
,
1000
0000
0000
0000
,
0000
0000
0000
0000
,
0001
0000
0000
0000
,
0000
0000
0000
0000
,
0001
0000
0000
0000
,
0000
0000
0000
0000
,
0010
0000
0000
0000
,
0000
0000
0000
0000
,
1001
0000
0000
0000
,
0000
0000
0000
0000
,
1000
0000
1000
0000
,
1000
0000
0000
0000
,
0001
0000
0000
0000
,
1000
0000
0000
0000
,
0001
0000
0001
0000
,
0001
0000
0000
0000
,
0010
0000
0000
0000
,
0100
0000
0000
0000
,
0010
0000
0010
0000
,
0010
0000
0000
0000
,
0100
0000
0000
0000
,
1000
0000
0000
0000
,
0001
0000
1000
0000
,
0001
0000
0000
0000
,
0100
0000
0000
0000
,
0100
0000
0000
0000
,
0010
0000
0000
0000
,
1000
0000
0000
0000
,
0001
0000
0001
0000
,
0001
0000
0000
0000
,
0100
0000
0000
0000
,
0001
0000
0000
0000
,
1000
0000
1000
0000
,
1000
0000
0000
0000
,
0010
0000
0000
0000
,
1000
0000
0000
0000
,
0100
0000
0000
0000
,
0100
0000
0100
0000
,
0010
0000
0000
0000
,
0010
0000
0010
0000
,
0001
0000
1000
0000
,
0010
0000
0110
0000
,
0000
0000
0000
0000
,
0000
0000
0000
0000
,
0001
0000
0000
0000
,
0000
0000
0000
0000
,
0001
0000
0000
0000
,
0000
0000
0000
0000
,
1000
0000
0000
0000
,
0000
0000
0000
0000
,
1000
0000
0000
0000
,
0000
0000
0000
0000
,
0010
0000
0000
0000
,
0000
0000
0000
0000
,
0010
0000
0000
0000
,
0000
0000
0000
0000
,
0100
0000
0000
0000
,
0000
0000
0000
0000
,
0100
0000
0000
0000
,
0001
0000
0000
0000
,
1000
0000
0000
0000
,
0000
0000
0000
0000
,
1000
0000
0000
0000
,
0100
0000
0000
0000
,
0100
0000
0000
0000
,
0000
0000
0000
0000
,
0001
0000
0000
0000
,
0010
0000
0000
0000
,
0010
0000
0000
0000
,
0000
0000
0000
0000
,
1000
0000
0000
0000
,
0001
0000
0000
0000
,
1000
0000
0000
0000
,
0100
0000
0000
0000
,
0001
0000
0000
0000
,
0010
0000
0000
0000
,
1000
0000
1000
0000
,
1000
0000
0000
0000
,
0001
0000
0000
0000
,
1000
0000
0000
0000
,
0001
0000
0001
0000
,
0001
0000
0000
0000
,
0100
0000
0000
0000
,
0001
0000
0000
0000
,
0010
0000
0010
0000
,
0010
0000
0000
0000
,
0100
0000
0000
0000
,
1000
0000
0000
0000
,
0001
0000
0001
0000
,
0001
0000
0000
0000
,
1000
0000
1000
0000
,
1000
0000
0000
0000
,
0010
0000
0000
0000
,
0100
0000
0000
0000
,
0001
0000
0001
0000
,
0001
0000
0000
0000
,
0010
0000
0000
0000
,
0100
0000
0000
0000
,
1000
0000
1000
0000
,
1000
0000
0000
0000
,
0100
0000
0000
0000
,
0010
0000
0000
0000
,
0001
0000
0001
0000
,
0001
0000
0000
0000
,
0010
0000
0010
0000
,
0010
0000
0000
0000
,
0100
0000
0100
0000
,
0100
0000
1001
0000
;

//--------------- dance-single - aboutblank ----------------
#NOTES:
     dance-single:
     aboutblank:
     Easy:
     7:
     0,0,0,0,0:
0000
0000
0000
0000
,
0000
0000
0000
0000
,
0000
0000
0000
0000
,
0000
0000
0000
0000
,
0000
0000
0000
0000
,
0000
0000
0000
0000
,
1000
0000
0000
0000
,
0010
0000
0000
0000
,
1000
0000
0001
0000
,
0001
0000
0000
0000
,
0100
0000
0000
0000
,
0001
0000
0000
0000
,
0010
0000
0100
0000
,
0100
0000
0000
0000
,
1000
0000
0001
0000
,
0001
0000
0000
0000
,
0100
0000
0001
0000
,
0001
0000
0000
0000
,
1001
0000
0001
0000
,
0010
0000
0000
0000
,
0100
0000
0000
0000
,
1000
0000
0000
0000
,
1001
0000
1000
0000
,
0010
0000
0000
0000
,
0100
0000
0000
0000
,
0001
0000
0000
0000
,
0110
0000
1000
0000
,
0001
0000
0000
0000
,
0100
0000
0000
0000
,
0100
0000
0000
0000
,
0001
0000
0010
0000
,
0100
0000
0000
0000
,
1000
0000
0010
0000
,
0100
0000
0000
0000
,
0001
0000
0001
0000
,
0001
0000
1000
0000
,
0010
0000
0010
0000
,
0010
0000
1000
0000
,
0100
0000
0010
0000
,
0100
0000
0010
0000
,
0001
0000
1000
0000
,
0001
0000
1000
0000
,
0010
0000
0000
0000
,
0100
0000
0000
0000
,
0001
0000
0010
0000
,
0100
0000
0010
0000
,
0001
0000
0100
0000
,
0010
0000
1000
0000
,
0001
0000
1000
0000
,
0001
0000
1000
0000
,
0100
0000
0000
0000
,
0010
0000
0000
0000
,
0001
0000
0010
0000
,
0001
0000
0010
0000
,
0100
0000
0000
0000
,
1000
0000
0000
0000
,
0010
0000
1000
0000
,
0010
0000
0100
0000
,
0001
0000
0000
0000
,
1000
0000
0000
0000
,
0001
0000
1000
0000
,
0100
0000
0000
0000
,
0010
0000
0001
0000
,
1000
0000
0010
0000
,
0100
0000
0100
0000
,
0001
1000
0002
2000
,
0000
0000
0000
0000
,
0000
0000
3003
0000
,
1001
0000
0001
0000
,
1000
0000
1000
0000
,
0010
0000
0000
0000
,
0100
0000
0000
0000
,
0001
0000
0010
0000
,
0100
0000
0000
0000
,
0001
0000
0000
0000
,
1000
0000
0000
0000
,
0010
0000
0001
0000
,
0100
0000
0000
0000
,
1000
0000
0000
0000
,
0001
0000
0000
0000
,
0100
0000
0010
0000
,
0100
0000
0000
0000
,
0001
0000
1000
0000
,
0001
0000
0000
0000
,
1001
0000
0000
0000
,
0001
0000
0000
0000
,
0010
0000
0100
0000
,
1000
0000
0000
0000
,
1001
0000
0000
0000
,
1000
0000
0000
0000
,
0010
0000
0100
0000
,
0001
0000
0000
0000
,
0010
0000
0000
0000
,
0100
0000
0000
0000
,
1000
0000
0001
0000
,
1000
0000
0000
0000
,
0010
0000
0100
0000
,
0010
0000
0100
0000
,
0001
0000
1000
0000
,
0001
0000
0000
0000
,
0101
0000
0001
0000
,
0001
0000
0001
0000
,
1000
0000
1000
0000
,
1000
0000
1000
0000
,
0010
0000
0100
0000
,
0010
0000
0100
0000
,
0001
0000
0001
0000
,
1000
0000
1000
0000
,
0100
0000
0010
0000
,
0001
0000
0000
0000
,
1000
0000
1000
0000
,
1000
0000
0010
0000
,
0100
0000
0100
0000
,
0100
0000
0001
0000
,
0010
0000
0010
0000
,
0010
0000
0001
0000
,
1001
0000
0000
0000
,
0001
0000
1000
0000
,
0010
0000
0100
0000
,
0001
0000
1000
0000
,
0100
0000
0100
0000
,
0001
0000
0100
0000
,
0010
0000
0010
0000
,
0001
0000
0010
0000
,
0100
0000
0100
0000
,
1000
0000
1000
0000
,
0010
0000
0100
0000
,
0001
0000
1000
0000
,
0001
0000
0000
0000
,
1000
0000
0010
0000
,
0100
0000
0000
0000
,
0001
0000
1000
0002
,
2000
0000
0000
0000
,
3003
0000
0000
0000
;

//--------------- dance-single - aboutblank ----------------
#NOTES:
     dance-single:
     aboutblank:
     Medium:
     10:
     0,0,0,0,0:
0000
0000
0000
0000
,
0000
0000
0000
0000
,
0000
0000
0000
0000
,
0000
0000
0000
0000
,
0000
0000
0000
0000
,
0000
0000
0000
0000
,
1000
0000
0010
0000
,
0100
0001
0100
0000
,
0002
0000
0000
0000
,
0000
0000
0003
0000
,
0001
0000
0010
0000
,
0100
1000
0100
0000
,
2000
0000
0000
0000
,
3020
0000
0000
0000
,
0130
0000
0001
0000
,
1000
0100
0010
0000
,
0001
0100
0010
1000
,
0000
1000
0000
0001
,
1000
0000
0100
0000
,
0100
0010
0001
0000
,
0020
0000
0000
0000
,
0000
0000
0000
0000
,
0031
0000
1000
0000
,
0001
0100
0010
0000
,
2000
0000
0000
0000
,
0000
0000
0000
0000
,
3001
0000
0010
0000
,
0100
1000
0001
0000
,
0020
0000
0000
0000
,
0000
0000
0000
0000
,
0130
0000
1000
0000
,
0001
1000
0010
0000
,
0100
0001
1000
0000
,
0001
0000
0001
0000
,
0010
0001
0100
0000
,
0001
0000
0001
0000
,
0010
0000
1000
0000
,
0010
0000
0001
0000
,
0100
0000
0100
0000
,
0001
1000
0010
0000
,
0100
0000
0001
0000
,
0010
0100
1000
0000
,
0001
0000
0001
0000
,
1000
0000
1000
0000
,
0010
0000
0100
0000
,
0010
1000
0001
0000
,
0100
0000
0100
0000
,
0001
1000
0010
0000
,
0100
0000
0100
0000
,
0001
0010
0100
0000
,
1001
0000
1000
0000
,
0010
1000
0100
0000
,
0001
0000
0100
0000
,
0010
0000
0001
0000
,
1000
0000
1001
0000
,
0001
1000
0010
0000
,
0100
0000
0001
0000
,
0010
0000
0100
0000
,
1000
0000
1010
0000
,
0010
0100
0001
0000
,
1000
0000
1100
0000
,
0100
0010
0001
0000
,
0001
0000
1000
0000
,
0010
0100
0010
0000
,
1000
0010
1000
0000
,
0001
0100
0010
2000
,
0002
0000
0000
0000
,
0000
0000
3003
0000
,
1001
0000
0001
0000
,
1000
0010
0100
0000
,
0001
0000
0010
0000
,
0010
0100
1000
0001
,
0100
0000
0100
0000
,
0001
1000
0001
0000
,
0100
0000
0100
0000
,
0010
1000
0001
0100
,
0010
0000
1000
0000
,
1000
0100
0010
0000
,
0010
0000
0001
0000
,
1000
0001
0100
0001
,
1000
0000
1000
0000
,
0100
0010
0001
0000
,
0001
0000
0001
0000
,
0100
0010
1000
0000
,
1001
0000
0001
0000
,
0010
0100
1000
0000
,
1000
0100
0001
0000
,
0001
0100
0010
0001
,
1000
0000
0001
0000
,
0100
0010
0100
0000
,
0001
0100
1000
0000
,
1000
0100
0010
1000
,
0001
0000
0010
0000
,
0100
1000
0001
0000
,
1000
0010
0100
0000
,
1000
0100
0001
0010
,
0100
0000
0100
0000
,
1000
0100
1000
0000
,
0001
0100
0001
0000
,
0001
0010
0001
0000
,
1001
0000
1000
0000
,
0010
0100
0010
0000
,
1000
0010
1000
0000
,
0001
0100
0001
0000
,
1000
0100
0010
0001
,
0100
0010
1000
0000
,
0001
0010
0100
1000
,
0010
0100
0001
0000
,
1100
0000
0001
0000
,
1000
0010
0100
0000
,
0001
0010
0001
0000
,
1000
0100
1000
0000
,
0001
1000
0001
0100
,
0010
0100
0001
0000
,
1000
0001
1000
0100
,
0010
0100
1000
0000
,
0010
0100
0010
0000
,
1000
0010
0100
0000
,
0101
0000
1100
0000
,
0011
0000
1010
0000
,
0001
0010
0001
0000
,
0010
0100
1000
0000
,
1001
0000
1100
0000
,
1001
0000
0011
0000
,
1000
0010
0100
0000
,
0010
0100
0001
0000
,
1100
0000
0011
0000
,
0010
0001
0100
0000
,
0101
0000
1010
0000
,
0010
1000
0100
0000
,
1000
0100
0010
0000
,
0010
0001
1000
0020
,
0200
0000
0000
0000
,
0330
0000
0000
0000
;

//--------------- dance-single - aboutblank ----------------
#NOTES:
     dance-single:
     aboutblank:
     Hard:
     12:
     0,0,0,0,0:
0000
0000
0000
0000
,
0000
0000
0000
0000
,
0000
0000
0000
0000
,
0000
0000
0000
0000
,
0000
0000
0000
0000
,
0000
0000
0000
0000
,
1000
0000
1010
0000
,
0010
1000
0001
0000
,
0002
0000
0013
0000
,
0100
1000
0100
0010
,
0002
0000
1003
0000
,
0001
0100
1000
0000
,
0200
0000
0310
0000
,
1000
0010
0100
0001
,
0010
0000
0011
0000
,
0001
0010
0100
0000
,
1000
0010
0100
0001
,
0000
0001
0000
0001
,
2000
0000
3100
0001
,
0100
1000
0100
0000
,
0010
0000
0010
0001
,
1000
0000
1000
0010
,
0200
0000
0301
0000
,
0001
0010
0100
0000
,
0200
0000
1300
0001
,
1000
0010
0100
0001
,
0020
0000
0031
0000
,
0010
0100
1000
0000
,
0200
0000
1300
0000
,
1000
0001
0100
0000
,
0100
0010
1000
0000
,
1000
0100
0010
0001
,
0000
0001
0000
0001
,
0000
1000
0010
1000
,
0100
0000
0100
0000
,
0001
0100
1000
0000
,
0010
0000
0010
0000
,
0001
0010
1000
0000
,
1000
0100
0010
0000
,
0001
0100
0010
0000
,
1000
0100
0010
0001
,
0100
0010
1000
0000
,
0001
0010
0100
0000
,
1000
0010
0100
0000
,
0001
0010
0001
0000
,
0001
0100
0001
0000
,
1000
0010
1000
0000
,
1000
0100
1000
0000
,
0001
1000
0100
0000
,
0010
0001
1000
0000
,
0010
0000
0110
0000
,
0100
0001
0010
0000
,
0100
1000
0010
0000
,
0100
0001
0010
0000
,
0100
1000
0100
0000
,
0010
0001
0010
0000
,
0100
1000
0010
0100
,
0001
0010
0001
0000
,
0001
1000
0100
0000
,
1000
0001
0100
0000
,
0010
0100
0001
0000
,
0010
0100
1000
0000
,
1000
0100
0010
0001
,
0100
0010
1000
0001
,
0010
0100
1000
0010
,
0100
0000
0001
0000
1000
0001
2000
0002
,
0000
0000
0000
0000
,
0000
0000
3003
0000
,
1001
0000
1000
0000
,
0010
0100
1000
0000
,
0001
0000
0010
0000
,
1000
0100
0010
0001
,
2000
0000
3001
0000
,
0010
0100
0001
0000
,
0100
0000
0010
0000
,
0001
1000
0010
0100
,
0002
0000
0013
0000
,
0100
1000
0010
0000
,
0100
0000
1000
0100
,
0010
1000
0100
0010
,
0002
0000
2003
0000
,
3002
0000
2003
0000
,
3010
0100
0001
1000
,
0100
0010
0001
1000
,
1001
0000
0001
0000
,
0010
0100
1000
0000
,
1000
0100
0001
0000
,
0100
0010
0001
1000
,
0020
0000
0130
0000
,
0001
1000
0010
0000
,
0100
1000
0100
0000
,
0100
0010
1000
0001
,
0020
0000
0130
0000
,
0010
0001
0100
0000
,
1000
0100
0010
0000
,
0100
0010
1000
0100
,
0001
0100
0010
0100
,
1000
0100
0010
0100
,
1000
0010
0100
0010
,
0001
0010
0100
0010
,
1000
0000
1001
0000
,
0001
1000
0100
0000
,
0001
0100
1000
0000
,
0010
1000
0100
0000
,
0010
0001
0100
0010
,
0100
0010
1000
0000
,
0001
0010
0100
0000
,
1000
0010
0100
0000
,
0002
0000
1003
0100
,
1000
0010
1000
0000
,
0010
0100
0001
0100
,
0010
1000
0100
0010
,
0002
0000
1003
0000
,
0001
1000
0100
0000
,
2000
0000
3001
0000
,
1000
0001
0100
0000
,
0110
0000
1000
0000
,
0001
0010
0100
0000
,
1000
0010
0100
0001
,
0100
0010
1000
0001
,
0010
0000
0110
0000
,
0100
1000
0001
0000
,
1000
0010
0100
0000
,
1000
0100
0001
0000
,
0001
0010
0100
1000
,
0010
1000
0001
0000
,
0100
0001
0010
0000
,
0100
1000
0010
0000
,
0100
0010
0100
0010
,
1000
0100
0010
0001
,
1000
0010
0100
0001
,
0010
0000
0100
0000
1000
0010
2000
0020
,
0000
0000
0000
0000
,
3030
0000
0000
0000
;

//--------------- dance-single - aboutblank ----------------
#NOTES:
     dance-single:
     aboutblank:
     Challenge:
     13:
     0,0,0,0,0:
0000
0000
0000
0000
,
0000
0000
0000
0000
,
0000
0000
0000
0000
,
0000
0000
0000
0000
,
0000
0000
0000
0000
,
0000
0000
0000
0000
,
1000
0000
0000
0000
0001
0000
0000
0100
,
0000
0001
1000
0000
0010
0100
0000
0000
,
MMMM
0000
MMMM
0000
,
MMMM
0000
MMMM
0000
,
0001
0000
1000
0000
0100
0000
0000
0001
,
0000
0100
0010
0000
0001
0100
0000
0000
,
MMMM
0000
MMMM
0000
,
MMMM
0000
MMMM
0000
,
0001
0000
0010
0000
0100
0000
0000
0001
,
0000
1000
0010
0000
0001
0000
0200
0000
,
1000
0301
0000
0010
,
MMMM
0010
MMMM
0010
,
1001
0000
0000
0000
1000
0001
0000
0100
,
0000
0000
0100
0000
0010
1000
0000
0000
,
MMMM
0000
MMMM
0000
,
MMMM
0000
MMMM
0000
,
0001
0000
0000
0000
1000
0001
0000
0010
,
0000
0000
0010
0000
0001
0010
0100
0000
,
MMMM
0000
MMMM
0000
,
MMMM
0000
MMMM
0000
,
2020
0000
3030
0000
0001
1000
0000
0100
,
0000
0000
0010
0000
0001
1000
0000
0000
,
MMMM
0000
MMMM
0000
,
MMMM
0000
MMMM
0000
,
1000
0000
0001
0000
0100
0010
0000
1001
,
0000
0000
0001
0000
0100
0001
0000
1000
,
0000
0100
0001
0100
,
1000
0000
0010
0000
1000
0100
1000
0000
,
0001
0000
0100
0000
0100
0001
0000
1010
,
0000
0000
1000
0000
0010
1000
0010
0000
,
0100
MMMM
0010
MMMM
,
0100
MMMM
0010
MMMM
,
0001
0000
0100
0000
0010
1000
0000
1000
,
0001
1000
0100
0100
,
0010
0000
0001
0000
0100
1000
0100
0000
,
0010
1000
0001
0001
,
0010
MMMM
1000
MMMM
,
0100
MMMM
0001
MMMM
,
1000
0000
0100
0000
0010
0001
0100
0000
,
0001
0100
0010
1000
,
0001
0100
1000
0100
,
0010
0010
1000
0010
,
1000
MMMM
0100
MMMM
,
0001
MMMM
0010
MMMM
,
1000
0000
0001
0000
0100
0001
0000
1000
,
0000
1000
0010
0000
0100
0000
0001
1000
,
0010
MMMM
1000
MMMM
,
0100
MMMM
0001
MMMM
,
0010
0000
1000
0000
0001
0010
0000
0010
,
0000
0000
0001
0000
1000
0010
1000
0000
,
0001
MMMM
0010
MMMM
,
0100
MMMM
1000
MMMM
,
0001
0000
1000
0000
0001
0100
0000
0100
,
0000
0010
1000
0001
,
0001
MMMM
0010
MMMM
,
0100
0001
0100
0000
0100
0000
MMMM
0000
,
0001
MMMM
0010
MMMM
,
0100
1000
0100
0000
0100
0000
MMMM
0000
,
1000
0001
0010
0000
0100
0000
0100
0000
,
1000
0100
0010
0000
0010
0002
2000
0000
,
0000
0000
0000
0000
,
0000
0000
0000
3003
,
1100
0000
MMMM
0000
1000
0100
0000
0010
,
0000
0000
0001
0000
1000
0010
0000
0000
,
0200
0000
0301
0001
,
0100
0001
0000
0000
1000
0000
0001
0000
,
0101
MMMM
0001
0100
,
0010
1000
0000
1000
0001
0000
0000
0000
,
0002
0000
1003
0100
,
0010
0001
0000
0000
1000
0001
1000
0000
,
0110
0000
MMMM
0000
0010
0100
0000
0001
,
0000
0000
1000
0000
0001
0100
0000
0000
,
0020
0000
0031
1000
,
1000
0100
0000
0000
0100
0000
0010
0000
,
1002
0000
0000
0000
0013
0100
0010
0000
,
0001
0000
0001
0000
0010
0100
0000
0000
,
1000
0000
0100
0000
0010
0001
0000
0100
,
0000
0000
0100
0000
1000
0100
0010
0000
,
1001
0000
MMMM
0000
0001
0010
0000
0010
,
0000
0000
0100
0000
1000
0001
0000
1000
,
0200
0000
0001
1300
,
0100
0010
0000
0000
0001
0010
0100
0000
,
1001
0000
MMMM
0000
1000
0010
0000
0010
,
0000
0000
0001
0000
1000
0100
0000
0000
,
0020
0000
1030
0001
,
0100
0001
0000
0000
0010
0001
1000
0000
,
0010
0000
MMMM
0000
0001
0010
0000
1000
,
0000
0000
0001
0000
0100
0010
0100
0000
,
2000
0000
3010
0001
,
1000
0100
0000
0000
0010
1000
0001
0000
,
0002
1000
1003
MMMM
,
0020
0100
0130
MMMM
,
2000
0001
3001
MMMM
,
0200
0010
0310
MMMM
,
0011
0000
0000
0000
0001
1000
0001
0000
,
0100
1000
0100
0100
,
0001
MMMM
0010
MMMM
,
0100
MMMM
1000
MMMM
,
0001
0000
1000
0000
0100
0010
0000
0010
,
0001
0000
1000
0000
0001
1000
0000
0000
,
1000
MMMM
0010
MMMM
,
0100
MMMM
0001
MMMM
,
1000
0000
0001
0000
1000
0100
1000
0000
,
0001
1000
0100
0010
,
0001
MMMM
0001
MMMM
,
0100
MMMM
1000
MMMM
,
0010
MMMM
0001
MMMM
,
0010
0000
0010
0000
0001
1000
0001
0000
,
0100
MMMM
1000
MMMM
,
0100
0000
0100
0000
1000
0001
1000
0000
,
0001
0000
0100
0000
1001
0000
0000
1000
,
0000
1000
0010
0000
0100
0000
0001
0000
,
1000
MMMM
0001
MMMM
,
0100
MMMM
0010
MMMM
,
1000
0000
0010
0000
1100
0000
0000
1000
,
0000
0001
0100
0000
0010
0000
0001
0000
,
0010
MMMM
0100
MMMM
,
0001
MMMM
1000
MMMM
,
0001
0000
0010
0000
0101
0000
0000
1000
,
0000
0001
0010
0000
0100
1000
0100
0000
,
0001
MMMM
0001
MMMM
,
0010
MMMM
0010
MMMM
,
1000
0000
MMMM
0000
1000
0100
0000
0100
,
0010
0001
1000
0001
,
0100
MMMM
0100
0001
,
1000
0010
0100
0000
0010
2000
0002
0000
,
0000
0000
0000
0000
,
3003
0000
0000
0000
;
