#TITLE:Why not;
#SUBTITLE:;
#ARTIST:Darwin;
#TITLETRANSLIT:;
#SUBTITLETRANSLIT:;
#ARTISTTRANSLIT:;
#GENRE:;
#CREDIT:;
#MUSIC:Why not.ogg;
#BANNER:Why not.png;
#BACKGROUND:Why not-bg.png;
#CDTITLE:./CDTITLES/DanceDanceRevolution SuperNOVA2.png;
#SAMPLESTART:24.000;
#SAMPLELENGTH:15.000;
#SELECTABLE:YES;
#OFFSET:0.000;
#BPMS:0.000=175.610
,4.000=175.000
;
#STOPS:;
#DISPLAYBPM:175.000;
#BGCHANGES:;
#FGCHANGES:;

//--------------- dance-single - KONAMI ----------------
#NOTES:
     dance-single:
     KONAMI:
     Beginner:
     4:
     0.207,0.237,0.031,0,0:
0000
0000
0000
0000
,
0000
0000
0000
0000
,
1000
0000
0001
0000
,
1000
0000
0001
0000
,
1000
0000
0010
0000
,
1000
0000
0100
0000
,
0001
0000
1000
0000
,
0001
0000
1000
0000
,
0001
0000
0010
0000
,
0001
0000
0000
0000
,
1000
0000
0100
0000
,
0001
0000
0100
0000
,
1000
0000
0100
0000
,
0001
0000
0100
0000
,
1000
0000
0010
0000
,
0001
0000
0010
0000
,
1000
0000
0100
0000
,
1001
0000
0000
0000
,
0010
0010
0010
0000
,
1000
0000
0001
0000
,
0010
0000
0010
0000
,
0001
0000
1000
0000
,
0100
0100
0100
0000
,
1000
0000
0001
0000
,
0100
0000
0100
0000
,
1000
0000
0001
0000
,
0000
0010
0010
0000
,
0000
0100
0100
0000
,
1000
0000
0001
0000
,
0001
0000
1000
0000
,
0000
0010
0010
0000
,
0000
0100
0100
0000
,
0001
0000
1000
0000
,
0110
0000
0000
0000
,
0001
0001
0000
0000
,
1000
1000
0000
0000
,
0001
0001
0000
0000
,
1000
1000
0000
0000
,
0010
0010
0000
0000
,
0100
0100
0000
0000
,
0010
0010
0000
0000
,
0100
0100
0000
0000
,
1000
1000
1000
0000
,
0100
0100
0100
0000
,
0010
0010
0010
0000
,
0001
0001
0001
0000
,
0100
0100
0100
0000
,
0010
0010
0010
0000
,
1000
1000
1000
0000
,
0001
0001
0001
0000
,
0010
0010
0010
0000
,
1000
0000
0001
0000
,
0010
0000
0010
0000
,
0001
0000
1000
0000
,
0100
0100
0100
0000
,
1000
0000
0001
0000
,
0100
0000
0100
0000
,
1000
0000
0001
0000
,
0000
0010
0010
0000
,
0000
0100
0100
0000
,
1000
0000
0001
0000
,
0001
0000
1000
0000
,
0000
0010
0010
0000
,
0000
0100
0100
0000
,
0001
0000
1000
0000
,
0010
0000
0100
0000
,
1001
0000
0000
0000
;

//--------------- dance-single - KONAMI ----------------
#NOTES:
     dance-single:
     KONAMI:
     Easy:
     6:
     0.368,0.339,0.041,0.082,0:
0000
0000
0000
0000
,
0000
0000
0000
0000
,
1000
0010
1000
0010
,
1000
0100
1000
0100
,
0010
0001
0010
0001
,
1000
0100
1000
0000
,
0001
0010
0001
0010
,
0001
0100
0001
0100
,
0010
1000
0010
1000
,
0001
0100
0001
0000
,
1000
0010
1000
0100
,
1000
0010
1000
0100
,
0010
0100
1000
0100
,
0010
0100
1000
0000
,
0001
0010
0001
0100
,
0001
0010
0001
0100
,
0010
0100
0001
0100
,
0010
0100
1001
0000
,
1000
1000
0001
0001
,
0010
0000
0100
1000
,
0010
0010
0001
0001
,
1000
0010
0100
0000
,
0001
0001
1000
1000
,
0010
0000
0100
0001
,
0010
0010
1000
1000
,
0001
0010
0100
1000
,
2000
0010
0010
3000
,
0002
0100
0100
0003
,
1000
0100
0001
0100
,
1000
0010
0001
0010
,
2000
0010
0100
3000
,
0002
0010
0100
0003
,
1000
1000
0001
0001
,
0010
0100
0010
1001
,
1000
1000
0001
0001
,
1000
1000
0010
0010
,
0100
0100
0001
0001
,
1000
1000
0010
0010
,
1000
0100
0010
0010
,
1000
0001
0010
0010
,
0001
0100
0010
0010
,
0001
1000
0010
0010
,
1000
0100
1000
0100
,
0010
0001
0010
0001
,
0100
0001
0100
0001
,
1000
0010
1000
0010
,
1000
0100
0001
0100
,
1000
0100
0001
0100
,
1000
0010
0001
0010
,
1000
0010
0001
1001
,
1000
1000
0001
0001
,
0010
0000
0100
1000
,
0010
0010
0001
0001
,
1000
0010
0100
0000
,
0001
0001
1000
1000
,
0010
0000
0100
0001
,
0010
0010
1000
1000
,
0001
0010
0100
1000
,
2000
0010
0010
3000
,
0002
0100
0100
0003
,
1000
0100
0001
0100
,
1000
0010
0001
0010
,
2000
0010
0100
3000
,
0002
0010
0100
0003
,
1000
1000
0001
0001
,
0010
1000
0100
0001
,
0110
0000
0000
0000
;

//--------------- dance-single - KONAMI ----------------
#NOTES:
     dance-single:
     KONAMI:
     Medium:
     9:
     0.469,0.474,0.442,0.082,0:
0000
0000
0000
0000
,
0000
0000
0000
0000
,
1010
0001
1000
0100
,
1000
0001
1000
0010
,
0110
1000
0100
0001
,
0100
1000
0100
0001
,
0011
1000
0001
0100
,
0001
1000
0001
0010
,
0110
0001
0100
1000
,
0100
0001
0100
1000
,
1010
0001
0010
0100
,
1000
0010
0100
0001
,
1001
0010
0100
0001
,
1000
0100
0010
0001
,
0011
1000
0010
0100
,
0001
0010
0100
1000
,
1001
0010
0100
1000
,
0001
0100
0110
1001
,
0010
0000
0010
0000
0100
0010
0100
0000
,
0001
0000
1000
1010
,
0100
0000
0001
0010
0001
0000
0100
0000
,
1000
0110
0001
0110
,
0100
0000
0100
0000
1000
0010
1000
0000
,
0001
0000
0010
1001
,
0010
0001
0100
1000
,
0100
0001
0010
0100
,
2100
0010
0001
3000
,
0210
1000
0001
0300
,
1000
1100
0001
0011
,
1000
0100
0001
0010
,
0102
0010
1000
0003
,
0210
0001
1000
0300
,
0001
0010
0001
0000
1000
0010
1000
0000
,
0001
0100
1000
0110
,
1000
0000
1000
0000
0010
1000
0010
1000
,
0001
0000
0001
0000
0100
0001
0100
0001
,
1000
0000
1000
0000
0100
1000
0100
1000
,
0001
0000
0001
0000
0010
0001
0010
0001
,
0100
0000
0010
0000
1000
0001
1000
0001
,
0010
0000
0100
0000
1000
0010
1000
0010
,
0100
0000
0001
0000
0010
0100
0010
0100
,
1000
0010
0100
0101
,
1001
0010
1000
0100
,
0010
0001
0100
1000
,
0110
0001
0100
0010
,
1000
0001
0100
0010
,
1010
0100
0001
1000
,
0011
1000
0100
0010
,
0110
1000
1100
0001
,
0011
1000
0110
1001
,
0010
0000
0010
0000
0100
0010
0100
0000
,
0001
0000
1000
1010
,
0100
0000
0001
0010
0001
0000
0100
0000
,
1000
0110
0001
0110
,
0100
0000
0100
0000
1000
0010
1000
0000
,
0001
0000
0010
1001
,
0010
0001
0100
1000
,
0100
0001
0010
0100
,
2100
0010
0001
3000
,
0210
1000
0001
0300
,
1000
1100
0001
0011
,
1000
0100
0001
0010
,
0102
0010
1000
0003
,
0210
0001
1000
0300
,
0001
0010
0001
0000
1000
0010
1000
0000
,
0001
0100
1000
0110
,
1001
0000
0000
0000
;

//--------------- dance-single - KONAMI ----------------
#NOTES:
     dance-single:
     KONAMI:
     Hard:
     11:
     0.544,0.644,0.339,0.082,0.051:
0000
0000
0000
0000
,
0000
0000
0000
0000
,
1010
0000
0001
0000
0010
0100
0010
0000
,
1000
0000
0010
0000
0100
0001
0100
0000
,
0110
0000
1000
0000
0001
1000
0001
0000
,
0010
0000
0100
0000
1000
0100
1000
0000
,
0011
0000
1000
0000
0010
0100
0010
0000
,
0001
0000
0010
0000
0100
1000
0100
0000
,
0110
0000
0001
0000
1000
0001
1000
0000
,
0010
0000
0100
0000
0001
0100
0001
0000
,
0110
0000
1000
0000
0001
0010
0100
0000
,
0001
0000
0100
0000
1000
0010
0100
0000
,
0101
0000
0010
0000
1000
0100
0001
0000
,
0100
0000
0010
0000
0001
0100
1000
0000
,
0110
0000
0001
0000
1000
0010
0100
0000
,
1000
0000
0100
0000
0001
0010
0100
0000
,
1100
0000
0010
0000
0001
0100
1000
0000
,
0100
0010
0101
1100
,
0001
0000
0010
0100
0010
0000
0001
0000
,
0100
0000
1000
0100
1000
0000
0100
0000
,
0010
0000
1000
0001
0100
0000
0010
1000
,
0100
0000
1100
0000
0001
0000
0100
0100
,
0100
0000
0010
1000
0010
0000
0100
0000
,
0001
0000
1000
0001
1000
0000
0100
0000
,
0010
0000
0001
1000
0100
0000
0010
0001
,
0100
0000
0101
0000
1000
0000
0001
1000
,
1002
0010
0200
0003
,
0010
1000
0001
0300
,
1000
0001
0010
0000
0001
0100
1000
0000
,
0100
0000
0110
0000
0001
0000
1000
0001
,
2001
0010
0200
3000
,
0010
0001
1000
0300
,
0001
1000
0010
0000
1000
0100
0001
0000
,
0100
0110
1000
1001
,
0100
0000
0110
0000
0001
0100
1000
0000
,
0100
0000
0110
0000
0001
0100
1000
0000
,
0100
0000
0110
0000
1000
0100
0001
0000
,
0100
0000
0110
0000
1000
0100
0001
0000
,
0100
1000
0010
0000
0100
0000
0110
0000
,
0001
0010
1000
0000
0100
0000
0110
0000
,
0100
0001
0010
0000
0100
0000
0110
0000
,
1000
0010
0001
0000
0100
0000
0110
0000
,
1000
0000
0000
1000
0000
0000
1000
0000
0001
0000
0010
0000
0001
0000
0100
0000
,
0010
0000
0000
0010
0000
0000
0010
0000
1000
0000
0001
0000
1000
0000
0100
0000
,
0001
0000
0000
0001
0000
0000
0001
0000
0100
0000
1000
0000
0100
0000
0010
0000
,
0100
0000
0000
0100
0000
0000
0100
0000
1000
0000
0001
0000
1000
0000
0100
0000
,
0010
0000
0000
0001
0000
0000
0100
0000
1000
0000
0100
0000
0001
0000
1000
0000
,
0100
0000
0000
0010
0000
0000
0001
0000
1000
0000
0010
0000
1000
0000
0100
0000
,
0010
0000
0001
0010
0000
0001
0010
0000
0001
0000
0100
0000
0001
0000
0100
0000
,
0010
0000
1000
0010
0000
1000
0010
0000
1000
0000
0100
0000
1000
0000
0100
0000
,
1000
0000
0010
0100
0010
0000
1000
0000
,
0100
0000
0001
0100
0001
0000
0100
0000
,
0010
0000
0001
1000
0100
0000
0010
0001
,
0100
0000
0101
0000
1000
0000
0100
0100
,
0100
0000
0010
0001
0010
0000
0100
0000
,
1000
0000
0001
1000
0001
0000
0100
0000
,
0010
0000
1000
0001
0100
0000
0010
1000
,
0100
0000
1100
0000
0001
0000
1000
0001
,
2001
0010
0200
3000
,
0010
0001
1000
0300
,
0001
1000
0010
0000
1000
0100
0001
0000
,
0100
0000
0110
0000
1000
0000
0001
1000
,
1002
0010
0200
0003
,
0010
1000
0001
0300
,
1000
0001
0010
0000
0001
0100
1000
0000
,
0100
0110
0001
1001
,
0110
0000
0000
0000
;

//--------------- dance-single - 女狗 (ABxSR) ----------------
#NOTES:
     dance-single:
     女狗 (ABxSR):
     Challenge:
     17:
     0,0,0,0,0:
0000
0000
0000
0000
,
0000
0000
0000
0000
,
0000
0000
0000
0000
,
0000
0000
0000
0000
,
0000
0000
0000
0000
,
0000
0000
0000
0000
,
1000
0000
0100
0020
0000
0130
1000
0001
,
0100
0000
0001
0200
0000
0310
0100
0010
,
1000
0000
0100
0002
0000
0103
1000
0001
,
0010
0000
0000
0000
0001
0000
2000
0000
0000
0000
3001
0100
0010
0000
0010
0000
,
1000
1000
0100
0002
0000
0103
0010
0001
,
1000
1000
0001
0200
0000
0301
1000
0100
,
1000
1000
0010
0002
0000
0013
0100
0001
,
0100
0100
0001
2000
0000
3010
1000
0010
,
0100
0100
0010
0100
0001
0001
0010
0100
,
1000
1000
0100
0001
0100
0100
1000
0001
,
0100
0010
0100
0000
0010
0000
1000
0000
0001
1000
0001
0000
0010
0000
0100
0000
,
1000
0001
1000
0001
0100
0010
0100
0010
2000
0000
0100
0000
3002
0000
0010
0000
,
1003
0000
0100
0000
0001
0000
1000
0000
0010
0000
0001
1000
0001
0000
0200
0000
,
0000
0000
0000
0000
1300
0000
0100
0000
0001
0000
1000
0001
1000
0000
0020
0000
,
0000
0000
0000
0000
0031
0000
1000
0000
0100
0000
0001
0010
0100
0000
1000
0000
,
1200
0000
0001
0000
1300
0001
0100
0010
,
0100
0000
0000
0000
0001
0000
0100
0000
0010
0000
0001
0010
0100
0000
0020
0000
,
1000
0000
0030
0000
1000
0000
0100
0000
0010
0000
1000
0010
0100
0000
0020
0000
,
0001
0030
0001
1000
0010
0100
0001
1000
,
0010
1000
0001
0000
0010
0001
1000
0000
1001
0000
0000
0000
0010
0000
0100
0000
,
0110
0000
1001
0010
0201
0000
1000
0000
,
0301
0000
1001
0010
1200
0000
0001
0000
,
1300
0000
0100
0010
0001
0000
0100
0010
1000
0000
0100
0010
0001
0000
0000
0000
,
1001
0000
0110
0000
0001
0001
0100
0010
,
1001
1010
1200
0001
,
0310
0001
0201
0000
1000
0000
0310
0000
,
1000
0100
1000
0100
0010
0100
0010
0100
0010
0001
0100
0010
1000
0100
0010
0001
,
2000
0002
0000
0000
0000
0000
0000
3003
,
0001
0000
1000
0100
0000
0100
0010
0000
0001
1000
0001
0000
0100
0001
0100
0000
,
0001
0000
1000
0001
0000
0001
1000
0000
0010
1000
0100
0000
1000
0010
0100
0000
,
0010
0000
0100
0001
0000
0001
0010
0000
0001
0100
0001
0000
1000
0010
1000
0000
,
0001
0000
1000
0001
0000
0001
1000
0000
0010
1000
0010
0000
0100
0001
0100
0000
,
0010
0000
1000
0100
0000
0100
0010
0000
0100
0010
0001
0000
0100
0010
0100
0000
,
0001
0000
0010
0100
0000
0100
0010
0000
0100
1000
0010
0000
0100
0010
0100
0000
,
0010
0000
1000
0010
0000
0010
0100
0000
0010
0100
0001
0000
1000
0100
0010
0000
,
0100
0000
0010
0001
0000
0001
0010
0000
0001
0100
0010
0000
1000
0001
1000
0000
,
0001
0000
1000
0100
0000
0010
0001
0000
1000
0100
0010
0000
0010
0001
1000
0000
,
0010
0000
1000
0001
0000
0100
0001
0000
1000
0010
0100
0000
0100
0001
1000
0000
,
0001
0000
1000
0100
0000
0010
0001
0000
1000
0100
1000
0000
1000
0100
0010
0000
,
0001
0000
0100
0010
0000
1000
0001
0000
0010
0100
0010
0000
0010
0100
1000
0000
,
0001
0000
1000
0010
0000
0010
1000
0000
0001
0100
0001
0000
0001
0010
0001
0000
,
1000
0000
0001
0010
0000
0010
0001
0000
1000
0010
1000
0000
1000
0100
1000
0000
,
1000
0000
0010
0100
1000
0100
0010
0000
1000
0100
0001
0000
0001
0100
1000
0000
,
0001
0000
0100
0010
0001
0010
0100
0000
0002
0000
0010
0000
2003
0000
0010
0000
,
3001
0000
0010
0000
1000
0000
0001
0100
0010
0000
0010
0001
1000
0000
0020
0000
,
1030
0000
0100
0000
0001
0000
1000
0010
0100
0000
0100
1000
0001
0000
0200
0000
,
0310
0000
1000
0000
0001
0000
0100
0010
0001
0000
0001
0010
0100
0000
0010
0000
,
1100
0010
0101
0010
1100
0010
0101
0010
,
1001
0000
1000
0000
0100
0000
0010
0001
0100
0000
0010
0100
0001
0000
0020
0000
,
0031
0000
0001
0000
0100
0000
0010
0100
0001
0000
0010
0001
1000
0000
0020
0000
,
0130
0000
0100
0000
0001
0000
1000
0001
0100
0000
0001
1000
0010
0000
0100
0000
,
1010
0000
0100
0000
0011
0000
0100
0000
1001
0000
1000
0100
0010
0000
0010
0001
,
1000
0000
1000
0000
0010
0001
0010
0000
1020
0000
0001
0000
0001
0000
0100
0000
,
1030
0000
1000
0000
0100
0001
0100
0000
1200
0000
0001
0000
0001
0000
0010
0000
,
1300
0000
0010
0100
0001
0000
0010
0100
1000
0000
0010
0100
0001
0000
0010
0000
,
1001
0100
0011
0100
1001
0100
1010
0100
,
1001
0000
0001
0000
0100
1000
0100
0000
0201
0000
1000
0000
1000
0000
0010
0000
,
0301
0000
0001
0000
0010
1000
0010
0000
0021
0000
1000
0000
1000
0000
0100
0000
,
0031
0000
1000
0010
0001
0000
1000
0100
0001
1000
0100
0010
0001
0100
0010
1000
,
0002
2000
0000
0000
0000
0000
0000
0000
,
3003
0000
0000
0000
;

//--------------- dance-double - KONAMI ----------------
#NOTES:
     dance-double:
     KONAMI:
     Easy:
     6:
     0.368,0.373,0.041,0.082,0:
00000000
00000000
00000000
00000000
,
00000000
00000000
00000000
00000000
,
00100000
10000000
00100000
10000000
,
01000000
10000000
01000000
10000000
,
01000000
00010000
01000000
00010000
,
00001000
00010000
00001000
00000000
,
00000010
00000001
00000010
00000001
,
00000100
00000001
00000100
00000001
,
00000100
00001000
00000100
00001000
,
00010000
00001000
00010000
00000000
,
00001000
00010000
00100000
00010000
,
00001000
00010000
00100000
00010000
,
00001000
00010000
01000000
00010000
,
00001000
00010000
01000000
00000000
,
00010000
00001000
00000010
00001000
,
00010000
00001000
00000010
00001000
,
00010000
00001000
00000100
00001000
,
00010000
00001000
00000100
00000000
,
00000001
00000001
00001000
00001000
,
00000010
00000000
00000100
00000001
,
00000010
00000010
00001000
00001000
,
00010000
01000000
10000000
00000000
,
10000000
10000000
00010000
00010000
,
00100000
00000000
01000000
10000000
,
00100000
00100000
00010000
00010000
,
00001000
00000100
00000001
00000010
,
00000200
00001000
00001000
00000300
,
00000020
00000100
00000100
00000030
,
00000001
00000010
00001000
00010000
,
00100000
00010000
00001000
00010000
,
02000000
00100000
10000000
03000000
,
00020000
00100000
01000000
00030000
,
00100000
00100000
10000000
10000000
,
01000000
00010000
00001000
00011000
,
00001000
00001000
00010000
00010000
,
00001000
00001000
00100000
00100000
,
00001000
00001000
00010000
00010000
,
00001000
00001000
00000010
00000010
,
00001000
00010000
01000000
01000000
,
00010000
00001000
00000100
00000100
,
00001000
00010000
00100000
00100000
,
00010000
00001000
00000010
00000010
,
00000001
00000100
00001000
00000100
,
00001000
00010000
00100000
00010000
,
00001000
00010000
01000000
00010000
,
01000000
10000000
00100000
10000000
,
01000000
00010000
00001000
00010000
,
01000000
00010000
00001000
00010000
,
00001000
00000010
00000001
00000100
,
00001000
00010000
00011000
10010000
,
10000000
10000000
00010000
00010000
,
00100000
00000000
01000000
10000000
,
00100000
00100000
00010000
00010000
,
00001000
00000100
00000001
00000000
,
00000001
00000001
00001000
00001000
,
00000010
00000000
00000100
00000001
,
00000010
00000010
00001000
00001000
,
00010000
01000000
10000000
00100000
,
02000000
00010000
00010000
03000000
,
00200000
01000000
01000000
00300000
,
10000000
00100000
00010000
00001000
,
00000010
00001000
00010000
00001000
,
00000200
00000010
00000001
00000300
,
00002000
00000010
00000100
00003000
,
00000010
00000010
00000001
00000001
,
00000100
00001000
00010000
01000000
,
01100000
00000000
00000000
00000000
;

//--------------- dance-double - KONAMI ----------------
#NOTES:
     dance-double:
     KONAMI:
     Medium:
     7:
     0.446,0.474,0.339,0.082,0:
00000000
00000000
00000000
00000000
,
00000000
00000000
00000000
00000000
,
10100000
00010000
00100000
01000000
,
10000000
01000000
00100000
01000000
,
00110000
10000000
01000000
00010000
,
01000000
10000000
01000000
00010000
,
00011000
00000010
00000001
00000010
,
00001000
00000010
00000001
00000010
,
00000101
00001000
00010000
00001000
,
00000100
00001000
00010000
00001000
,
00000011
00001000
00000010
00000100
,
00000001
00000100
00000010
00000100
,
00001010
00000001
00000100
00001000
,
00000100
00000001
00000100
00001000
,
00011000
00100000
10000000
00100000
,
00010000
00100000
10000000
00100000
,
11000000
00010000
00001000
00010000
,
01000000
00010000
00001000
00000100
,
00000010
00000000
00000010
00000000
00000100
00000010
00000100
00000000
,
00000001
00000000
00001000
00001010
,
00000100
00000000
00000001
00000010
00000001
00000000
00000100
00000000
,
00001000
00011000
01000000
01100000
,
10000000
00000000
10000000
00000000
00100000
10000000
00100000
00000000
,
01000000
00000000
00010000
01100000
,
01000000
10000000
00100000
00010000
,
00001000
00000010
00000001
00000100
,
00002000
00010000
01000000
00003000
,
00020000
00001000
00000100
00030000
,
00001000
00001100
00000001
00000011
,
00001000
00000001
00000100
00001000
,
00020000
00100000
00001000
00030000
,
00002000
00000010
00010000
00003000
,
00100000
00010000
00100000
00000000
10000000
00100000
10000000
00000000
,
01000000
01100000
00010000
10010000
,
00100000
00000000
00010000
00000000
10000000
01000000
10000000
00000000
,
00100000
00000000
01000000
00000000
00010000
10000000
00010000
00000000
,
00100000
00000000
01000000
00000000
10000000
00100000
10000000
00000000
,
00100000
00000000
00010000
00000000
00001000
00010000
00001000
00000000
,
00000010
00000000
00000001
00000000
00000100
00000010
00000100
00000000
,
00001000
00000000
00010000
00000000
00001000
00000010
00001000
00000000
,
00010000
00000000
01000000
00000000
00010000
00001000
00010000
00000000
,
00100000
00000000
10000000
00000000
01000000
00100000
01000000
00000000
,
11000000
00100000
00010000
00001000
,
00000100
00000001
00000010
00001000
,
00011000
00100000
10000000
01000000
,
00010000
00001000
00000010
00000001
,
00000110
00001000
00010000
00100000
,
01100000
10000000
01000000
00010000
,
00011000
00000100
00000001
00000010
,
00001010
00010000
00110000
10100000
,
00100000
00000000
00100000
00000000
01000000
00100000
01000000
00000000
,
10000000
00000000
00010000
00110000
,
01000000
00000000
10000000
00100000
10000000
00000000
01000000
00000000
,
00010000
00011000
00000100
00000110
,
00000001
00000000
00000001
00000000
00000010
00000001
00000010
00000000
,
00000100
00000000
00001000
00000110
,
00000100
00000001
00000010
00001000
,
00010000
00100000
10000000
01000000
,
00020000
00001000
00000100
00030000
,
00002000
00010000
01000000
00003000
,
00010000
01010000
10000000
10100000
,
00010000
10000000
01000000
00010000
,
00002000
00000010
00010000
00003000
,
00020000
00100000
00001000
00030000
,
00000010
00001000
00000001
00000000
00000010
00000001
00000100
00000000
,
00001000
00011000
01000000
01100000
,
10010000
00000000
00000000
00000000
;

//--------------- dance-double - KONAMI ----------------
#NOTES:
     dance-double:
     KONAMI:
     Hard:
     11:
     0.533,0.508,0.288,0.082,0.041:
00000000
00000000
00000000
00000000
,
00000000
00000000
00000000
00000000
,
10100000
00000000
00010000
00000000
01000000
00100000
01000000
00000000
,
00010000
00000000
00100000
00000000
01000000
10000000
01000000
00000000
,
10010000
00000000
00100000
00000000
01000000
00010000
01000000
00000000
,
00100000
00000000
00010000
00000000
00001000
00010000
00001000
00000000
,
00000011
00000000
00001000
00000000
00000100
00000010
00000100
00000000
,
00001000
00000000
00000010
00000000
00000100
00000001
00000100
00000000
,
00001001
00000000
00000010
00000000
00000100
00001000
00000100
00000000
,
00000010
00000000
00001000
00000000
00010000
00001000
00010000
00000000
,
01001000
00000000
00010000
00000000
00100000
00001000
00010000
00000000
,
01000000
00000000
10000000
00000000
00100000
01000000
00010000
00000000
,
10010000
00000000
00100000
00000000
00001000
00010000
00000010
00000000
,
00001000
00000000
00000100
00000000
00010000
00001000
01000000
00000000
,
00010100
00000000
00001000
00000000
00000010
00010000
00001000
00000000
,
00000100
00000000
00000001
00000000
00000010
00000100
00001000
00000000
,
00001001
00000000
00000010
00000000
00010000
00001000
00100000
00000000
,
00010000
01000000
01100000
10100000
,
00010000
00000000
00100000
01000000
00100000
00000000
00010000
00000000
,
01000000
00000000
10000000
01000000
10000000
00000000
01000000
00000000
,
00100000
00000000
10000000
00010000
01000000
00000000
00100000
10000000
,
01000000
00000000
01010000
00000000
00001000
00000000
00000100
00000100
,
00000100
00000000
00000010
00000100
00000010
00000000
00001000
00000000
,
00000100
00000000
00000001
00000100
00000001
00000000
00000100
00000000
,
00000010
00000000
00000001
00001000
00000100
00000000
00000010
00000001
,
00000100
00000000
00001100
00000000
00010000
00000000
01000000
01000000
,
20000000
00100000
02000000
30000000
,
00100000
00010000
10000000
03000000
,
00100000
10000000
01000000
00000000
01000000
00010000
00001000
00000000
,
00000100
00000000
00000101
00000000
00000010
00000000
00001000
00001000
,
00020000
00100000
00002000
00030000
,
00010000
00000010
00010000
00003000
,
00010000
00001000
00000100
00000000
00001000
00010000
01000000
00000000
,
10000000
10100000
01000000
01010000
,
00100000
00000000
01100000
00000000
10000000
00100000
00010000
00000000
,
00100000
00000000
01100000
00000000
10000000
01000000
00010000
00000000
,
00001000
00000000
00000110
00000000
00001000
00000100
00000001
00000000
,
00000100
00000000
00000110
00000000
00000001
00000010
00001000
00000000
,
00010000
00100000
10000000
00000000
01000000
00000000
01100000
00000000
,
00010000
01000000
10000000
00000000
01000000
00000000
01100000
00000000
,
10000000
01000000
00010000
00000000
00001000
00000100
00000001
00000000
,
00000010
00000000
00000110
00000000
00000001
00000100
00001000
00000000
,
00010000
00000000
00000000
00010000
00000000
00000000
00010000
00000000
01000000
00000000
00010000
00000000
01000000
00000000
00010000
00000000
,
00001000
00000000
00000000
00001000
00000000
00000000
00001000
00000000
00000010
00000000
00001000
00000000
00000010
00000000
00001000
00000000
,
00010000
00000000
00000000
00010000
00000000
00000000
00010000
00000000
00100000
00000000
10000000
00000000
00100000
00000000
00010000
00000000
,
00001000
00000000
00000000
00001000
00000000
00000000
00001000
00000000
00000100
00000000
00000001
00000000
00000100
00000000
00001000
00000000
,
00010000
00000000
00000000
01000000
00000000
00000000
10000000
00000000
00100000
00000000
01000000
00000000
00010000
00000000
00100000
00000000
,
01000000
00000000
00000000
00010000
00000000
00000000
00001000
00000000
00000010
00000000
00000001
00000000
00000100
00000000
00000010
00000000
,
00001000
00000000
00000000
00000100
00000000
00000000
00000010
00000000
00000001
00000000
00000100
00000000
00001000
00000000
00010000
00000000
,
00100000
00000000
00000000
10000000
00000000
00000000
01000000
00000000
00010000
00000000
00001000
00000000
00010000
00000000
01000000
00000000
,
10000000
00000000
00100000
01000000
00100000
00000000
00010000
00000000
,
01000000
00000000
10000000
01000000
10000000
00000000
01000000
00000000
,
00100000
00000000
10000000
00010000
01000000
00000000
00100000
10000000
,
01000000
00000000
01010000
00000000
00001000
00000000
00000100
00000100
,
00000100
00000000
00000010
00000100
00000010
00000000
00001000
00000000
,
00000100
00000000
00000001
00000100
00000001
00000000
00000100
00000000
,
00000010
00000000
00000001
00001000
00000100
00000000
00000010
00000001
,
00000100
00000000
00001100
00000000
00010000
00000000
01000000
01000000
,
20000000
00100000
02000000
30000000
,
00100000
00010000
10000000
03000000
,
00100000
10000000
01000000
00000000
01000000
00010000
00001000
00000000
,
00000100
00000000
00000101
00000000
00000010
00000000
00001000
00001000
,
00020000
00100000
00002000
00030000
,
00010000
00000010
00010000
00003000
,
00010000
00001000
00000100
00000000
00001000
00010000
01000000
00000000
,
10000000
10100000
01000000
01010000
,
00110000
00000000
00000000
00000000
;

//--------------- dance-double - forcednature ----------------
#NOTES:
     dance-double:
     forcednature:
     Challenge:
     15:
     0,0,0,0,0:
00000000
00000000
00000000
00000000
,
00000000
00000000
00000000
00000000
,
00001000
00010000
01000000
10000000
00010000
01000000
00100000
00000000
,
10000000
01000000
00010000
00001000
00000100
00000001
00000010
00000000
,
00000100
00001000
00000001
00000100
00000010
00010000
00001000
00000000
,
00000010
00000100
00001000
00000001
00000100
00001000
00010000
00000000
,
00000100
00010000
00001000
01000000
00001000
00010000
01000000
00000000
,
00100000
00001000
00010000
00100000
01000000
00010000
00100000
00000000
,
01000000
10000000
00100000
00010000
00100000
10000000
01000000
00000000
,
00010000
00000000
00001000
00000000
00000010
00000000
00000100
00000000
00001000
00000000
00000001
00000100
00000001
00000000
00001000
00000100
,
00001000
00000010
00000100
00001000
00010000
00100000
01000000
00010000
,
10000000
00000000
10000000
00000000
01000000
00010000
00001000
00000000
,
01000000
00010000
00100000
00001000
00010000
00000010
00001000
00000100
,
00000010
00000000
00000010
00000000
00000100
00001000
00000001
00000000
,
00000100
00001000
00010000
00100000
01000000
00010000
00100000
01000000
,
10000000
00000000
10000000
00000000
00100000
00010000
00001000
00000000
,
00000010
00000100
00001000
00000001
00000100
00000010
00001000
00000001
,
00002002
00000000
00000000
00000000
00003003
00000000
00000000
00000000
00000001
00000100
00000000
00000000
00000100
00001000
00000000
00000000
,
00001000
00010000
00000100
00001000
00000010
00010000
00001000
00100000
,
00010000
00000000
01000000
00001000
00010000
01000000
10000000
00010000
,
01000000
00000000
00100000
10000000
01000000
00010000
00001000
00000010
,
00000100
00001000
00000000
00000000
00001000
00000001
00000000
00000000
00000001
00000100
00000000
00000000
00000010
00000000
00001000
00000000
,
00000100
00000000
00000010
00000100
00010000
00001000
00000100
00001000
,
00010000
00000000
01000000
00100000
00001000
00010000
00100000
10000000
,
00010000
00000000
10000000
01000000
00010000
00001000
01000000
00010000
,
00100000
00001000
00010000
00100000
02000000
00000000
03010000
10000000
,
01000000
00000000
00000000
00000000
00100000
00010000
00100000
00000000
00001000
00010000
00001000
00000000
01000000
00000000
00010000
00000000
,
00100000
00000000
00000000
00000000
00001000
00010000
00001000
00000000
01000000
00010000
01000000
00000000
00001000
00000000
00000000
00000000
,
00010000
00000100
00001000
00000010
00010000
00001000
00000010
00000000
,
00000100
00001000
00000000
00000000
00001000
00000001
00000000
00000000
00000001
00000010
00000000
00000000
00001000
00000000
00010000
00000000
,
00000100
00000000
00000000
00000000
00001000
00000001
00001000
00000000
00000010
00000100
00000010
00000000
00001000
00000000
00000000
00000000
,
00000100
00000000
00000000
00000000
00010000
00001000
00010000
00000000
00001000
01000000
00001000
00000000
00100000
00000000
00000000
00000000
,
01000000
10000000
01000000
00010000
00001000
00000000
00000010
00000001
,
00000200
00000000
00000010
00000310
,
00000100
00000000
00000001
00000010
00000000
00000001
00000100
00000000
00001000
00000000
00010000
00000000
01000000
00000000
00100000
00000000
,
00010000
00000000
10000000
00100000
00000000
10000000
01000000
00000000
00010000
00000000
00001000
00000000
00000010
00000000
00000100
00000000
,
00001000
00000000
00000001
00000100
00000000
00000001
00000010
00000000
00001000
00000000
00010000
00000000
01000000
00000000
00100000
00000000
,
00010000
00000000
10000000
00100000
00000000
10000000
01000000
00000000
00100000
00000000
00001000
00000000
00010000
00000000
00100000
00000000
,
01000000
00000000
00010000
00100000
00000000
00010000
01000000
00000000
00001000
00000000
00010000
00000000
00000100
00000000
00001000
00000000
,
00000001
00000000
00001000
00000100
00000000
00001000
00000010
00000000
00000100
00000000
00001000
00000000
00010000
00000000
01000000
00000000
,
10000000
00000000
00100000
10000000
00000000
01000000
10000000
00000000
00100000
00000000
10000000
00000000
01000000
00000000
00010000
00000000
,
00001000
00000000
00010000
00000010
00000000
00010000
00000100
00000000
00001000
00000000
00000001
00000100
00000010
00000000
00001000
00000000
,
00000100
00000000
00010000
00001000
00000000
01000000
00010000
00000000
00100000
00000000
01000000
00000000
10000000
00000000
01000000
00000000
,
00100000
00000000
00001000
00010000
00000000
00001000
01000000
00000000
00001000
00000000
00010000
00000000
00000100
00000000
00001000
00000000
,
00000010
00000000
00001000
00000100
00000000
00001000
00000001
00000000
00000100
00000000
00001000
00000000
00010000
00000000
01000000
00000000
,
00100000
00000000
00010000
10000000
00000000
00010000
01000000
00000000
00100000
00000000
10000000
00000000
01000000
00000000
00010000
00000000
,
00011000
00000000
00001000
00010000
00000000
00000100
00010000
00000000
00000010
00000000
00000100
00000000
00000010
00000000
00001000
00000000
,
00000100
00000000
00000010
00000001
00000000
00000010
00000100
00000000
00001000
00000000
00000100
00000000
00010000
00000000
00001000
00000000
,
01000000
00000000
00010000
10000000
00000000
01000000
10000000
00000000
00100000
00000000
10000000
00000000
01000000
00000000
00010000
00000000
,
00022000
00000000
00033000
00000000
00010000
00010000
00001000
00001000
,
00000100
00000000
00000100
00000001
00000010
00000100
00001000
00000010
,
00010000
00010000
00001000
00001000
,
00100000
00000000
00100000
01000000
10000000
00010000
01000000
00010000
,
00100000
00100000
00001000
00001000
,
00010000
00000000
00010000
00000010
00010000
00001000
00000010
00000100
,
00001000
00001000
00000001
00000001
,
00000100
00000000
00000100
00001000
00010000
01000000
00100000
00010000
,
10010000
00000000
00000000
00000000
01000000
00000000
00000000
00000000
01100000
00000000
00000000
00010000
10000000
00000000
00010000
01000000
,
00010000
00000000
00100000
00000000
01000000
10000000
01000000
00000000
00100000
00010000
00100000
00000000
00001000
00000000
00010000
00000000
,
00000010
00000000
00001000
00000000
00000001
00000100
00000001
00000000
00001000
00000100
00001000
00000000
00000010
00000000
00010000
00000000
,
00001000
00000010
00000100
00001000
00000001
00000100
00001000
00010000
,
00100000
10000000
00000000
00000000
10000000
01000000
00000000
00000000
01000000
00100000
00000000
00000000
00100000
00000000
00001000
00000000
,
00010000
00000000
00100000
00000000
01000000
00010000
01000000
00000000
00001000
00010000
00001000
00000000
00000010
00000000
00000100
00000000
,
00001000
00000000
00000001
00000000
00001000
00000010
00001000
00000000
00000100
00001000
00000100
00000000
00000010
00000000
00000001
00000000
,
00000100
00001000
00010000
01000000
10000000
00100000
00010000
00001000
,
00010000
00000010
00010000
00001000
00010000
01000000
00100000
00000000
,
10010000
00000000
00000000
00000000
;
