#TITLE:We Will Live Together;
#SUBTITLE:;
#ARTIST:Happy CoreMAN;
#TITLETRANSLIT:;
#SUBTITLETRANSLIT:;
#ARTISTTRANSLIT:;
#GENRE:;
#CREDIT:;
#MUSIC:We Will Live Together.ogg;
#BANNER:We Will Live Together.png;
#BACKGROUND:We Will Live Together-bg.png;
#CDTITLE:./CDTITLES/Dance Dance Revolution HOTTEST PARTY.png;
#SAMPLESTART:54.897;
#SAMPLELENGTH:15.000;
#SELECTABLE:YES;
#OFFSET:0.000;
#BPMS:0.000=175.000;
#STOPS:;
#BGCHANGES:;
#FGCHANGES:;

//--------------- dance-single - eataninja ----------------
#NOTES:
     dance-single:
     eataninja:
     Beginner:
     4:
     0,0,0,0,0:
0000
0000
0000
0000
,
0000
0000
0000
0000
,
0000
0000
0000
0000
,
1001
0000
0000
0000
,
1001
0000
0000
0000
,
0110
0000
0000
0000
,
0110
0000
0000
0000
,
0100
0000
0001
0000
,
1000
1000
1000
0000
,
0100
0000
0020
0000
,
0030
0000
0010
0000
,
0001
0000
1000
0000
,
0010
0010
0010
0000
,
0100
0000
0020
0000
,
0030
0000
0000
0000
,
1000
1000
1000
0000
,
0001
0000
0010
0000
,
0100
0000
0020
0000
,
0030
0000
0010
0000
,
0001
0000
1000
0000
,
0010
0010
0010
0000
,
1000
0000
0100
0000
,
0001
0000
0100
0000
,
0010
0010
0010
0000
,
0001
0000
0000
0000
,
1000
1000
1000
0000
,
0020
0000
0030
0000
,
0100
0100
0100
0000
,
0001
0000
1000
0000
,
0100
0000
0001
0000
,
0200
0000
0300
0000
,
0010
0010
0010
0000
,
0001
0000
0100
0000
,
0010
0010
0010
0000
,
1000
0000
0001
0000
,
0010
0000
1000
0000
,
0010
0000
0001
0000
,
0100
0000
1000
0000
,
0200
0000
0000
0300
,
0000
0110
0110
0000
,
0100
0000
0001
0000
,
0010
0000
0001
0000
,
0100
0000
0001
0000
,
0010
0000
0100
0000
,
1000
0000
0010
0000
,
0100
0000
0010
0000
,
1000
1000
1000
0000
,
0001
0000
0000
0000
,
0001
0000
0010
0000
,
0100
0000
0010
0000
,
0001
0000
0010
0000
,
0100
0000
1000
0000
,
0001
0000
0100
0000
,
1000
0000
0100
0000
,
0010
0010
0010
0000
,
1000
0000
0000
0000
,
0001
0001
0001
0000
,
0010
0000
0100
0000
,
1000
1000
1000
0000
,
0010
0000
0100
0000
,
1001
0000
0000
0000
,
1000
0000
0001
0000
,
0110
0000
0000
0000
,
0100
0000
1000
0000
,
1001
0000
0000
0000
,
1001
0000
0000
0000
,
0110
0000
0000
0000
,
0110
0000
0000
0000
,
0100
0000
0001
0001
,
2000
0000
0000
0000
,
0000
0000
0000
0000
,
3000
0000
0000
0000
;

//--------------- dance-single - eataninja ----------------
#NOTES:
     dance-single:
     eataninja:
     Easy:
     7:
     0,0,0,0,0:
0000
0000
0000
0000
,
0000
0000
0000
0000
,
0000
0000
0000
0000
,
1000
0000
0100
0000
,
0001
0000
0100
0000
,
0010
0000
0100
0000
,
0110
0000
0000
1001
0000
0000
0000
0000
,
1000
0000
1000
0001
,
0001
0010
0100
1000
,
0001
0000
1001
0000
,
1000
0010
0001
0010
,
0200
0000
0301
0000
,
0001
0010
1000
0010
,
0200
0000
0310
0000
,
1001
0000
1000
1000
,
0010
0010
0100
0001
,
0001
1000
0100
0010
,
0001
0000
1001
0000
,
1000
0100
0001
0100
,
0020
0000
0031
0000
,
0001
0100
1000
0100
,
0020
0000
0130
0000
,
0200
0000
0301
0000
,
1000
0001
0010
0100
,
1000
1000
1000
0000
,
0001
1000
0010
0100
,
0001
0001
0001
0000
,
1000
0100
0001
0100
,
0010
0000
0001
1000
,
0010
0000
0000
0120
0000
0000
0130
0000
,
0002
0000
0003
1001
,
1000
0100
0001
0100
,
0010
0000
0000
0001
0000
0000
1000
0000
,
0010
0001
0010
0100
,
0001
0000
0000
1000
0000
0000
0100
0000
,
0010
0001
1000
0001
,
0100
0010
1000
0010
,
0100
0001
0010
0100
,
2000
0000
3001
0000
,
0000
1001
1001
1001
,
1000
0001
0010
0100
,
0001
0100
1000
0001
,
0100
0010
1000
0001
,
0010
0000
0000
0010
,
0100
1000
0001
1000
,
0010
0001
0010
1000
,
0001
0010
0100
0001
,
0100
0000
0000
0100
,
0010
0001
1000
0010
,
0100
1000
0100
0001
,
0010
0100
1000
0001
,
0100
0000
0000
0100
,
0010
0100
0001
1000
,
0100
0010
0001
0100
,
0010
1000
0001
0010
,
0100
0000
0000
0100
,
0010
0001
1000
0010
,
0001
0010
1000
0001
,
0010
0100
1000
0010
,
0001
0000
0020
0030
,
0110
0000
0100
0000
,
1001
0000
1000
0000
,
0110
0000
0010
0000
,
1001
0000
0001
0000
,
1000
0000
0010
0000
,
0001
0000
0010
0000
,
0100
0000
0010
0000
,
0110
0000
0000
1001
0000
0000
0000
0000
,
2000
0000
3001
0001
,
0022
0000
0000
0000
,
0000
0000
0000
0000
,
0033
0000
0000
0000
;

//--------------- dance-single - eataninja ----------------
#NOTES:
     dance-single:
     eataninja:
     Medium:
     9:
     0,0,0,0,0:
0000
0000
0000
0000
,
0000
0000
0000
0000
,
0000
0000
0000
0000
,
1001
0000
0000
2000
0000
0000
3100
0000
,
1001
0000
0000
0002
0000
0000
0103
0000
,
0110
0000
0000
0020
0000
0000
1030
0000
,
1001
0000
0000
0022
0000
0000
0033
0000
,
0100
0000
0000
0200
0000
0010
0310
0000
,
0001
1000
0010
0100
,
0020
0000
0000
1000
1030
0000
0000
0000
,
0001
0010
0100
1000
,
0002
0000
0000
0100
0103
0000
0000
0010
,
1000
1000
0100
0010
,
0002
0000
0000
1000
1003
0000
0000
0000
,
1010
0001
0001
0001
,
1000
0000
0100
0010
0000
0100
0010
0000
,
0001
1000
0010
0100
,
0002
0000
0000
1000
1003
0000
0000
0000
,
0100
0010
0001
1000
,
0020
0000
0000
0100
0130
0000
0000
0001
,
1000
0001
0010
0100
,
2000
0000
0000
0001
3001
0000
0000
0100
,
2000
0000
0000
3100
0001
0000
0000
0000
,
2000
0100
0001
3100
,
0010
0001
0010
0000
0001
1000
0001
0000
,
1000
0010
0001
0010
,
0100
0010
0100
0000
0001
1000
0001
0000
,
0020
1000
0100
0031
,
1000
0000
0010
0100
0000
0010
1000
0000
,
0001
0000
0010
2000
0000
3010
0001
0000
,
1000
0010
1000
0000
0001
0010
0001
0000
,
0010
1000
0010
0100
,
2000
0000
0000
0001
0000
0000
3100
0000
,
0010
0001
0100
0010
,
2000
0000
0000
3001
0000
0000
0100
0000
,
0110
0010
1000
0001
,
1001
1000
0100
0010
,
0011
0001
0100
0010
,
2001
0000
3010
0000
,
0100
1001
1001
1001
,
1000
0000
0100
0000
0001
0100
0010
0000
,
0001
1000
0010
0000
0001
0010
0100
0000
,
0010
0000
0100
0000
0010
0100
0010
0000
,
1000
0000
0001
0000
0010
0100
1000
0000
,
1001
0000
0001
0000
0100
1000
0100
0000
,
0010
1000
0001
0000
0010
0100
1000
0000
,
0002
0100
1000
0013
,
0110
0000
1000
0000
0001
0001
0001
0000
,
1000
0000
0010
0000
0001
0010
0100
0000
,
0001
1000
0001
0000
0010
0100
1000
0000
,
0001
0000
1000
0000
0010
0100
0010
0000
,
1000
0000
0001
0000
0010
0001
1000
0000
,
1001
0000
0010
0000
0100
0010
1000
0000
,
0001
0010
1000
0000
0010
0001
0100
0000
,
0110
0000
0010
0000
1000
0001
1000
0000
,
0110
0000
0010
0000
0001
1000
0010
0000
,
0100
0000
0010
0000
1000
0001
0010
0000
,
0100
0000
0001
0000
0100
0010
0001
0000
,
1000
0000
0010
0000
0001
0010
0100
0000
,
0001
0000
0010
0000
1000
0010
0001
0000
,
2001
0000
0010
3001
,
0101
0100
0010
1000
,
1002
0000
0010
1003
,
1100
0100
0010
0001
,
1001
0000
0000
0002
0000
0000
0103
0000
,
1001
0000
0000
2000
0000
0000
3100
0000
,
0110
0000
0000
0020
0000
0000
0031
0000
,
1001
0000
0000
2020
0000
0000
3030
0000
,
0002
0000
0000
0000
1003
0100
1000
0100
,
0020
0000
0000
0000
,
0000
0000
0000
0000
,
0030
0000
0000
0000
;

//--------------- dance-single - eataninja ----------------
#NOTES:
     dance-single:
     eataninja:
     Hard:
     13:
     0,0,0,0,0:
0000
0000
0000
0000
,
0000
0000
0000
0000
,
0000
0000
0000
0000
,
1002
0000
1003
0000
0100
0010
0001
0000
,
2000
0000
3010
0000
0100
0001
1000
0000
,
0200
0000
0310
0000
0001
1000
0100
0000
,
1100
0000
1000
1001
0000
0001
0100
0100
,
0010
0000
0100
0020
0000
1030
0001
0001
,
0010
0100
2000
3020
,
0031
0000
0010
0100
0002
0000
1003
0000
,
0100
0000
0010
0001
1000
0001
0100
0000
,
0120
0000
1030
0001
2000
0000
3100
0010
,
0002
0100
1000
0013
,
0200
0000
1300
0010
0100
0001
1000
0000
,
1001
0101
0101
0101
,
2000
0000
3001
0010
0100
0100
1000
0010
,
0100
0001
2000
3200
,
0301
0000
0100
0010
0002
0000
1003
0000
,
0010
0000
0100
0001
1000
0001
0010
0000
,
0110
0000
0100
1000
0002
0000
1003
0010
,
0200
1000
0010
0301
,
1001
0000
1000
0001
0020
0000
0130
1000
,
1200
0000
0301
0100
2000
0000
3001
0000
,
1000
0010
1000
0010
0100
0001
0100
0001
,
2000
0100
0001
3010
,
0100
0010
0100
0010
1000
0001
1000
0001
,
0020
0001
1000
0130
,
1000
0100
1000
0100
0010
0001
0010
0001
,
0100
0000
0010
1000
0001
1000
0010
0000
,
1000
0000
0100
0002
0000
0103
1000
0000
,
0010
0100
0001
0000
0010
0100
1100
0000
,
1001
0001
0100
0010
0100
0001
0100
0001
,
2000
0000
3100
0001
0200
0000
1300
0000
,
0001
1000
0010
0100
0001
1000
0001
0010
,
0200
0000
1300
0001
2000
0000
3010
0000
,
0110
0000
0100
1000
0100
0001
1000
0000
,
1001
0000
0100
0001
0100
1000
0010
0000
,
0110
0100
0001
0000
0010
1000
0002
0000
,
0103
0000
1000
0000
0001
0001
1000
1000
,
0010
0101
1001
1100
,
0100
0010
0001
1000
0001
0100
0010
0000
,
0100
1000
0100
0000
0100
0001
0010
0000
,
0100
0010
0001
1000
0010
0100
0001
0000
,
2001
0100
0001
3100
,
0010
0001
1000
0001
0100
0010
1000
0000
,
0010
0100
0001
0000
0001
1000
0100
0000
,
0010
0100
0010
0001
1000
0010
0001
0010
,
0110
0000
0100
0001
1000
1000
0001
0000
,
0010
0100
1000
0001
1000
0010
0100
0001
,
1000
0100
1000
0100
0010
0001
1000
0000
,
0010
0100
0010
0000
0100
0001
1000
0000
,
1002
0010
1000
0013
,
0100
1000
0001
1000
0010
0100
0001
1000
,
0100
0001
0100
0010
0100
1000
0001
0000
,
1000
0010
0100
0000
0001
0010
1000
0000
,
1020
0100
0001
0130
,
1000
0001
1000
0100
0010
0001
1000
0010
,
0100
0010
1000
0001
0010
0100
1000
0001
,
1000
0010
0100
0001
1000
0100
0010
0100
,
0002
0000
0103
0000
2000
0001
3001
0000
,
0101
0000
0100
0010
2000
0000
3001
0000
,
1100
0000
0100
0010
0002
0000
1003
0000
,
1001
1000
0100
0000
0010
0100
0010
0000
,
1001
0001
0100
0000
0010
1000
0100
0000
,
2001
0000
3001
0000
0010
0100
1000
0000
,
0002
0000
0103
0000
0010
1000
0001
0000
,
0020
0000
0130
0000
1000
0001
0010
0000
,
0011
0000
0001
1001
0000
1000
0010
0010
,
0200
0000
0000
0000
0301
0001
1000
1000
,
2002
0000
0000
0000
,
0000
0000
0000
0000
,
3003
0000
0000
0000
;
