#TITLE:We Can Change;
#SUBTITLE:;
#ARTIST:Sota Fujimori ft. Kemy;
#TITLETRANSLIT:;
#SUBTITLETRANSLIT:;
#ARTISTTRANSLIT:;
#GENRE:;
#CREDIT:;
#MUSIC:We Can Change.ogg;
#BANNER:;
#BACKGROUND:;
#CDTITLE:;
#SAMPLESTART:57.391;
#SAMPLELENGTH:15.000;
#SELECTABLE:YES;
#OFFSET:0.000;
#BPMS:0.000=138.000;
#STOPS:;
#BGCHANGES:;
#FGCHANGES:;

//--------------- dance-single - RaverAce ----------------
#NOTES:
     dance-single:
     RaverAce:
     Beginner:
     3:
     0,0,0,0,0:
0000
0000
0000
0000
,
0000
0000
0000
0000
,
0000
0000
0000
0000
,
0000
0000
0000
0000
,
0000
0000
0000
0000
,
0010
0000
0000
0000
,
0010
0000
0000
0000
,
0100
0000
0000
0000
,
0110
0000
0000
0000
,
1001
0000
0000
0000
,
0001
0000
0000
0000
,
0001
0000
0000
0000
,
0001
0000
0000
0000
,
1001
0000
0000
0000
,
1000
0000
0000
0000
,
1000
0000
0000
0000
,
1000
0000
0000
0000
,
0110
0000
0010
0000
,
0100
0000
0000
0000
,
0010
0000
0100
0000
,
0010
0000
0000
0000
,
1000
0000
0001
0000
,
1000
0000
0000
0000
,
0001
0000
1000
0000
,
0001
0000
1000
0000
,
1001
0000
0001
0000
,
0010
0000
0100
0000
,
1001
0000
1000
0000
,
0010
0000
0100
0000
,
1001
0000
0001
0000
,
0100
0000
0010
0000
,
1001
0000
1000
0000
,
1001
0000
0010
0000
,
1001
0000
0001
0000
,
0100
0000
0010
0000
,
1000
0000
0100
0000
,
0010
0000
0001
0000
,
1001
0000
1000
0000
,
0010
0000
0100
0000
,
0001
0000
1000
0000
,
0100
0000
0010
0000
,
0001
0000
0001
0000
,
1000
0000
1000
0000
,
0010
0000
0010
0000
,
0100
0000
0100
0000
,
0001
0000
1000
0000
,
0100
0000
0010
0000
,
0001
0000
0100
0000
,
0010
0000
1000
0000
,
1001
0000
0001
0000
,
0010
0000
0100
0000
,
1000
0000
0010
0000
,
0100
0000
0001
0000
,
1000
0000
0100
0000
,
0010
0000
0001
0000
,
0100
0000
0010
0000
,
1000
0000
0001
0000
,
1001
0000
0000
0000
;

//--------------- dance-single - RaverAce ----------------
#NOTES:
     dance-single:
     RaverAce:
     Easy:
     5:
     0,0,0,0,0:
0000
0000
0000
0000
,
0000
0000
0000
0000
,
0000
0000
0000
0000
,
0000
0000
0000
0000
,
0000
0000
0000
0000
,
0001
1000
0010
0000
,
0100
0000
0001
0000
,
1000
0001
0010
0000
,
0220
0000
0000
0330
,
1001
0000
0001
0100
,
0010
0000
0010
1000
,
0001
0000
0001
1000
,
0100
0000
0100
0010
,
0001
0000
0001
0100
,
0010
0000
0010
0100
,
0001
0000
1000
0100
,
0001
0000
0001
0100
,
1001
0000
1000
0100
,
0010
0000
0010
0001
,
1000
0000
1000
0001
,
0100
0000
0100
0010
,
1000
0000
1000
0100
,
0010
0000
0010
0100
,
1000
0000
0001
0100
,
1000
0000
1000
0100
,
2001
0000
3001
0001
,
0010
0010
0100
0100
,
1002
0000
1003
1000
,
0010
0010
0100
0100
,
0002
0000
0013
0010
,
0001
0001
1000
0010
,
0100
0000
0010
0000
1000
0001
0000
1001
,
0000
1001
0000
2001
0000
0001
3001
0000
,
1001
1000
0010
0100
,
0020
0000
2030
0000
,
3100
0010
0001
0100
,
2000
0000
3200
0000
,
0301
0010
0100
1000
,
0001
0010
0100
1000
,
0001
0100
0010
1000
,
0002
0023
0200
0330
,
1001
0001
0010
0100
,
0020
0000
0032
0000
,
0103
0010
1000
0100
,
0002
0000
0203
0000
,
1300
0010
0100
0001
,
1000
0010
0100
0001
,
1000
0000
0100
0000
0010
0000
0001
2000
,
0000
3020
0000
0230
0000
0000
0302
0000
,
1003
0010
0100
0010
,
1000
0100
0010
0100
,
1000
0001
0100
0001
,
1000
0100
0110
0010
,
0001
0010
0100
0010
,
0001
0100
0010
0100
,
0001
0000
1000
0000
0100
0200
0000
2300
,
0000
3002
0000
0203
0000
0000
0310
0000
,
1001
0000
0000
0000
;

//--------------- dance-single - RaverAce ----------------
#NOTES:
     dance-single:
     RaverAce:
     Medium:
     8:
     0,0,0,0,0:
0000
0000
0000
0000
,
0000
0000
0000
0000
,
0000
0000
0000
0000
,
0000
0000
0000
0000
,
0000
0000
0000
0000
,
0001
0100
0010
1000
,
0100
0010
0001
0010
,
0100
1000
0001
0100
,
0220
0000
0000
0330
,
1001
0000
0001
0000
0100
0000
0010
0010
,
0000
1000
0000
0200
0000
0000
0310
0000
,
0001
0000
1000
0000
0010
0100
0010
1000
,
0000
0010
0000
0200
0000
0000
0301
0000
,
1001
0000
1000
0000
0100
0000
0010
0010
,
0000
0001
0000
0200
0000
0000
0310
1000
,
0010
0000
0100
0000
0001
0010
0100
1000
,
0000
0001
0000
0200
0000
0302
0000
1003
,
1001
0000
0001
0000
0100
0010
0100
0020
,
0000
2030
0000
3200
0000
0000
0310
0000
,
0001
0000
0100
0000
0010
1000
0010
0200
,
0000
0302
0000
0023
0000
0000
0031
0000
,
1001
0000
1000
0000
0100
0010
0100
0020
,
0000
0032
0000
0203
0000
0000
0310
1000
,
0001
0000
0100
0000
0010
0100
0001
0020
,
0000
0230
0000
2300
0000
0000
3001
1000
,
1001
0000
0001
0000
0100
0010
1000
0010
,
0000
1000
0001
0200
0000
0001
0301
0010
,
0110
0000
0100
0000
1000
0001
0100
2000
,
0000
3200
0000
0302
0000
2003
0000
3001
,
1001
0000
1000
0000
0100
0010
0001
0020
,
0000
0032
0000
2003
0000
0000
3010
0000
,
0100
0001
0100
0010
1000
0001
0000
1001
,
0000
1001
0000
1002
0000
1000
1003
0001
,
1001
0000
0001
0021
0000
2030
0000
3020
,
0000
0000
0130
2000
0000
3001
0001
0100
,
0020
0000
2030
0000
3200
0000
0310
0210
,
0000
0000
1300
1200
0000
1300
0010
0000
,
1001
0000
1000
1200
0000
0302
0000
0203
,
0000
0310
0001
0200
0000
0301
0010
0100
,
0020
0000
0032
0000
0103
0010
0000
0110
,
0000
0101
0000
2001
0000
0001
3001
1000
,
1001
0000
1000
1020
0000
0032
0000
0023
,
0000
0000
0130
0002
0000
1003
1000
0100
,
0020
0000
0032
0000
0103
0010
0000
0210
,
0000
0000
0301
0201
0000
0301
0010
0000
,
1001
0000
0001
0201
0000
2300
0000
3200
,
0000
0310
1000
0200
0000
1300
0010
0100
,
0020
0000
2030
0000
3100
0010
0000
0110
,
0000
1100
0000
1002
0000
1000
1003
0000
,
0001
0000
0010
0100
1000
0002
0000
0203
,
0000
0310
1000
0020
0000
2030
0000
3100
,
0001
0000
0101
0000
0100
0010
0000
0011
,
0000
0001
1000
0020
0000
0130
0001
0000
,
1000
0000
0010
0100
0001
2000
0000
3200
,
0000
0310
0001
0020
0000
0032
0000
0103
,
1000
0000
1100
0000
0100
0010
0000
1010
,
0000
1001
0000
0021
0000
0130
1000
0000
,
1001
0000
0000
0000
;

//--------------- dance-single - RaverAce ----------------
#NOTES:
     dance-single:
     RaverAce:
     Hard:
     11:
     0,0,0,0,0:
0000
0000
0000
0000
,
0000
0000
0000
0000
,
0000
0000
0000
0000
,
0000
0000
0000
0000
,
0000
0000
0000
0000
,
1100
0000
0110
0000
0011
0001
0100
2000
,
0000
3200
0000
0302
0000
1003
0010
0100
,
0101
0000
0110
0000
1010
1000
0100
0010
,
0110
0200
0000
2300
0000
3001
0100
0000
,
1001
0000
1000
0000
0010
0100
0001
0011
,
0000
1100
0000
1001
0000
0001
0100
0000
,
0110
0000
0010
0000
1000
0010
0100
0001
,
0000
0101
0000
0011
0000
0001
1000
0000
,
1001
0000
0001
0000
0010
0100
1000
1010
,
0000
0101
0000
1001
0000
1000
0100
0010
,
0110
0000
0100
0000
1000
0001
0100
0110
,
0000
1010
0000
0201
0000
0302
0000
0013
,
0110
0000
0100
0000
1000
0001
0100
0110
,
0000
0010
1000
1200
0000
1300
1010
0000
,
0101
0000
0001
0000
0010
0001
0100
0101
,
0000
0001
0010
0120
0000
0130
1100
0000
,
0110
0000
0011
0000
0001
1000
0010
0110
,
0000
0100
0001
2001
0000
3001
0010
0100
,
1100
0000
1000
0000
0010
1000
0100
1100
,
0000
1010
0000
0201
0010
0010
0310
1000
,
1002
0000
0103
0000
0101
0001
0010
2000
,
0000
3020
0000
0230
0000
1300
0001
0100
,
0110
0000
0010
0000
1010
1000
0100
0002
,
0000
0203
0000
0320
0000
0032
0000
1003
,
2001
0000
3100
0000
1100
1000
0010
0002
,
0000
0023
0000
0230
0000
0301
1000
0100
,
0110
0010
0001
0100
0101
0001
0000
0011
,
0000
1001
0000
0011
0000
1001
1000
0010
,
1010
0000
1000
1100
0000
0110
0000
0012
,
0000
1003
0001
0101
0000
0100
0010
1000
,
1010
0000
0101
0000
0011
0000
0010
0110
,
0000
0100
1000
1010
0000
1000
1100
0000
,
0011
0000
0001
0101
0000
0110
0000
2010
,
0000
3001
1000
1100
0000
0100
0010
0001
,
0011
0000
1100
0000
1010
0010
0000
0110
,
0000
0101
0000
2001
0000
3100
0001
0100
,
0110
0000
0010
0011
0000
0101
0000
0210
,
0000
0310
1000
1200
0000
1300
0001
0100
,
0101
0000
0011
0000
1001
1000
0000
1010
,
0000
1000
0001
0012
0000
0100
0103
0000
,
0110
0000
0010
1010
0000
1100
0000
0210
,
0000
0310
0001
0201
0000
0301
1000
0100
,
1100
0000
1010
0000
1001
0001
0000
0011
,
0000
0000
1001
0000
0000
0000
2010
0000
0000
0000
3100
0000
0010
0001
1000
0000
,
1001
0000
0001
0100
1000
1100
0000
0110
,
0000
0101
0001
0010
0000
0110
0000
0100
,
1100
0000
1010
0000
0101
0001
0000
0011
,
0000
0001
1000
2010
0000
0100
3100
0000
,
1001
0000
1000
0100
0001
0101
0000
0110
,
0000
1100
1000
0010
0000
0110
0000
0100
,
0101
0000
0011
0000
1100
1000
0000
1010
,
0000
1001
0000
0011
0001
0100
0010
1000
,
1001
0000
0001
2000
0000
3200
0000
0310
;
