#TITLE:Walking On Sunshine;
#SUBTITLE:;
#ARTIST:♪♪♪♪♪;
#TITLETRANSLIT:;
#SUBTITLETRANSLIT:;
#ARTISTTRANSLIT:;
#GENRE:;
#CREDIT:;
#MUSIC:Walking On Sunshine.ogg;
#BANNER:;
#BACKGROUND:;
#CDTITLE:;
#SAMPLESTART:51.179;
#SAMPLELENGTH:14.392;
#SELECTABLE:YES;
#OFFSET:0.000;
#BPMS:0.000=218.500
,16.000=219.000
,24.000=218.000
,32.000=219.000
,52.000=220.000
,64.000=219.500
,92.000=220.000
,128.000=219.500
,144.000=218.000
,176.000=221.000
,188.000=220.000
,192.000=221.000
,208.000=220.000
,220.000=220.500
,224.000=222.000
,240.000=220.000
,248.000=219.500
,272.000=220.000
,288.000=219.000
,304.000=220.000
,336.000=219.000
,364.000=220.500
;
#STOPS:;
#DISPLAYBPM:220.000;
#BGCHANGES:;
#FGCHANGES:;

//--------------- dance-single - eataninja ----------------
#NOTES:
     dance-single:
     eataninja:
     Beginner:
     4:
     0,0,0,0,0:
0000
0000
0000
0000
,
0000
0000
0000
0000
,
0000
0000
0000
0000
,
0000
0000
0000
0000
,
0000
0000
0000
0000
,
0000
0000
0000
0000
,
0000
0000
0000
0000
,
0000
0000
0000
0000
,
1000
0000
1001
0000
,
0010
0000
0100
0000
,
0001
0000
0001
0000
,
0001
0000
0000
0000
,
0001
0000
1001
0000
,
0010
0000
0100
0000
,
1000
0000
1000
0000
,
1000
0000
0000
0000
,
1000
0000
0100
0000
,
1000
0000
0000
0000
,
0001
0000
0100
0000
,
0001
0000
0000
0000
,
1000
0000
1000
0000
,
0010
0000
0010
0000
,
0100
0000
0100
0000
,
0001
0000
0001
0000
,
0010
0000
0100
0000
,
0010
0000
0000
0000
,
0001
0000
1000
0000
,
0001
0000
0000
0000
,
1000
0000
1000
0000
,
0100
0000
0100
0000
,
0010
0000
0010
0000
,
0001
0000
0001
0000
,
0100
0000
1000
0000
,
0100
0000
0000
0000
,
0100
0000
0001
0000
,
0100
0000
0000
0000
,
0001
0000
0001
0000
,
1000
0000
1000
0000
,
0100
0000
0100
0000
,
1000
0000
1000
0000
,
0010
0000
0001
0000
,
0010
0000
0000
0000
,
0010
0000
1000
0000
,
0010
0000
0000
0000
,
1000
0000
1000
0000
,
0001
0000
0001
0000
,
0010
0000
0010
0000
,
0100
0000
1000
0000
,
2002
0000
3003
0000
,
1000
0000
0000
0000
,
0220
0000
0330
0000
,
0100
0000
0100
0000
,
2002
0000
3003
0000
,
1000
0000
0000
0000
,
0220
0000
0330
0000
,
0010
0000
0010
0000
,
2002
0000
3003
0000
,
0001
0000
0000
0000
,
0220
0000
0330
0000
,
0100
0000
0001
0000
,
1000
0000
1001
0000
,
0000
0000
0010
0000
,
0100
0000
0100
0000
,
0001
0000
0000
0000
,
1000
0000
1001
0000
,
0000
0000
0010
0000
,
0100
0000
0100
0000
,
1000
0000
0000
0000
,
0001
0000
0001
0000
,
0100
0000
0000
0000
,
1000
0000
1000
0000
,
0100
0000
0000
0000
,
0001
0000
0001
0000
,
0001
0000
0001
0000
,
1000
0000
1000
0000
,
0100
0000
0010
0000
,
0002
0000
0003
0000
,
2000
0000
3000
0000
,
0010
0000
0010
0000
,
0100
0000
0010
0000
,
2000
0000
3000
0000
,
0002
0000
0003
0000
,
0010
0000
0010
0000
,
0100
0000
0010
0000
,
0002
0000
0103
0000
,
0200
0000
0310
0000
,
0020
0000
1030
0000
,
0001
0000
0000
0000
,
2000
0000
3100
0000
,
0200
0000
0310
0000
,
0020
0000
0031
0000
,
1000
0000
0010
0000
,
0001
0000
0010
0000
,
0100
0000
0001
0000
,
1001
0000
0000
0000
,
0001
0000
1000
0000
,
0100
0000
0001
0000
,
0100
0000
1000
0000
,
1001
0000
0000
0000
;

//--------------- dance-single - eataninja ----------------
#NOTES:
     dance-single:
     eataninja:
     Easy:
     7:
     0,0,0,0,0:
0000
0000
0000
0000
,
0000
0000
0000
0000
,
0000
0000
0000
0000
,
0000
0000
0000
0000
,
1000
0001
1000
0000
,
0010
0000
0110
0000
,
0001
1000
0001
0000
,
0010
0000
0100
1000
,
0001
0001
1010
0000
,
0100
0000
0001
0001
,
1000
1000
0001
0010
,
0100
0000
0000
0000
,
1000
1000
0011
0000
,
0100
0000
1000
1000
,
0001
0001
1000
0010
,
0100
0000
0000
0000
,
0010
0100
0000
0100
,
0001
1000
0000
1000
,
0100
0010
0000
0010
,
0001
1000
0000
0001
,
0100
0100
0100
0000
,
0010
0100
0001
0000
,
0010
0010
0010
0000
,
0100
1000
0001
0000
,
0010
0100
0000
0100
,
0001
0100
0000
0100
,
1000
0001
0000
0001
,
1000
0010
0000
0010
,
1000
1000
1000
0000
,
0010
0100
0001
0000
,
1000
1000
1000
0000
,
0001
0010
0100
0000
,
1000
0100
0000
0100
,
0001
0100
0000
0100
,
0010
0001
0000
0001
,
1000
0010
0000
0010
,
0100
0100
0100
0000
,
0001
0100
0001
0000
,
0010
0010
0010
0000
,
0001
0010
0100
0000
,
0100
0001
0000
0001
,
0100
1000
0000
1000
,
0010
0100
0000
0100
,
1000
0100
0000
0100
,
0001
0001
0001
0000
,
0100
0010
1000
0000
,
0001
0001
0001
0010
,
1000
0010
0100
2000
,
0000
0001
0000
0100
,
0000
0001
0000
0010
,
3010
0000
0110
0000
,
0100
0001
1000
0002
,
0000
0010
0000
1000
,
0000
0100
0000
1003
,
1001
0000
0010
0000
,
0100
1000
0001
0200
,
0000
1000
0000
0010
,
0000
0001
0000
0310
,
0110
0000
0100
0000
,
0001
0010
1000
0010
,
0001
0000
0011
0000
,
0100
1000
0001
0001
,
1000
0010
0100
0001
,
1000
0000
0000
0000
,
0001
0000
0101
0000
,
0010
1000
0001
0001
,
1000
0100
0010
0001
,
0100
0000
0020
0000
,
1030
0001
1000
0000
,
0100
0010
0100
0000
,
1000
1000
1000
0000
,
0001
0100
0001
0000
,
0101
0000
0101
0000
,
1000
1000
0001
0000
,
1100
0000
1100
0000
,
0001
0001
1000
0020
,
0000
0230
0000
0300
,
0001
1000
0001
0000
,
0011
0000
0011
0000
,
1000
1000
0001
0020
,
0000
0230
0000
0300
,
1000
0001
1000
0000
,
1010
0000
1010
0000
,
0001
0100
0010
0000
,
0002
0013
1000
0000
,
2000
3100
0001
0000
,
0002
0103
1000
0000
,
1001
0000
1000
0000
,
0002
0103
1000
0000
,
2000
3100
0001
0000
,
0002
0013
0100
0000
,
1001
0000
1000
0200
,
0000
0302
0000
0203
,
0000
0310
0000
0011
,
0000
0000
1010
0000
,
1001
0000
0001
0200
,
0000
2300
0000
3200
,
0000
0310
0000
1010
;

//--------------- dance-single - eataninja ----------------
#NOTES:
     dance-single:
     eataninja:
     Medium:
     10:
     0,0,0,0,0:
0000
0000
0000
0000
,
0000
0000
0000
0000
,
0000
0000
0000
0000
,
0000
0000
0000
0000
,
0000
1001
0000
1001
,
0000
0010
0100
1000
,
0000
1001
0000
1001
,
0000
0010
0100
0001
,
1000
1000
0011
0000
,
0001
0000
0100
0000
1000
0100
0000
0001
,
0000
0001
0000
0010
0200
0000
1300
0001
,
0000
0000
0000
0000
,
1000
1000
0101
0000
,
0001
0000
0010
0000
1000
0010
0000
0001
,
0000
0001
0000
0100
0020
0000
1030
0001
,
0000
0000
0000
1000
,
0010
0100
0001
0002
,
0003
0010
0100
2000
,
3000
1001
0000
0010
,
0100
0000
0001
0010
0000
0000
0100
0000
,
1000
0000
0001
0000
1000
0000
0000
0010
,
0000
0100
0000
0001
1000
0000
0000
0000
,
0100
0000
0001
0000
0001
0000
0000
0100
,
0000
1000
0000
0001
0100
0000
0010
0000
,
0100
0001
0010
0200
,
0300
1000
0001
0002
,
0003
0010
1000
0020
,
0030
0010
0001
0100
,
0010
0000
0010
0000
1000
0000
0000
0001
,
0000
0010
0000
0100
1000
0000
0000
0000
,
0010
0000
0001
0000
0010
0000
0000
0010
,
0000
1000
0000
0001
0010
0000
0100
0000
,
0001
0100
1000
1000
,
0010
0100
0001
0002
,
0003
0000
1100
0000
0000
0000
1000
0001
,
1000
0100
0001
0100
,
0010
0000
0010
0000
0001
0000
0000
1000
,
0000
0010
0000
0100
0010
0000
0000
0000
,
0001
0000
0001
0000
0010
0000
0000
0100
,
0000
0100
0000
0010
1000
0000
0100
0000
,
0001
0100
1000
2000
,
3000
0010
0100
0002
,
0003
0010
0100
0200
,
0300
1000
0001
1000
,
0010
0000
0100
0000
0001
0000
0010
0100
,
0000
0100
0000
1000
0001
0000
0000
0000
,
1000
0010
0100
1000
,
0100
0000
0001
1000
0000
0000
2100
0000
,
0001
0100
3001
0102
,
1000
0100
1003
0010
,
0110
0000
0001
1000
,
0010
0000
0001
0010
0000
0000
0210
0000
,
1000
0010
1300
0120
,
0100
0001
0130
0001
,
1001
0000
0010
0001
,
0100
0000
1000
0100
0000
0000
0102
0000
,
0010
1000
0103
2010
,
0100
0001
3010
0100
,
0110
0000
1000
0100
,
0201
0000
0310
0002
0000
0003
1001
0000
,
1000
0010
0101
0000
,
0001
0000
1000
0000
0100
0010
0000
1000
,
0000
1000
0000
0010
0002
0000
1003
0000
,
0020
0000
0130
0001
0000
0000
0001
0000
,
1000
0100
0011
0000
,
0001
0000
1000
0000
0010
0100
0000
1000
,
0000
1000
0000
0100
0002
0000
1003
0000
,
0200
0000
0310
0001
0000
0000
1000
0000
,
0001
0000
0001
0000
1000
0000
0000
0010
,
0000
0010
0000
0100
0001
0000
0000
0000
,
1001
0000
1001
0000
1001
0000
0000
0100
,
0000
0100
0000
0010
0001
0000
0000
0000
,
1000
0010
0000
0000
0010
0100
0000
0001
,
0000
0001
0000
1000
0100
0000
0000
0000
,
1001
1001
1001
0000
,
0100
0000
1000
0010
0000
0000
0200
0000
,
1300
0200
0301
0020
,
1030
0020
0031
1000
,
0110
0000
0110
0000
1000
0001
1000
0000
,
0010
0000
0100
0001
0000
0000
0020
0000
,
1030
0020
0031
0200
,
1300
0200
0301
1000
,
0110
0000
0110
0000
0001
1000
0001
0000
,
1000
0000
0010
0000
0100
0000
0001
2000
,
0000
3000
0100
0000
0010
0000
0001
2000
,
0000
3000
0100
0000
0010
0000
0001
2000
,
0000
3000
0010
0000
0010
0000
0100
0001
,
0000
0000
0010
0000
0100
0000
1000
0002
,
0000
0003
0100
0000
0010
0000
1000
0002
,
0000
0003
0100
0000
0010
0000
1000
0002
,
0000
0003
0010
0000
0100
0000
1000
0001
,
0000
0000
1000
0010
0000
0000
2020
0000
,
3030
2200
3300
0022
,
0033
2020
3030
0202
,
0000
0303
2000
0000
,
3001
0000
0010
0100
0000
0000
2200
0000
,
3300
2002
3003
0220
,
0330
0202
0303
2020
,
0000
3030
0000
0000
;

//--------------- dance-single - eataninja ----------------
#NOTES:
     dance-single:
     eataninja:
     Hard:
     13:
     0,0,0,0,0:
0000
0000
0000
0000
,
0000
0000
0000
0000
,
0000
0000
0000
0000
,
0000
0000
0000
0000
,
1000
0000
0100
0000
1000
0000
0010
0100
,
0000
0100
0001
0000
1000
0001
1000
0000
,
0001
0000
0100
0000
0001
0000
0010
0100
,
0000
0100
1000
0000
0001
0000
1001
0000
,
0010
0000
0100
0000
0101
0000
0000
0001
,
0000
1000
0100
1000
0100
1000
0000
1010
,
0000
1010
0000
0010
0002
0000
1003
0100
,
0000
0001
0000
1000
0100
0000
1001
0000
,
0010
0000
0100
0000
1100
0000
0000
1000
,
0000
0001
0100
0001
0100
0001
0000
0011
,
0000
0011
0000
0010
2000
0000
3001
0100
,
0000
1000
0001
0000
0100
0000
0001
0000
,
1000
0100
0010
2000
,
3010
0100
1000
0002
,
0103
0010
0100
0001
,
0010
0000
0100
1000
0000
1000
0001
0000
,
1000
0000
0100
0000
0010
0000
0000
0001
,
0000
0001
0000
1000
0010
1000
0010
1000
,
0001
0000
0010
0000
0100
0000
0000
1000
,
0000
1000
0000
0001
0100
0001
0100
0001
,
0010
0100
1000
0020
,
0130
1000
0100
0002
,
1003
0100
0010
0002
,
0013
1000
0010
0200
,
1300
0000
0001
0000
0100
0000
0000
0010
,
0000
0010
0000
1000
0001
1000
0010
1000
,
0001
0000
1000
0000
0100
0000
0000
0010
,
0000
0010
0000
0001
1000
0010
1000
0001
,
0100
0010
0010
1000
,
0100
0001
0100
2000
,
3001
0000
0100
0000
0010
0000
1000
0001
,
1000
0100
0001
0200
,
0310
0000
0001
0000
1000
0000
0000
0100
,
0000
0100
0000
1000
0001
1000
0010
0100
,
0010
0000
1000
0000
0001
0000
0000
0100
,
0000
0100
0000
0001
1000
0001
0010
0100
,
0001
0100
1000
0002
,
1003
0010
0100
0020
,
1030
0001
0010
2000
,
3010
0100
1000
0002
,
1003
0000
0010
0000
0100
0000
0000
0001
,
0000
0001
0000
1000
0100
1000
0001
0100
,
0001
0100
0010
1000
,
1001
0000
0010
0001
0000
0000
1000
0010
,
1000
0010
0100
0001
0100
0001
1000
0100
,
0010
0001
1000
0010
1000
0001
0200
0000
,
1300
0100
0001
0010
,
1001
0000
1000
0010
0000
0000
0100
0001
,
0100
0001
1000
0100
0010
0001
1000
0010
,
1000
0001
0100
0010
1000
0001
2000
0000
,
3100
0001
0100
1000
,
1001
0000
0010
0100
0000
0000
0001
1000
,
0001
0010
0100
1000
0001
0100
0001
0100
,
0010
1000
0100
0010
0001
1000
0001
0100
,
0020
0031
0010
1000
,
0001
0000
0010
1000
0000
0001
0100
0000
,
1000
0000
0001
0000
0101
0000
0000
0010
,
0000
1000
0100
1000
0100
1000
0000
1010
,
0000
0011
0000
0001
2000
0000
3100
0010
,
0100
0000
0001
1000
0000
0010
0001
0000
,
1000
0000
0010
0000
0110
0000
0000
0001
,
0000
1000
0010
1000
0010
1000
0000
1100
,
0000
0101
0000
0001
2000
0000
3010
0100
,
0010
0000
1000
0001
0000
0010
0100
0000
,
1000
0000
0001
0000
1000
0000
0000
0010
,
0000
0110
0000
0001
2000
0000
3100
0000
,
0011
0000
1001
0000
1010
0000
0000
0100
,
0000
0110
0000
0001
2000
0000
3010
0000
,
0100
0001
0100
0001
1000
0100
1000
0100
,
0000
1001
0000
0100
0001
1000
0010
0000
,
1001
0000
0110
0000
2010
0000
3001
0010
,
0100
0000
0100
0001
0000
0000
0200
0000
,
1300
0000
0020
0000
1030
0000
0001
0100
,
1000
0100
0001
0100
0010
0000
1000
0000
,
0001
0000
0011
0000
0110
0000
1000
0001
,
1000
0000
0010
0001
0000
0000
0020
0000
,
1030
0000
0200
0000
1300
0000
0001
0010
,
1000
0010
0001
0010
0100
0000
1000
0000
,
0001
0000
0101
0000
0110
0000
1000
0001
,
0000
0010
0100
0000
1100
0000
0001
0100
,
0002
0000
0013
0000
0110
0000
1000
0001
,
2000
0000
3010
0000
0110
0000
0001
1000
,
0002
0000
0103
0000
1010
0000
1000
0100
,
0000
0000
0010
0000
0011
0000
1000
0001
,
2000
0000
3100
0000
0110
0000
0001
0010
,
0002
0000
1003
0000
1010
0000
0001
1000
,
0002
0000
0103
0000
1001
0000
0010
0100
,
0000
0000
0001
1000
0000
0000
0020
0000
,
0000
0032
0000
0203
,
0000
1300
0000
1010
,
0000
0000
1001
0000
,
1000
0100
0010
0001
0000
0000
0200
0000
,
0000
2300
0000
3020
,
0000
0031
0000
0101
;
