#TITLE:Walk It Out;
#SUBTITLE:;
#ARTIST:Unk;
#TITLETRANSLIT:;
#SUBTITLETRANSLIT:;
#ARTISTTRANSLIT:;
#GENRE:;
#CREDIT:;
#MUSIC:Walk It Out.ogg;
#BANNER:;
#BACKGROUND:;
#CDTITLE:;
#SAMPLESTART:15.112;
#SAMPLELENGTH:12.000;
#SELECTABLE:YES;
#OFFSET:-0.112;
#BPMS:0.000=160.000;
#STOPS:;
#BGCHANGES:;
#FGCHANGES:;

//--------------- dance-single - eataninja ----------------
#NOTES:
     dance-single:
     eataninja:
     Beginner:
     2:
     0,0,0,0,0:
0000
0000
0000
0000
,
0000
0000
0000
0000
,
0000
0000
0000
0000
,
0000
0000
0000
0000
,
0000
0000
0000
0000
,
0000
0000
0000
0000
,
1000
0000
0000
0000
,
0001
0000
0000
0000
,
1000
0000
0000
0000
,
0001
0000
0000
0000
,
1000
0000
0001
0000
,
1000
0000
1000
0000
,
0001
0000
1000
0000
,
0001
0000
0001
0000
,
1000
0000
0000
0000
,
0001
0000
0000
0000
,
1000
0000
0000
0000
,
0001
0000
0000
0000
,
0100
0000
0010
0000
,
0100
0000
0000
0000
,
0010
0000
0100
0000
,
0010
0000
0000
0000
,
1000
0000
0001
0000
,
1000
0000
0000
0000
,
0001
0000
1000
0000
,
0001
0000
0000
0000
,
0010
0000
0100
0000
,
0010
0000
0100
0000
,
1000
0000
0001
0000
,
1000
0000
0001
0000
,
0100
0000
0010
0000
,
0100
0000
0010
0000
,
1000
0000
0001
0000
,
1000
0000
0001
0000
,
0010
0000
0001
0000
,
0010
0000
0000
0000
,
0100
0000
1000
0000
,
0100
0000
0000
0000
,
1000
0000
0010
0000
,
1000
0000
0000
0000
,
0001
0000
0100
0000
,
0001
0000
0000
0000
,
1000
0000
0001
0000
,
1000
0000
1000
0000
,
0001
0000
1000
0000
,
0001
0000
0001
0000
,
1000
0000
0000
0000
,
0001
0000
0000
0000
,
1000
0000
0000
0000
,
0001
0000
0000
0000
,
1000
0000
0001
0000
,
1000
0000
1000
0000
,
0001
0000
1000
0000
,
0001
0000
0001
0000
,
1000
0000
0000
0000
,
0001
0000
0000
0000
,
1000
0000
0000
0000
,
0001
0000
0000
0000
,
1000
0000
0010
0000
,
1000
0000
0000
0000
,
0001
0000
0010
0000
,
0001
0000
0000
0000
,
1000
0000
0100
0000
,
1000
0000
0000
0000
,
0001
0000
0100
0000
,
0001
0000
0000
0000
,
1000
0000
0010
0000
,
1000
0000
0010
0000
,
0100
0000
0001
0000
,
0100
0000
0001
0000
,
1000
0000
0100
0000
,
1000
0000
0100
0000
,
0010
0000
0001
0000
,
0010
0000
0001
0000
;

//--------------- dance-single - eataninja ----------------
#NOTES:
     dance-single:
     eataninja:
     Easy:
     5:
     0,0,0,0,0:
0000
0000
0000
0000
,
0000
0000
0000
0000
,
0000
0000
0000
0000
,
0000
0000
0000
0000
,
0000
0000
0000
0000
,
0000
0000
0000
1000
,
0010
0100
0000
0100
,
0100
0001
0000
0001
,
0010
0100
0000
0100
,
0100
1000
0000
0001
,
1000
0100
0001
0000
,
0001
0100
1000
0000
,
1000
0100
0001
0000
,
0001
0100
1000
0001
,
0100
0100
0000
0100
,
0010
1000
0000
0001
,
0010
0010
0000
0010
,
0100
1000
0000
0001
,
1001
0010
0100
0000
,
0001
1000
0001
0000
,
0010
0100
1000
0000
,
0001
0100
0001
0000
,
1000
0010
0001
0010
,
1000
0010
1001
0000
,
0001
0010
0100
1000
,
0001
0100
1001
0000
,
1000
0010
0001
0010
,
0100
0100
0000
0001
,
1000
0100
0001
0100
,
0010
0010
0000
0001
,
1000
0010
1001
0000
,
0001
0010
0001
0000
,
1000
0100
0001
0100
,
0010
0010
1001
0000
,
0001
0100
0010
0000
,
1000
0010
0100
0000
,
0001
1000
0100
0100
,
0001
0100
1000
0001
,
0100
0100
0000
0010
,
1000
0001
0000
1000
,
0100
0100
0000
0010
,
0001
1000
0001
0001
,
1000
0100
0001
0000
,
0001
0100
1000
0000
,
1000
0100
0001
0000
,
0001
0100
1000
1000
,
0001
0100
0000
0100
,
0010
0010
0000
1000
,
0001
0010
0000
0010
,
0100
0100
0000
1000
,
0001
0100
1000
0100
,
0001
0100
1000
0000
,
1000
0100
0001
0100
,
1000
0100
0001
0001
,
1000
0100
0000
0100
,
0010
0010
0000
0001
,
1000
0010
0000
0010
,
0100
0100
0000
0001
,
1000
0100
0010
0001
,
1000
1000
0000
0001
,
1000
0010
0100
0001
,
1000
1000
0000
0010
,
1001
0010
0001
1000
,
0100
1000
0000
0010
,
1000
0010
1000
0001
,
0100
0001
0000
1000
,
1001
0001
0000
0001
,
0100
1000
0100
0000
,
0001
0001
0000
0001
,
0010
1000
0010
0000
,
1001
1000
0000
1000
,
0100
0001
0100
0000
,
1000
1000
0001
0001
,
1000
0010
0100
2002
,
0000
0000
0000
3003
;

//--------------- dance-single - eataninja ----------------
#NOTES:
     dance-single:
     eataninja:
     Medium:
     8:
     0,0,0,0,0:
0000
0000
0000
0000
,
0000
0000
0000
0000
,
0000
0000
0000
0000
,
0000
0000
0000
0000
,
0000
0000
0000
0000
,
0000
0000
0000
1000
,
1000
0010
0100
0000
0000
0000
0001
0000
,
0001
0010
0100
0000
0000
0000
1000
0000
,
1000
0010
0100
0000
0000
0000
0001
0000
,
0001
0010
0100
0000
0000
0000
1000
0010
,
1000
0000
1000
0001
1000
0000
1000
0100
,
1000
0000
1000
0001
1000
0000
0001
0010
,
0001
0000
0001
1000
0001
0000
0001
0100
,
0001
0000
0001
1000
0001
0000
1000
0000
,
1000
0100
0010
0000
0000
0000
0001
0000
,
0001
0100
0010
0000
0000
0000
1000
0000
,
1000
0100
0010
0000
0000
0000
0001
0000
,
0001
0100
0010
0000
0000
0000
1000
0001
,
1000
0000
1100
0010
,
0000
0000
0010
0000
0001
0100
0000
0000
,
0001
0000
0101
0010
,
0000
0000
0010
0000
1000
0100
0000
0000
,
1000
0001
2000
0000
3010
0000
0000
0000
,
1000
0001
2000
0000
3100
0000
0000
0000
,
0010
0001
1000
1000
,
0010
0100
0002
0000
1003
0000
0000
0000
,
1000
0000
0010
0100
0000
0010
1000
0000
,
0001
0000
0001
0010
0000
0010
0100
0000
,
1000
0000
0001
0010
0000
0001
1000
0000
,
0001
0000
0001
0100
0000
0100
0010
0000
,
1001
0000
1000
0100
0000
0010
0001
0000
,
1000
0000
0001
0100
0000
0010
1000
0000
,
0001
0000
1000
0100
0000
0001
0100
0000
,
0010
0000
0010
0001
1000
0000
0001
0000
,
1001
0000
0010
0100
0010
0000
0000
0000
,
1000
0000
0100
0010
0001
0000
0000
0000
,
1000
0010
0001
0000
0010
0000
0100
0000
,
0002
0000
1003
0100
1000
0000
0001
0000
,
0010
0000
0100
1000
0000
1000
0001
0000
,
1000
0000
0010
0100
0001
0000
0000
0000
,
0100
0000
0010
1000
0000
1000
0001
0000
,
1000
0000
0000
0000
1010
0000
0010
1000
,
0010
0000
0010
0100
0010
0000
0010
0001
,
0010
0000
0010
0100
0010
0000
0100
0001
,
0100
0000
0100
0010
0100
0000
0100
1000
,
0100
0000
0100
0010
0100
0000
0001
0000
,
1000
0100
0010
0000
0000
0000
0001
0000
,
1000
0010
0100
0000
0000
0000
0001
0000
,
1000
0100
0010
0000
0000
0000
0001
0000
,
1000
0010
0100
0000
0000
0000
0100
1000
,
0100
0000
0100
0001
0100
0000
0010
1000
,
0010
0000
0010
0001
0010
0000
0100
0001
,
0100
0000
0100
1000
0100
0000
0010
1000
,
0010
0000
0010
0001
0010
0000
1000
0000
,
0001
0010
0100
0000
0000
0000
1000
0000
,
0001
0100
0010
0000
0000
0000
1000
0000
,
0001
0010
0100
0000
0000
0000
1000
0000
,
0001
0100
0010
0000
0000
0000
1000
0000
,
0001
0010
0100
0000
0110
0000
1000
0000
,
0001
0100
1000
0000
0000
0100
0010
0000
,
1000
0100
0010
0000
0110
0000
0001
0000
,
1000
0100
0001
0000
0000
0100
1000
0000
,
0001
0100
0001
0000
0100
0010
0100
0000
,
1000
0100
0001
0000
0000
0100
0010
0000
,
1000
0100
1000
0000
0100
0010
0100
0000
,
0001
0100
1000
0000
0001
0000
0101
0000
,
0000
1100
0000
0101
,
1000
0001
1000
0000
0001
0000
0011
0000
,
0000
1010
0000
0011
,
1000
0001
0100
0000
0010
0000
1001
0000
,
0000
0110
0000
1001
,
0010
0100
1000
0000
0001
0000
1000
0000
,
0010
0001
0010
0000
0100
0010
1000
0000
,
0001
0000
0010
0000
0100
1000
0020
0000
,
0000
0000
0000
0030
;

//--------------- dance-single - eataninja ----------------
#NOTES:
     dance-single:
     eataninja:
     Hard:
     12:
     0,0,0,0,0:
0000
0000
0000
0000
,
0000
0000
0000
0000
,
0000
0000
0000
0000
,
0000
0000
0000
0000
,
0000
0000
0000
0000
,
0000
0000
0000
0000
0000
0000
1000
0100
,
0001
0100
1000
0000
0000
0000
1000
0010
,
0001
0010
1000
0000
0000
0000
1000
0100
,
0001
0100
1000
0000
0000
0000
1000
0010
,
0001
0010
1000
0000
0000
1000
0100
0010
,
0001
1000
0100
0010
0001
1000
0010
0100
,
0001
1000
0010
0100
0001
1000
0100
0010
,
0001
1000
0100
0010
0001
1000
0010
0100
,
0001
1000
0010
0100
0001
0000
1000
0010
,
0001
0010
1000
0000
0000
0000
0001
0010
,
1000
0010
0001
0000
0000
0000
1000
0100
,
0001
0100
1000
0000
0000
0000
0001
0100
,
1000
0100
0001
0000
0000
1000
0010
0100
,
1001
0000
1100
0000
0000
0100
0010
0001
,
1000
0000
0010
0000
0000
0100
1000
0100
,
0001
0001
1000
0000
0000
0100
0110
0000
,
0010
0001
1000
0000
0000
1000
0010
0001
,
0010
0100
0002
0000
1003
0100
0010
0001
,
1000
0010
0002
0000
0013
0100
0001
1000
,
0100
0010
0100
0000
0000
1000
0001
0001
,
1000
0010
0002
0000
0013
1000
0001
0010
,
0100
0001
0100
0001
0100
1000
0100
1000
,
0010
0000
0100
0000
0101
0000
1000
0001
,
0010
1000
0010
1000
0010
0001
0010
0001
,
0100
0010
1000
0000
1000
0010
0001
0010
,
0200
0001
0301
0000
1000
0100
0001
0100
,
0010
0001
1000
0000
1020
0000
0130
0000
,
0001
1000
0001
1000
0100
1000
0100
0010
,
0001
1000
0010
0001
0020
0000
0130
0000
,
0101
0000
0100
0010
2000
0000
3000
0000
,
1100
0000
0100
0010
0002
0000
0003
0000
,
1000
0010
1000
0010
0100
0001
0100
0010
,
1000
0001
0010
0100
1000
0000
0001
0100
,
1000
0100
0010
0000
0000
0000
1000
0100
,
0001
0100
0010
0000
0000
0000
0001
0100
,
1000
0100
0010
0000
0000
0000
1000
0100
,
0001
0100
0010
0000
0000
0001
0010
0100
,
1000
0001
0100
0010
1000
0001
0010
0100
,
1000
0001
0100
0010
1000
0001
0010
0100
,
1000
0001
0100
0010
1000
0001
0010
0100
,
1000
0001
0100
0010
1000
0000
0001
0100
,
1000
0100
0010
0000
0000
0000
0010
1000
,
0100
0010
0001
0000
0000
0000
1000
0100
,
0001
0100
0010
0000
0000
0000
0010
0001
,
0100
0010
1000
0000
0000
1000
0010
0100
,
0001
1000
0100
0010
0001
1000
0010
0100
,
0001
1000
0100
0010
0001
1000
0010
0100
,
0001
1000
0100
0010
0001
1000
0010
0100
,
0001
1000
0100
0010
0001
0000
1000
0010
,
0001
0010
0100
0000
0000
0000
0100
0001
,
0010
0100
1000
0000
0000
0000
0001
0010
,
1000
0010
0100
0000
0000
0000
0100
1000
,
0010
0100
0001
0000
0000
1000
0010
0010
,
0001
0010
1000
0010
0100
0010
1000
1000
,
0001
0010
0100
0000
0000
1000
1000
0000
,
0001
0100
1000
0100
0010
0100
0001
0001
,
1000
0100
0010
0000
0000
0001
0100
0000
,
1000
0100
1000
0100
0001
0100
0010
1000
,
0001
0001
0010
0000
0000
0100
0100
0000
,
0001
0100
0001
0100
1000
0100
0010
0001
,
1000
1000
0010
0000
0010
0100
0001
0000
,
1000
0100
0001
0000
0001
0100
1000
0000
,
0010
0100
1000
0100
0001
0000
0000
0000
,
1000
0010
0001
0000
0001
0010
1000
0000
,
0100
0010
1000
0010
0001
0000
0000
0000
,
1000
0010
0001
0000
0001
0010
1000
0000
,
0001
0010
0100
1000
0001
0100
0001
0000
,
0100
1000
0100
0001
0010
1000
0010
0100
,
1000
0001
1000
0000
0010
0100
2002
0000
,
0000
0000
0000
3003
;
