#TITLE:Vacation;
#SUBTITLE:;
#ARTIST:♪♪♪♪♪;
#TITLETRANSLIT:;
#SUBTITLETRANSLIT:;
#ARTISTTRANSLIT:;
#GENRE:;
#CREDIT:;
#MUSIC:Vacation.ogg;
#BANNER:;
#BACKGROUND:;
#CDTITLE:;
#SAMPLESTART:74.640;
#SAMPLELENGTH:12.319;
#SELECTABLE:YES;
#OFFSET:0.000;
#BPMS:0.000=153.694
,1.000=151.062
,2.000=161.756
,3.000=159.388
,4.000=159.330
,5.000=163.424
,6.000=157.744
,7.000=159.638
,8.000=164.073
,9.000=157.388
,10.000=159.014
,11.000=153.694
,12.000=162.781
,13.000=164.063
,14.000=162.132
,15.000=154.502
,16.000=155.437
,17.000=154.277
,18.000=153.125
,19.000=150.898
,20.000=154.268
,21.000=155.428
,22.000=159.263
,23.000=160.247
,24.000=157.801
,25.000=162.771
,26.000=155.027
,27.000=159.014
,28.000=165.375
,29.000=151.390
,30.000=172.266
,31.000=160.568
,32.000=151.174
,33.000=166.248
,34.000=149.745
,35.000=167.521
,36.000=159.879
,37.000=162.781
,38.000=161.509
,39.000=155.373
,40.000=152.008
,41.000=158.225
,42.000=158.595
,43.000=159.014
,44.000=157.810
,45.000=167.596
,46.000=155.373
,47.000=159.024
,48.000=169.452
,49.000=165.447
,50.000=147.978
,51.000=157.810
,52.000=158.957
,53.000=162.331
,54.000=160.257
,55.000=149.796
,56.000=157.388
,57.000=156.614
,58.000=151.999
,59.000=160.247
,60.000=156.912
,61.000=158.900
,62.000=161.194
,63.000=172.266
,64.000=147.557
,65.000=158.900
,66.000=160.626
,67.000=155.437
,68.000=161.509
,69.000=165.313
,70.000=149.745
,71.000=165.313
,72.000=164.460
,73.000=149.045
,74.000=157.810
,75.000=152.736
,76.000=164.063
,78.000=149.365
,79.000=157.810
,80.000=171.696
,81.000=149.424
,82.000=152.736
,83.000=149.745
,84.000=168.075
,85.000=155.437
,86.000=159.821
,87.000=155.027
,89.000=153.471
,90.000=161.499
,91.000=162.331
,92.000=141.543
,93.000=166.646
,94.000=160.189
,95.000=165.447
,96.000=144.511
,97.000=165.447
,98.000=147.401
,99.000=156.254
,100.000=163.223
,101.000=155.785
,102.000=156.254
,103.000=153.873
,104.000=165.447
,105.000=153.873
,106.000=161.509
,107.000=161.066
,108.000=161.499
,109.000=159.014
,110.000=150.452
,111.000=160.626
,112.000=157.388
,113.000=154.619
,114.000=159.024
,115.000=151.616
,116.000=170.776
,117.000=159.879
,118.000=157.810
,119.000=161.499
,120.000=150.077
,121.000=161.066
,122.000=146.927
,123.000=162.781
,124.000=155.437
,125.000=173.725
,126.000=152.516
,127.000=168.922
,128.000=150.632
,129.000=159.513
,130.000=153.125
,131.000=151.555
,132.000=161.499
,133.000=164.399
,134.000=155.437
,135.000=149.045
,136.000=170.919
,137.000=167.596
,138.000=142.865
,139.000=159.024
,140.000=156.254
,141.000=157.744
,142.000=153.125
,143.000=153.134
,144.000=157.023
,145.000=163.102
,146.000=155.373
,147.000=156.912
,148.000=161.509
,149.000=153.134
,150.000=161.509
,151.000=159.024
,152.000=156.254
,153.000=157.023
,154.000=149.045
,155.000=153.134
,156.000=149.475
,157.000=160.189
,158.000=160.510
,159.000=170.842
,160.000=146.560
,161.000=161.509
,162.000=142.519
,163.000=162.781
,164.000=149.745
,165.000=159.446
,166.000=157.023
,167.000=166.719
,168.000=152.008
,169.000=156.318
,170.000=156.614
,171.000=155.373
,172.000=147.664
,173.000=161.499
,174.000=150.890
,175.000=159.014
,176.000=147.656
,177.000=156.791
,178.000=157.801
,179.000=161.499
,180.000=154.268
,181.000=158.529
,182.000=159.024
,183.000=157.810
,184.000=147.237
,185.000=166.311
,186.000=148.028
,187.000=159.081
,188.000=156.254
,189.000=157.810
,190.000=154.268
,191.000=155.428
,193.000=161.066
,194.000=170.842
,195.000=155.145
,196.000=153.418
,197.000=149.796
,198.000=145.169
,199.000=160.189
,200.000=160.247
,201.000=156.726
,202.000=150.890
,203.000=153.019
,204.000=152.340
,205.000=154.619
,206.000=155.373
,207.000=158.595
,208.000=161.066
,209.000=164.001
,210.000=156.550
,211.000=154.331
,212.000=152.789
,213.000=157.444
,214.000=161.509
,215.000=148.028
,216.000=165.447
,217.000=157.509
,218.000=146.252
,219.000=164.063
,220.000=147.607
,221.000=159.821
,222.000=157.801
,223.000=160.189
,224.000=159.821
,225.000=155.428
,226.000=153.873
,227.000=159.024
,228.000=151.894
,229.000=162.711
,230.000=148.727
,231.000=156.614
,232.000=153.525
,233.000=157.388
,234.000=161.944
,235.000=151.226
,236.000=157.388
,237.000=160.685
,238.000=146.609
,239.000=162.331
,240.000=158.595
,242.000=155.373
,243.000=164.983
,244.000=150.452
,245.000=152.008
,246.000=157.801
,247.000=153.134
,248.000=152.008
,249.000=157.388
,250.000=150.077
,251.000=160.685
,252.000=156.198
,253.000=165.375
,254.000=146.196
,255.000=160.257
,256.000=161.125
,257.000=175.116
,258.000=153.882
,259.000=164.983
,260.000=157.744
,261.000=156.254
,262.000=159.821
,263.000=150.898
,264.000=179.755
,265.000=151.999
,266.000=160.247
,267.000=166.709
,268.000=159.369
,286.000=159.330
;
#STOPS:;
#DISPLAYBPM:156.000;
#BGCHANGES:;
#FGCHANGES:;

//--------------- dance-single - eataninja ----------------
#NOTES:
     dance-single:
     eataninja:
     Beginner:
     2:
     0,0,0,0,0:
0000
0000
0000
0000
,
0000
0000
0000
0000
,
0000
0000
0000
0000
,
0000
0000
0000
0000
,
1001
0000
0100
0000
,
0100
0000
0100
0000
,
0010
0000
0100
0000
,
0100
0000
0100
0000
,
0001
0000
1000
0000
,
0001
0000
0010
0000
,
0100
0000
0000
0000
,
0100
0000
0000
0000
,
1000
0000
0001
0000
,
1000
0000
0010
0000
,
0200
0000
0000
0300
,
1000
0000
0100
0000
,
0001
0000
1000
0000
,
1000
0000
0000
0000
,
0100
0000
0010
0000
,
0001
0000
0000
0000
,
1000
0000
1000
0000
,
0010
0000
1000
0000
,
0001
0000
0010
0000
,
0100
0000
1000
0000
,
0001
0000
1000
0000
,
0010
0000
0100
0000
,
0100
0000
0000
0000
,
0010
0000
0000
0000
,
1000
0000
0001
0000
,
0010
0000
0100
0000
,
0100
0000
0000
0000
,
0010
0000
0000
0000
,
0001
0000
1000
0000
,
0010
0000
0000
0000
,
0001
0000
0010
0000
,
1000
0000
0000
0000
,
0001
0000
1000
0000
,
0100
0000
0010
0000
,
0001
0000
0100
0000
,
0010
0000
0000
0000
,
1001
0000
1000
0000
,
0001
0000
0000
0000
,
0001
0000
0010
0000
,
0100
0000
0000
0000
,
0110
0000
0010
0000
,
0100
0000
0000
0000
,
1000
0000
0001
0000
,
0100
0100
0200
0000
,
0000
0000
0300
0000
,
0010
0000
1000
0000
,
0100
0000
1000
0000
,
0010
0000
0100
0000
,
0001
0001
0001
0000
,
0010
0000
0100
0000
,
0010
0000
0001
0000
,
0001
0000
0000
0000
,
0100
0000
0010
0000
,
1000
0000
0001
0000
,
0010
0000
0001
0000
,
1000
0000
0010
0000
,
0100
0100
0100
0000
,
0001
0000
1000
0000
,
0001
0000
0010
0000
,
0110
0000
0000
0000
,
0100
0100
0100
0000
,
0110
0000
0000
0000
,
0100
0100
0100
0000
,
2002
0000
0000
0000
,
0000
0000
0000
0000
,
3003
0000
0000
0000
;

//--------------- dance-single - MEGAtive ----------------
#NOTES:
     dance-single:
     MEGAtive:
     Easy:
     6:
     0,0,0,0,0:
0000
0000
0000
0000
,
0000
0000
0000
0000
,
0000
0000
0000
0000
,
0000
0000
0000
0000
,
1001
0000
0001
0000
,
0001
0000
0001
0000
,
1000
0000
1000
0000
,
1000
0000
0001
0010
,
0001
1000
0010
0000
,
0100
0001
0010
0001
,
2000
0000
3020
0000
,
0230
0000
0302
0000
,
1003
0100
1000
0000
,
0001
0100
0001
1000
,
0200
0000
0320
0000
,
0032
0000
1003
0001
,
1000
0000
0010
0100
,
0001
1000
0100
0010
,
0001
0000
0010
0001
,
1000
0010
0100
0001
,
1000
0000
0010
0100
,
0001
1000
0100
0010
,
0001
1000
0001
0100
,
0010
0100
0001
1000
,
0001
0000
0010
0100
,
1000
0001
0100
0010
,
1000
0000
0010
1000
,
0001
0010
0100
1000
,
0001
0000
0010
0100
,
1000
0001
0100
0010
,
1000
0000
1000
0010
,
0100
0001
1000
0100
,
1000
0000
0001
1000
,
0010
0100
0010
0000
,
1000
0000
0001
0010
,
0100
0010
0001
0000
,
1000
0000
0010
0100
,
0001
1000
0100
1000
,
0001
0010
0100
0010
,
0001
0000
0100
0010
,
1000
0000
0001
1000
,
0100
0010
0100
0000
,
1000
0000
0001
0100
,
0010
0100
0001
0000
,
1000
0000
0100
0010
,
0001
1000
0010
1000
,
0001
0100
0010
0100
,
0001
1000
0100
0010
,
0001
0000
1000
0001
,
1000
0100
0010
0001
,
1000
0010
0100
0001
,
1000
0100
0010
0100
,
1000
0010
0100
0010
,
1000
0100
0010
0001
,
1000
0010
0100
0001
,
1000
0100
0010
0100
,
1000
0010
0100
0010
,
1000
0010
0100
0001
,
1000
0100
0010
0001
,
1000
0010
0100
0010
,
1000
0100
0010
0100
,
1000
0010
0100
0001
,
1000
0100
0010
0001
,
1000
0010
0100
0010
,
1000
1000
0000
0001
,
0001
0010
0100
1000
,
0001
0001
0000
1000
,
2000
0000
0000
0000
,
0000
0000
0000
0000
,
0000
0000
0000
0000
,
3000
0000
0000
0000
;

//--------------- dance-single - MEGAtive ----------------
#NOTES:
     dance-single:
     MEGAtive:
     Medium:
     8:
     0,0,0,0,0:
0000
0000
0000
0000
,
0000
0000
0000
0000
,
0000
0000
0000
0000
,
0000
0000
0000
0000
,
0001
0001
0001
0001
,
1000
1000
1000
1000
,
0100
0100
0100
0100
,
0010
0000
0010
0000
0010
0100
0010
0100
,
1000
0001
0100
0001
,
1000
0000
0100
0010
0000
0010
0100
0000
,
1000
0010
0100
0010
,
1000
0100
0010
0100
,
1000
0001
0100
0010
,
0100
0000
0001
0010
0000
0010
0100
0000
,
1000
0001
0100
0010
,
1000
0000
0100
0000
0010
0001
0010
0001
,
1000
0000
0001
0000
0100
0010
0100
0000
,
0001
0000
1000
0000
0100
0010
0100
0000
,
1000
0000
0001
0000
0010
0100
0010
0000
,
0001
0000
1000
0000
0010
0100
0010
0000
,
1000
0000
0100
0000
0010
0001
1000
0000
,
0010
0200
1300
0200
,
0301
0000
1000
0100
1000
0000
0001
0100
,
0001
0000
1000
0100
1000
0010
0100
0001
,
1000
0010
0100
0010
,
1000
0001
0010
0001
,
0200
1300
1000
0010
,
0100
0001
1000
0001
,
0010
0100
1000
0001
,
1000
0100
0010
0001
,
0100
0010
0100
0001
,
1000
0000
0100
0000
0010
0100
1000
0001
,
0100
0010
1000
0001
,
0010
0100
0010
0001
,
1000
0010
0100
0010
,
1000
0001
0010
0100
,
1000
0001
0100
0010
,
0100
0001
1000
0100
,
0010
0001
1000
0001
,
0100
0000
0010
0000
1000
0001
1000
0010
,
0100
0001
1000
0100
,
0010
0001
1000
0001
,
0100
0010
1000
0001
,
0010
0001
1000
0010
,
0100
0010
1000
0001
,
0010
0001
1000
0001
,
0100
0010
1000
0001
,
1000
0100
0010
0001
,
1000
0000
0001
0000
0100
0010
1000
0001
,
1000
0000
0001
0010
0001
0000
1000
0010
,
1000
0000
0100
0010
0100
0000
1000
0000
,
0001
0000
1000
0010
1000
0000
0001
0010
,
0001
0000
0100
0010
0100
0001
0000
0001
,
1000
0000
0001
0010
0001
0000
1000
0010
,
1000
0000
0001
0100
0001
0000
1000
0100
,
1000
0000
0001
0010
0001
0000
1000
0010
,
1000
0000
0100
0010
0100
0000
1000
0000
,
0001
0000
1000
0010
1000
0000
0001
0010
,
0001
0000
0100
0010
0100
0000
0001
0000
,
1000
0000
0001
0010
0001
0000
1000
0010
,
1000
0000
0100
0010
0100
1000
0000
1000
,
0001
0000
1000
0010
1000
0000
0001
0010
,
0001
0000
1000
0100
1000
0000
0001
0100
,
0001
0000
1000
0010
1000
0000
0001
0010
,
0000
0100
0100
0000
0000
1000
1000
0000
,
1001
0000
0001
0010
0001
0000
1000
0010
,
0000
0100
0100
0000
0000
0001
0001
0000
,
2002
0000
0000
0000
,
0000
0000
0000
0000
,
0000
0000
0000
0000
,
3003
0000
0000
0000
;

//--------------- dance-single - MEGAtive ----------------
#NOTES:
     dance-single:
     MEGAtive:
     Hard:
     12:
     0,0,0,0,0:
0000
0000
0000
0000
,
0000
0000
0000
0000
,
0000
0000
0000
0000
,
0000
0000
0000
0000
,
1100
1000
1000
1000
,
0010
0010
0010
0010
,
0100
0100
0100
0100
,
0001
0000
0001
0000
0001
0010
1000
0010
,
0001
0000
1000
0010
0100
0010
1000
0000
,
0100
0000
0001
0100
0000
1000
0010
0100
,
0010
0000
1000
0100
1000
0000
0001
0100
,
0001
0000
1000
0100
1000
0000
0001
0100
,
0001
0000
1000
0100
0010
0100
1000
0000
,
0010
0000
0001
0010
0000
1000
0100
0000
,
0010
0000
0001
0010
0001
0000
1000
0010
,
1000
0000
0001
0010
0001
0100
1000
0100
,
0001
0000
0010
0000
0100
1000
0001
1000
,
0010
0000
0100
0000
0010
1000
0001
0000
,
1000
0000
0100
0000
0010
0001
1000
0001
,
0100
0000
0010
0000
0100
0001
1000
0000
,
0001
0000
0010
0000
0100
1000
0001
1000
,
0010
0000
0100
0000
0010
1000
0001
0000
,
1000
0000
0100
0010
0100
0000
1000
0001
,
1000
0000
0010
0100
0010
1000
0001
0010
,
0001
0000
1000
0100
1000
0001
0000
0200
,
0000
0000
0310
1000
0000
1000
0002
0000
,
0013
0100
0010
0000
0001
1000
0001
0000
,
1000
0010
1000
0000
0001
0010
0001
0000
,
1000
0000
0010
0100
0001
0000
1000
0100
,
1000
0000
0001
0010
0001
0000
1000
0010
,
1000
0000
0001
0010
0001
0000
1000
0010
,
1000
0000
0001
0010
0001
0100
1000
0100
,
0001
0000
1000
0000
0100
0010
0100
2000
,
0000
0000
3001
0000
0100
0010
0100
0000
,
0001
0000
0010
0100
0010
0000
0100
2000
,
0000
3001
0100
0010
,
1000
0000
0100
0000
0010
0001
0100
0020
,
0000
0000
0031
0010
0100
0000
0001
0000
,
1000
0100
1000
0000
0001
0100
0001
0000
,
1000
0100
0010
0000
0001
1000
0010
0100
,
0010
0000
0100
0000
0001
0000
1000
0200
,
0000
0310
0100
0000
1000
0001
1000
0000
,
0010
0100
0010
0000
1000
0200
0000
0310
,
0100
0000
1000
0001
1000
0000
0010
0100
,
0010
0000
1000
0001
0010
0000
1000
0020
,
0000
0031
0010
0000
0100
0000
1000
0001
,
0100
0000
0010
1000
0001
0000
0010
0200
,
0000
1300
0001
0100
0010
0000
1000
0000
,
0001
0000
0010
0000
0001
0100
0010
1000
,
0001
0000
0010
0001
1000
0010
0001
0020
,
0000
1030
0010
1000
0001
0010
1000
0000
,
0010
0000
0001
0010
0001
1000
0100
0002
,
0000
0103
1000
0002
0000
0103
0010
0100
,
0001
0000
0100
0001
1000
0100
0001
0200
,
0000
1300
0100
1000
0001
0100
0010
1000
,
0001
0000
0010
0100
0010
0000
0001
1000
,
0001
0000
0100
0010
0100
0001
1000
0100
,
1000
0000
0100
1000
0001
0100
1000
0200
,
0000
0301
0100
0001
1000
0100
0001
0000
,
0100
0000
1000
0100
1000
0001
0010
2000
,
0000
3010
0001
2000
0000
3010
0100
0010
,
1000
0000
0010
1000
0001
0010
1000
0020
,
0000
0031
0010
0001
1000
0010
0100
0001
,
1000
0000
0010
0100
0010
0000
1000
0001
,
1000
0100
0110
0000
0010
0001
1001
0000
,
0001
0000
0100
0010
0100
0000
0001
1000
,
0001
0010
0110
0000
0100
1000
1001
0000
,
0220
0000
0000
0000
,
0000
0000
0000
0000
,
0000
0000
0000
0000
,
0330
0000
0000
0000
;
