#TITLE:V₂;
#SUBTITLE:;
#ARTIST:TAKA;
#TITLETRANSLIT:V2;
#SUBTITLETRANSLIT:;
#ARTISTTRANSLIT:;
#GENRE:;
#CREDIT:;
#BANNER:V2.png;
#BACKGROUND:;
#LYRICSPATH:;
#CDTITLE:;
#MUSIC:V2.ogg;
#OFFSET:1.247000;
#SAMPLESTART:101.127998;
#SAMPLELENGTH:15.325000;
#LASTBEATHINT:0.617500;
#SELECTABLE:YES;
#BPMS:0.000000=150.000000
;
#STOPS:
;
#BGCHANGES:;
#KEYSOUNDS:;
#ATTACKS:;

//---------------dance-single - forcednature----------------
#NOTES:
     dance-single:
     forcednature:
     Beginner:
     5:
     0.204497,0.426397,0.129442,0.030457,0.000000,188.000000,171.000000,17.000000,4.000000,0.000000,0.000000,0.204497,0.426397,0.129442,0.030457,0.000000,188.000000,171.000000,17.000000,4.000000,0.000000,0.000000:
0000
0000
0000
0000
,
0000
0000
0000
0000
,
0000
0000
0000
0000
,
0001
0001
1000
1000
,
0010
0000
0000
0000
,
1000
1000
0001
0001
,
0010
0000
0000
0000
,
0100
0100
0010
0010
,
0100
0000
0000
0000
,
1000
0001
1000
0001
,
0100
0000
0010
0000
,
1000
0000
0001
0000
,
0010
0000
0100
0100
,
0100
0000
0100
0000
,
1000
0000
0001
0000
,
0100
0000
0010
0010
,
0010
0000
1000
0000
,
0001
0000
0010
0000
,
0100
0000
0010
0010
,
0010
0000
0001
0000
,
1000
0000
0010
0000
,
1001
0000
0100
0000
,
1001
0000
0010
0000
,
1000
0001
1000
0001
,
0010
0100
0010
0100
,
1001
0000
0000
0000
,
0100
0100
0100
0100
,
0100
0000
0000
0000
,
0010
0010
0010
0010
,
0010
0000
0000
0000
,
0001
0001
0001
0001
,
0001
1000
0000
1000
,
0010
0000
0010
0000
,
0100
0001
0000
0001
,
0010
0100
0000
0100
,
1001
0000
0010
0000
,
0010
0000
0010
0000
,
0100
0000
0001
0000
,
1000
0000
0100
0000
,
1000
0000
0010
0000
,
0110
0000
0000
0000
,
0000
0000
0000
0000
,
0000
0000
0000
0000
,
0000
0000
0000
0000
,
0001
0000
0000
0000
,
1000
0000
0100
0000
,
0010
0000
0000
0000
,
0001
0000
0000
0000
,
0100
0000
0000
0000
,
0010
0000
0000
0000
,
1001
0000
0000
0000
,
1000
0000
0000
0000
,
0100
0000
0000
0000
,
0010
0000
0000
0000
,
0001
0000
0100
0000
,
0010
0000
1000
0000
,
0100
0000
0010
0000
,
0001
0000
1000
0000
,
1001
0000
0100
0000
,
0010
0000
0100
0000
,
1001
0000
0010
0000
,
1001
0000
0100
0000
,
1001
0000
0110
0000
,
1001
0110
1001
0110
,
2002
0000
3003
0000
,
1000
0001
0100
0010
,
0100
0100
0100
0000
,
0001
1000
0100
0010
,
0100
0100
0100
0000
,
1000
0001
0100
0001
,
1000
1000
1000
0000
,
0001
0001
0001
0001
,
0100
1000
0100
0000
,
0001
0010
0001
0000
,
1000
0010
1000
0000
,
0100
0001
0100
0000
,
0010
0001
0100
0000
,
0010
1000
0100
0000
,
0000
2002
0000
0000
0000
0000
0000
0000
,
0000
0000
0000
0000
,
3003
0000
0000
0000
;

//---------------dance-single - forcednature----------------
#NOTES:
     dance-single:
     forcednature:
     Easy:
     11:
     0.406818,0.517768,0.129442,0.144670,0.000000,374.000000,357.000000,17.000000,19.000000,0.000000,0.000000,0.406818,0.517768,0.129442,0.144670,0.000000,374.000000,357.000000,17.000000,19.000000,0.000000,0.000000:
0000
0000
0000
0000
,
0000
0000
0000
0000
,
0000
0000
0000
0000
,
0001
0100
0010
1000
,
2002
0000
3003
0000
,
1000
0100
0010
0001
,
2002
0000
3003
0000
,
0001
0100
1000
0100
,
0220
0000
0330
0000
,
1000
0100
0001
0100
,
0110
0001
0100
0001
,
1000
0010
1000
0000
0001
0100
0001
0000
,
1000
0100
0010
0000
0100
0000
0100
0000
,
0010
0010
0010
0010
,
0001
0100
0001
0000
1000
0100
1000
0000
,
0010
0000
0100
0000
0001
1000
0001
0000
,
0010
0010
0010
0010
,
0100
1000
0100
0000
0010
0001
0010
0000
,
0100
0000
1000
0000
0001
0100
0001
0000
,
0001
0001
0001
0001
,
1000
0000
1000
0000
0010
0100
0010
0100
,
0010
1000
0001
0000
,
0010
0001
1000
0000
,
0010
1000
0010
0000
0100
0001
0100
0000
,
0001
0010
0001
0010
0100
1000
0100
1000
,
0020
0000
0030
0000
,
0100
0100
0100
0100
0100
0100
0100
0100
,
0200
0000
0300
0000
,
0001
0001
0001
0001
0001
0001
0001
0001
,
0002
0000
0003
0000
,
1000
1000
1000
1000
1000
1000
1000
1000
,
1000
0100
0010
0001
,
0100
0010
0100
0010
0100
0010
0100
0010
,
1000
1000
0001
0001
1000
1000
0001
0001
,
0100
0010
0000
0010
,
1001
0100
1000
0001
,
1000
0010
0100
0001
,
0010
0100
0001
0100
,
1000
0010
0001
0010
,
0100
0001
1000
0010
,
2002
0000
0000
0000
,
3003
0000
0000
0000
,
0001
0100
1000
0100
,
0020
0000
2030
0000
,
3100
0010
0001
0100
,
0020
0000
2030
0000
,
3001
0010
0001
0010
0001
0010
0001
0010
,
0100
1000
0001
0000
,
1000
0010
1000
0010
1000
0010
1000
0010
,
0100
0001
1000
0000
,
0100
0010
0100
0010
0100
0010
0100
0010
,
0001
1000
0001
1000
,
0010
0100
0010
0100
0010
0100
0010
0100
,
0001
1000
0001
1000
,
1100
0001
0100
1000
,
0100
0001
0100
1000
,
0101
1000
0100
0001
,
0100
1000
0100
0001
,
1100
0010
0001
0100
,
0010
1000
0100
0010
,
1001
0000
0100
0000
0010
0000
1000
0001
,
1001
0000
0010
0000
0100
0000
0001
1000
,
1001
0100
1100
0100
,
0101
0000
1100
0000
0001
1000
0001
1000
,
2002
0000
3003
0000
,
0001
0100
0000
0100
0000
0100
0000
0100
,
0010
1000
0010
1000
0010
1000
0010
1000
,
0100
0010
0000
0010
0000
0010
0000
0010
,
0001
1000
0001
1000
0001
1000
0001
1000
,
0010
0100
0000
0100
0000
0100
0000
0100
,
0001
1000
0001
1000
0001
1000
0001
1000
,
0100
0000
0100
0000
0100
0100
0100
0100
,
0010
0001
0010
0001
0010
0100
1000
0000
,
0010
1000
0010
1000
0010
0100
0001
0000
,
1000
0001
1000
0001
0010
0100
1000
0000
,
0001
1000
0001
1000
0010
0100
0001
0000
,
1000
0100
0001
0100
1000
0001
0100
0000
,
0001
0100
1000
0100
0001
1000
0100
0010
,
0000
2002
0000
0000
0000
0000
0000
0000
,
0000
0000
0000
0000
,
3003
0000
0000
0000
;

//---------------dance-single - forcednature----------------
#NOTES:
     dance-single:
     forcednature:
     Medium:
     14:
     0.578682,0.761423,0.159899,0.197970,0.182742,532.000000,511.000000,21.000000,26.000000,0.000000,0.000000,0.578682,0.761423,0.159899,0.197970,0.182742,532.000000,511.000000,21.000000,26.000000,0.000000,0.000000:
0000
0000
0000
0000
,
0000
0000
0000
0000
,
0000
0000
0000
0000
,
0001
0100
0010
1000
0001
0100
0010
1000
,
2002
0000
3003
0000
,
1000
0100
0010
0001
1000
0100
0010
0001
,
2002
0000
3003
0000
,
0001
0100
1000
0100
0001
0010
1000
0010
,
2002
0000
3003
0000
,
1000
0100
1000
0010
0100
0001
0010
0001
,
1001
0000
0001
0100
0010
0000
1000
0100
,
0010
0010
0100
0100
,
1000
0001
0100
0000
0010
1000
0010
1000
,
0010
0001
0010
0001
0010
1000
0010
1000
,
0100
0010
0001
1000
0100
0010
0001
1000
,
0100
0000
0000
0010
0100
0000
0100
0000
0010
0000
0001
0000
0100
0000
0010
0000
,
0100
0001
0010
0001
1000
0100
1000
0010
,
1000
0100
1000
0010
0100
0000
1000
0100
,
0001
0000
0000
0001
0100
0000
0100
0000
0110
0000
0000
0000
1000
0000
0001
0000
,
0100
0000
0010
1000
0001
0010
0100
1000
,
0001
0100
0010
1000
0100
0100
0100
0100
,
2002
3003
1100
0000
,
2002
3003
0101
0000
,
1001
0100
1001
0010
,
1000
0000
1000
0000
0001
0000
0001
0000
0100
0001
0100
0001
0100
0001
0100
0000
,
2020
0000
3030
0000
,
1000
0100
1000
0000
0001
0010
0001
0000
1000
0100
1000
0000
0001
0010
0001
0000
,
2002
0000
3003
0000
,
0001
0100
0001
0000
1000
0010
1000
0000
0001
0100
0001
0000
1000
0010
1000
0000
,
2002
0000
3003
0000
,
1000
0100
1000
0000
0010
0100
0010
0000
1000
0100
1000
0000
0010
0100
0010
0000
,
1000
0100
0010
0001
0100
0010
1000
0000
,
0001
0001
0001
0001
0001
0001
0001
0001
,
0100
0010
1000
0001
0010
0010
0100
0100
,
1001
0000
0100
0000
0001
0100
1000
0000
,
0110
0001
1000
0100
,
0010
0010
0100
0100
1000
1000
0001
0001
,
0100
0010
1000
0001
,
0010
0010
0001
0001
1000
1000
0010
0010
,
0100
0100
0001
0001
1000
1000
0100
0100
,
0220
0000
0000
0000
,
0330
0000
0000
0000
,
0001
0100
0010
1000
,
0002
0000
2003
0000
,
3100
0010
0001
0100
,
0020
0000
2030
0000
,
3001
0000
0010
0000
0001
0010
0001
0000
,
1000
0000
0010
0000
1000
0010
1000
0000
,
0001
0000
0100
0000
0001
0100
0001
0000
,
1000
0000
0100
0000
1000
0100
1000
0000
,
0001
0100
0001
0100
0001
0100
0001
0100
,
0010
1000
0010
1000
0010
1000
0010
1000
,
0001
0010
0001
0010
0001
0010
0001
0010
,
0100
1000
0100
1000
0100
1000
0100
1000
,
0010
1000
0010
1000
0010
0001
0010
0001
,
1000
0100
1000
0100
0001
0100
0001
0100
,
0001
0010
0001
0010
1000
0010
1000
0010
,
0100
0001
0100
0001
0100
1000
0100
1000
,
0010
0100
0010
0100
1000
0001
1000
0001
,
0010
0100
0010
0100
0001
1000
0001
1000
,
0100
0010
0100
0010
1000
0001
1000
0001
,
0100
0010
0100
0010
0001
1000
0001
1000
,
0001
0000
0100
0000
0001
0100
0001
0000
1000
0000
0100
0000
1000
0100
1000
0000
,
1001
0000
0110
0000
1000
1000
0001
0001
,
2002
0000
0000
3003
,
0001
0100
0010
1000
0001
0100
0010
1000
,
0001
0000
1000
0100
1000
0100
1000
0100
1000
0000
0010
0000
0100
0000
0001
0000
,
0010
0100
0010
0001
0100
0010
0100
0001
,
0010
0000
0100
1000
0100
1000
0100
1000
0100
0000
0010
0000
0001
0000
1000
0000
,
0010
0100
0001
1000
0100
1000
0010
0100
,
0001
0000
1000
0010
1000
0010
1000
0010
1000
0000
0100
0000
0010
0000
0001
0000
,
0100
0000
0100
0000
0001
0000
0001
0000
1000
0100
1000
0000
0001
0100
0001
0000
,
1000
0000
0100
1000
0100
1000
0100
1000
0100
0000
0100
0000
0010
0000
0010
0000
,
0001
0000
0100
0001
0100
0001
0100
0001
0100
0000
0100
0000
0010
0000
0010
0000
,
1000
0000
0001
1000
0001
1000
0001
1000
0001
0000
0010
0000
0100
0000
1000
0000
,
0010
0000
0100
0001
0100
0001
0100
0001
0100
0000
0100
0000
0010
0000
0010
0000
,
1000
0000
0100
1000
0100
1000
0100
1000
0100
0000
0100
0000
0010
0000
0010
0000
,
0001
0000
1000
0001
1000
0001
1000
0001
1000
0000
0100
0000
0001
0000
0100
0000
,
0000
2002
0000
0000
0000
0000
0000
0000
,
0000
0000
0000
0000
,
3003
0000
0000
0000
;

//---------------dance-single - forcednature----------------
#NOTES:
     dance-single:
     forcednature:
     Hard:
     16:
     0.761423,1.005079,0.159899,0.236041,0.765230,700.000000,679.000000,21.000000,31.000000,0.000000,0.000000,0.761423,1.005079,0.159899,0.236041,0.765230,700.000000,679.000000,21.000000,31.000000,0.000000,0.000000:
// measure 0
0000
0000
0000
0000
,  // measure 1
0000
0000
0000
0000
,  // measure 2
0000
0000
0000
0000
,  // measure 3
0001
0100
1000
0100
0001
0010
1000
0010
,  // measure 4
2002
0000
3003
0000
,  // measure 5
1000
0100
0001
0100
1000
0010
0001
0010
,  // measure 6
2002
0000
3003
0000
,  // measure 7
0001
0100
0001
0010
0100
0001
0100
1000
,  // measure 8
2002
0000
3003
0000
,  // measure 9
1000
0010
1000
0100
0001
0100
1000
0001
,  // measure 10
1001
0000
0001
0100
0001
0000
1000
0010
,  // measure 11
1000
0000
0001
0010
0100
1000
0010
0100
,  // measure 12
0001
0000
1000
0000
0100
0000
0000
0000
0010
0001
0000
0000
0001
0100
0000
0000
,  // measure 13
0100
0010
0000
0000
0010
1000
0000
0000
1000
0001
0000
0000
0001
0010
0000
0000
,  // measure 14
0100
1000
0001
0000
0010
0100
0001
0000
,  // measure 15
0010
0000
0000
0010
0001
0000
0000
0000
0100
0000
0010
0000
1000
0000
0000
0000
,  // measure 16
0001
0010
0000
0000
0010
0100
0000
0000
0100
1000
0000
0000
1000
0010
0000
0000
,  // measure 17
0100
0001
1000
0000
0100
0010
0001
0000
,  // measure 18
0100
0000
0000
0100
0010
0000
0000
0000
1000
0000
0001
0000
1000
0000
0000
0000
,  // measure 19
0001
0100
0000
0000
0100
0010
0000
0000
0010
1000
0000
0000
1000
0100
0000
0000
,  // measure 20
0100
0010
0000
0000
0010
0001
0000
0000
0001
0000
0001
0000
1000
0000
1000
0000
,  // measure 21
1001
0000
1000
0010
0202
0000
0303
0000
,  // measure 22
1001
0000
0001
0010
2200
0000
3300
1000
,  // measure 23
1001
1100
1001
0101
,  // measure 24
0001
0000
0100
0000
1000
0000
0100
0000
0001
1000
0001
1000
0001
1000
0001
1000
,  // measure 25
0002
0000
0003
0000
,  // measure 26
1000
0100
1000
0100
1000
0100
1000
0100
0010
0001
0010
0001
0010
0001
0010
0001
,  // measure 27
0200
0000
0300
0000
,  // measure 28
0001
0100
0001
0100
0001
0100
0001
0100
0010
1000
0010
1000
0010
1000
0010
1000
,  // measure 29
0200
0000
0300
0000
,  // measure 30
1000
0001
1000
0001
0100
0010
0100
0010
1000
0001
1000
0001
0010
0100
0010
0100
,  // measure 31
1000
0010
0100
0001
1000
0010
0100
0001
,  // measure 32
1000
0100
1000
0100
0010
0001
0010
0001
1000
0100
1000
0100
0010
0001
0010
0001
,  // measure 33
0100
0000
0100
0000
0010
0000
0010
0000
1000
0001
1000
0001
1000
0001
1000
0001
,  // measure 34
1000
0000
0101
0000
0010
0100
1000
0000
,  // measure 35
0101
0001
1000
1000
0100
0100
0010
0010
,  // measure 36
0001
0001
0100
0100
0010
0010
1000
1000
,  // measure 37
0001
0010
1000
0010
0001
0010
1000
0010
,  // measure 38
0001
0100
1000
0100
0001
0100
1000
0100
,  // measure 39
0001
0001
1000
1000
0100
0100
0010
0010
,  // measure 40
2002
0000
0000
0000
,  // measure 41
3003
0000
0000
0000
,  // measure 42
0001
0100
0100
0010
0010
1000
1000
0001
,  // measure 43
2000
3200
0320
0032
,  // measure 44
0103
1000
1000
0100
0100
0010
0010
1000
,  // measure 45
2000
3002
0023
0230
,  // measure 46
1300
0100
1000
0100
1000
0100
1000
0100
1000
0100
1000
0100
1000
0100
1000
0100
,  // measure 47
0010
0001
0010
0001
0010
0001
0010
0001
0010
0001
0010
0001
0010
0001
0010
0001
,  // measure 48
1000
0010
1000
0010
1000
0010
1000
0010
1000
0010
1000
0010
1000
0010
1000
0010
,  // measure 49
0100
0001
0100
0001
0100
0001
0100
0001
0100
0001
0100
0001
0100
0001
0100
0001
,  // measure 50
1000
0001
1000
0001
1000
0001
1000
0001
1000
0001
1000
0001
1000
0001
1000
0001
,  // measure 51
0010
0100
0010
0100
0010
0100
0010
0100
0010
0100
0010
0100
0010
0100
0010
0100
,  // measure 52
1000
0001
1000
0001
1000
0001
1000
0001
1000
0001
1000
0001
1000
0001
1000
0001
,  // measure 53
0100
0010
0100
0010
0100
0010
0100
0010
0100
0010
0100
0010
0100
0010
0100
0010
,  // measure 54
0100
0001
0100
0001
0100
0001
0100
0000
0010
1000
0010
1000
0010
1000
0010
0000
,  // measure 55
1000
0100
1000
0100
1000
0100
1000
0000
0001
0010
0001
0010
0001
0010
0001
0000
,  // measure 56
1000
0100
1000
0100
0010
0001
0010
0000
0001
0100
0001
0100
0010
1000
0010
0000
,  // measure 57
1000
0001
1000
0001
0010
0100
0010
0000
0001
1000
0001
1000
0010
0100
0010
0000
,  // measure 58
1000
0100
0010
0001
0010
0100
1000
0000
0001
0100
0010
1000
0010
0100
0001
0000
,  // measure 59
1000
0100
1000
0001
0100
0001
1000
0000
0001
0100
0001
1000
0100
1000
0001
0000
,  // measure 60
0100
0001
0100
0010
1000
0001
1000
0000
2002
0000
0000
0000
3003
0000
1000
0000
,  // measure 61
0100
1000
0100
0010
0001
1000
0001
0000
2002
0000
0000
0000
3003
0000
0000
0000
,  // measure 62
0001
0000
0100
0000
0010
1000
0010
0000
1000
0000
0100
0000
0010
0001
0010
0000
,  // measure 63
0011
0000
1010
0000
0001
0001
1000
1000
,  // measure 64
2002
0000
0000
3003
,  // measure 65
0001
0100
0001
0010
0100
1000
0010
1000
,  // measure 66
0100
0000
0010
0001
1000
0100
1000
0001
0100
0000
0010
0000
0001
0000
0010
0000
,  // measure 67
1000
0100
1000
0010
0001
0010
0100
0001
,  // measure 68
0010
0000
0100
1000
0010
1000
0100
0010
0001
0000
0100
0000
0010
0000
0001
0000
,  // measure 69
0010
0100
0001
1000
0100
0001
0100
0010
,  // measure 70
0001
0000
1000
0010
0100
0001
0010
0100
0010
0000
0100
0000
1000
0000
0001
0000
,  // measure 71
1000
0010
0100
0001
1000
0010
0100
0001
1000
0010
0100
0001
1000
0010
0100
0001
,  // measure 72
0010
0000
0001
0010
0100
1000
0100
0010
0001
0000
0100
0000
1000
0000
0100
0000
,  // measure 73
0010
0000
1000
0001
0100
0010
1000
0001
0100
0000
0010
0000
1000
0000
0100
0000
,  // measure 74
0001
0000
0100
0010
0001
1000
0100
0010
0001
0000
0100
0000
1000
0000
0100
0000
,  // measure 75
0010
0000
1000
0100
1000
0010
1000
0100
1000
0000
0010
0000
0001
0000
0010
0000
,  // measure 76
0100
0000
0001
0010
0001
0100
0001
0010
0001
0000
0010
0000
1000
0000
0010
0000
,  // measure 77
0100
0000
1000
0001
0100
0001
1000
0100
0010
0000
0001
0000
0100
0000
0010
0000
,  // measure 78
0000
2002
0000
0000
0000
0000
0000
0000
,  // measure 79
0000
0000
0000
0000
,  // measure 80
3003
0000
0000
0000
;
