#TITLE:Urban Shark;
#SUBTITLE:;
#ARTIST:oo39.com;
#TITLETRANSLIT:;
#SUBTITLETRANSLIT:;
#ARTISTTRANSLIT:;
#GENRE:;
#CREDIT:;
#MUSIC:Urban Shark.mp3;
#BANNER:;
#BACKGROUND:;
#CDTITLE:;
#SAMPLESTART:0.000;
#SAMPLELENGTH:0.000;
#SELECTABLE:YES;
#OFFSET:1.497;
#BPMS:0.000=77.000
,14.000=154.000
;
#STOPS:;
#BGCHANGES:;
#FGCHANGES:;

//--------------- dance-single - ----------------
#NOTES:
     dance-single:
     :
     Beginner:
     4:
     0,0,0,0,0:
0000
0000
0000
0000
,
0000
0000
1000
0000
,
0000
0000
0001
0000
,
0100
0000
0010
0000
,
0000
0000
0010
0000
,
0000
0000
1000
0000
,
0000
0000
1001
0000
,
0000
0000
0110
0000
,
0000
0000
1001
0000
,
0000
0000
0000
0000
,
0000
0000
1000
0000
,
0010
0000
0100
0000
,
0000
0000
0001
0000
,
0010
0000
0100
0000
,
0000
0000
1000
0000
,
0001
0000
0010
0000
,
0000
0000
1001
0000
,
0000
0000
0110
0000
,
0000
0000
0001
0000
,
0001
0000
0001
0000
,
0000
0000
1000
0000
,
1000
0000
1000
0000
,
0000
0000
0010
0000
,
0010
0000
0010
0000
,
0000
0000
0100
0000
,
0100
0000
1001
0000
,
0000
0000
0001
0000
,
0000
0000
1001
0000
,
0000
0000
1000
0000
,
0000
0000
1001
0000
,
0000
0000
0010
0000
,
0000
0000
0110
0000
,
0000
0000
0100
0000
,
0000
0000
0110
0000
,
0000
0000
0001
0001
,
0001
0000
1000
1000
,
1000
0000
0001
0001
,
0001
0000
1000
1000
,
1000
0000
0010
0010
,
0010
0000
0100
0100
,
0100
0000
0010
0010
,
0010
0000
1001
0000
,
0000
0000
0001
0010
,
0110
0000
1000
0010
,
0110
0000
0011
0000
,
0000
0000
1000
1000
,
1000
0000
1000
0100
,
0110
0000
0001
0100
,
0110
0000
1010
0000
,
0000
0000
0001
0000
,
1000
0000
0010
0000
,
0010
0010
0010
0000
,
0010
0000
0100
0000
,
0100
0100
0100
0000
,
0100
0000
0001
0000
,
0001
0001
0001
0000
,
0001
0000
1000
0000
,
1000
1000
1000
0000
,
1000
0000
0001
0000
,
0100
0100
1000
0000
,
0010
0000
1000
0000
,
0100
0100
0001
0000
,
0010
0000
0001
0000
,
0010
0010
1000
0000
,
0100
0000
1000
0000
,
0110
0000
1001
0000
,
0000
0000
0001
0000
,
0110
0000
2002
0000
,
0000
0000
0000
0000
,
0000
0000
3003
0000
;

//--------------- dance-single - ----------------
#NOTES:
     dance-single:
     :
     Easy:
     8:
     0,0,0,0,0:
0000
0000
0000
0000
,
0000
0000
1000
0000
,
0000
0000
1000
0000
,
0001
0000
0010
0000
,
1000
0000
0100
0000
,
0010
0000
0001
0000
,
1000
0000
0010
0010
,
0100
0000
0100
0100
,
0010
0000
1001
0000
,
0110
0000
1001
0000
,
0000
0000
0001
0100
,
0010
1000
0010
0100
,
0001
0010
0001
0000
1000
0000
0100
0000
,
0010
0001
0100
0010
,
1000
0010
1000
0000
0001
0000
1000
0000
,
0010
0100
0001
1000
,
0001
0010
0001
0000
0100
0000
0110
0000
,
1001
0000
1000
1000
,
0010
0010
0100
0001
,
0100
1000
0100
0001
,
0100
0000
0010
1000
,
0010
0001
0010
1000
,
0010
0000
0001
0010
,
0001
0100
0001
0010
,
0001
0000
1000
0010
,
1000
0100
1000
0000
,
0110
0000
1001
0000
,
0001
1000
0020
0000
,
0230
0000
0301
0000
,
0010
0100
2000
0000
,
3002
0000
0103
0010
,
1000
0001
0010
0100
,
1000
0010
1000
0100
,
0010
0001
0100
0000
,
0110
1001
0001
0000
,
1000
0100
1000
0000
1000
0000
0000
0000
,
0001
0100
0001
0000
0001
0000
0000
0000
,
1000
0010
1000
0000
1000
0000
0000
0000
,
0001
0010
0001
0000
0100
0000
0000
0000
,
0010
0100
1000
0000
0100
0000
0000
0000
,
0001
0010
0100
0000
0110
0000
0000
0000
,
1001
0000
1000
0001
,
0100
0000
0010
0000
1000
0000
1000
0010
,
2000
0000
3000
0000
0001
0000
0001
0100
,
0002
0003
1001
0000
,
0000
0000
0100
0000
,
0001
0000
1000
0000
0010
0000
0010
0100
,
0020
0000
0000
0000
0130
0000
0100
0010
,
0200
0000
0301
0000
,
0000
0000
1001
0000
,
0000
0000
0000
0000
1000
0000
0000
1100
,
0000
0000
0110
0000
0011
0000
0000
1001
,
0000
0000
0000
0000
0001
0000
0000
0101
,
0000
0000
0110
0000
1010
0000
0000
1001
,
0000
0000
1000
0100
,
0010
0000
0001
1000
0001
0000
0100
0000
,
0010
0000
1000
0010
1000
0000
0010
0000
,
0100
0000
0001
0010
0001
0000
0001
0010
,
0100
1000
0010
0000
0110
0000
1001
0000
,
0101
1010
1000
0100
,
0010
0001
0011
0010
,
0110
0100
1000
0010
,
0100
0001
1010
0001
,
0101
1100
1001
1000
,
0100
0010
0110
0001
,
1001
0000
0001
1000
,
0001
1000
0110
0100
,
1001
0000
1001
0010
,
0001
1000
0010
0000
0110
0000
1000
0000
,
0100
0001
1000
0000
1001
0000
0000
0000
;

//--------------- dance-single - ----------------
#NOTES:
     dance-single:
     :
     Medium:
     11:
     0,0,0,0,0:
0000
0000
0000
0000
,
0000
0000
1000
0000
,
0000
0000
0001
0000
,
0010
0000
0100
0100
,
1000
1000
0010
0001
,
0100
1000
0100
0001
,
0010
1000
1001
0010
,
1001
0100
1010
0100
,
0011
0000
1000
0000
0010
0100
0010
0000
,
1001
0000
1001
0000
0001
1000
0001
1000
,
0001
1000
0001
1000
0001
0000
0010
0100
,
1000
0000
1000
0100
0001
0000
0100
0000
,
0100
0000
0010
0000
0001
0000
1000
0001
,
0100
0000
0010
1000
0100
0000
0010
0000
,
0001
1000
0001
0000
0101
0000
0001
0000
,
0010
0100
1000
0000
1000
0100
0010
0000
,
0001
0001
0101
1100
,
1001
0000
1000
0010
,
0100
0001
1000
0000
1000
0100
1000
0100
,
0010
0001
0100
0000
0001
0010
0001
0010
,
0100
1000
0010
0000
1000
0100
0001
0100
,
1000
0010
0100
0000
0001
0010
1000
0010
,
0001
0001
1000
0000
0010
0100
0010
1000
,
0010
0100
0001
0000
0010
0001
0010
0100
,
1000
0010
0100
0000
1001
0000
0100
0100
,
0010
1000
0001
0000
0011
0000
0010
0000
,
0100
1000
0010
0100
0002
0000
0000
2003
,
0000
0000
3020
0000
0230
0000
0000
0302
,
0000
0000
0000
0000
0023
0000
0000
0032
,
0000
0000
0203
0320
2030
0000
0001
0000
,
0001
0000
3001
0000
0110
0000
1000
0100
,
0001
0100
0010
0000
0110
0000
0001
0100
,
1000
0100
0010
0000
1010
0000
0100
0001
,
0010
0100
1000
0000
0011
0000
1000
0001
,
0100
0000
0100
0000
0100
0000
1001
0000
0000
0001
0000
0000
,
0010
0010
0010
0000
1001
0000
1000
0000
,
0100
0100
0100
0000
1001
0000
0010
0000
,
0100
0100
0100
0000
1001
0000
0100
0000
,
0010
0010
0010
0000
1010
0000
0100
0001
,
0010
0001
0100
0000
0011
0000
0100
1000
,
0010
1000
0100
0000
0110
0000
1001
0000
,
0110
0000
1000
1000
,
0001
0000
0100
0000
0001
0000
0100
0000
0001
0000
0000
0010
0000
0000
0200
0000
,
0000
0000
0000
0000
0001
0000
0000
0000
1300
0000
0000
0010
0000
0000
0200
0000
,
0000
0000
0000
1000
0000
0000
0301
0000
1000
0000
0001
0000
,
1000
0000
0000
0010
0100
0001
1000
0000
,
0110
0000
0000
1001
0000
0000
1001
0000
0001
0000
0000
0100
0000
0000
0020
0000
,
0000
0000
0000
0000
0001
0000
0000
0000
1030
0000
0000
0100
0000
0000
0020
0000
,
0000
0000
1000
0000
0031
0000
1000
0001
,
0100
0010
0000
0010
0000
1000
0000
0001
,
0010
0000
0000
0010
0100
0000
1000
0000
0020
0000
0000
0000
0000
0000
2030
0000
,
0000
0000
3020
0000
0230
0000
0000
0302
,
0000
0000
0000
0000
2003
0000
0000
3002
,
0000
0000
0023
0230
2300
0000
0000
0000
,
0010
0000
3010
0000
1000
0100
1000
0001
,
0100
0010
1000
0000
0001
0010
0001
1000
,
0100
0010
0001
0000
1000
0100
0001
0100
,
1000
0010
0100
0010
2000
0000
0000
0000
,
3010
0000
0000
0000
0100
0000
0000
0000
0001
0000
0000
0000
0011
0000
0000
0000
0000
0000
0001
0000
0000
0010
0000
0000
,
0100
0000
0110
0000
1001
0000
1000
0001
,
0100
0000
0010
0000
1010
0000
1000
0100
,
0010
0000
1000
0010
0100
0000
1000
0010
,
0001
0010
1000
0100
0011
0000
0001
0100
,
0020
0000
2030
0000
3200
0000
0301
0100
,
2000
3010
0101
0011
,
1010
0000
0000
0000
0000
0000
0000
0000
0000
0001
0000
0000
1000
0000
0000
0000
0010
0000
0000
0000
1000
0000
0000
0000
,
0001
0000
0100
0000
0001
0000
0011
0000
0000
0110
0000
0000
,
1001
0000
0000
0000
1000
0010
1000
0010
,
1000
0010
1000
0010
0100
0001
0100
0001
,
0010
0001
0010
0100
1001
0000
0000
0000
;

//--------------- dance-single - ----------------
#NOTES:
     dance-single:
     :
     Hard:
     13:
     0,0,0,0,0:
0000
0000
0000
0000
,
0000
0000
1000
0001
,
0000
0000
1000
0001
,
1000
0001
0100
0010
,
1000
0000
0100
0000
0010
0001
0010
0001
,
0100
0001
0100
0001
1000
0010
1000
0010
,
1000
0100
1000
0100
0010
0000
0101
0000
,
0010
1100
0001
1010
,
1000
0101
0011
0011
,
1100
1100
0020
0000
,
0100
0100
0100
0130
1001
0000
0001
0100
,
1000
0100
0010
1000
0100
0010
0001
1000
,
0010
0100
0010
1000
0001
0010
0100
1000
,
0010
0100
0001
1000
0200
0000
0001
0000
,
0010
0000
1300
0000
1001
0000
0001
1000
,
0100
0010
0100
1000
0010
0100
0001
0010
,
0001
0000
1000
0000
0010
0000
0100
0000
0001
0000
0000
0011
0000
1010
0000
0000
,
1001
0000
0000
0000
0000
0000
0001
0000
1000
0000
0000
0010
0000
0000
0100
0000
,
0001
0000
0000
0010
0000
0000
0100
0000
1000
0000
0100
0000
0010
0000
0100
0000
,
1000
0100
0001
0100
1000
0010
0100
0010
,
1000
0010
0001
0010
1000
0010
0100
0001
,
0010
0100
1000
0001
1000
0001
0100
0100
,
0001
1000
0100
0100
1000
0010
0100
0001
,
0010
0100
0010
0001
0100
1000
0001
0010
,
1000
0100
0010
0100
1000
1000
0010
0100
,
0100
0001
0010
0010
0001
0000
1001
0000
,
0001
0010
0001
0000
1000
0100
1000
0000
0020
0000
0000
0000
0000
0000
0230
0000
,
0000
0000
0302
0000
2003
0000
0000
3200
,
0000
0000
0300
0000
0020
0000
0000
0032
,
0000
0000
0203
0320
2030
0000
0001
0000
,
0001
0000
3001
0000
1000
0100
0001
1000
,
0010
0001
0100
0010
0100
0001
0010
0100
,
1000
0010
0100
0001
1000
0010
0100
1000
,
0001
0000
0010
0000
0100
0000
0001
0000
1001
0000
0000
0000
0100
0010
0100
0000
,
0001
0000
0000
0000
1000
0000
0000
0000
0010
0000
0000
0000
0100
0000
0000
0000
0000
0000
0100
0000
0000
0001
0000
0000
,
0000
0001
0000
0000
0001
0000
0000
0000
0010
0000
0000
0000
0010
0000
1000
0000
,
0000
1000
0000
0000
1000
0000
0000
0000
1001
0000
0000
0000
0100
0000
0001
0000
,
0000
0001
0000
0000
0001
0000
0000
0000
0010
0000
0000
0000
0010
0000
1000
0000
,
0000
1000
0000
0000
1000
0000
0000
0000
0110
0000
0000
0000
0001
0000
0010
0000
,
0200
0000
2300
0000
3020
0000
0000
0130
,
0200
0000
0000
0000
0000
0000
0300
0000
1001
0000
0000
1010
0000
0011
0000
0000
,
0110
0000
0000
1000
0001
0100
0010
1000
,
0001
0010
0001
0010
0001
0010
0001
0010
0001
0000
0000
1000
0000
0000
0020
0000
,
0000
0000
0000
0000
0000
0000
0000
0000
1030
0000
0000
0100
0000
0000
0020
0000
,
0000
0000
0000
0000
0000
0000
0130
0000
0001
0000
0100
0000
,
1000
0000
0000
0000
0000
0000
0010
0000
0010
0000
1000
0001
1000
0001
0000
0000
,
0010
0000
0000
0010
0000
0000
0010
0000
0001
0000
0000
0100
0000
0000
0022
0000
,
0000
0000
0000
0000
0033
0000
0000
0000
1000
0000
0000
0100
0000
0000
2020
0000
,
0000
0000
3030
0000
0001
0000
0000
1000
,
0010
0100
0000
0001
0000
1000
0000
0001
,
0010
0000
0000
0010
0100
0000
1000
0000
0020
0000
0000
0000
0000
0000
2030
0000
,
0000
0000
3020
0000
0230
0000
0000
0302
,
0000
0000
0003
0000
0020
0000
0000
0230
,
0000
0000
2300
3002
0203
0000
0000
0000
,
0010
0000
0000
0010
0000
0000
0310
0000
1000
0000
0100
0000
0100
0000
0010
0000
,
0001
0001
0200
0000
1300
1000
0001
0020
,
0000
0000
0000
0000
1030
0001
0100
0002
,
0000
0000
0003
0000
1000
0000
0010
0000
0100
0000
0010
1000
0010
1000
0010
0000
,
0100
0000
0000
0000
0001
0000
0000
0000
1000
0000
0000
0000
0100
0000
0000
0001
0000
0000
0100
0000
0000
1000
0000
0000
,
1010
0000
0101
0000
0011
0010
0001
1000
,
0010
0100
0010
0000
0101
0010
1000
1100
,
0000
0000
0000
0000
1000
0000
0001
0000
0011
0000
0010
0100
0010
0000
0001
0000
,
1000
1000
0010
0000
0101
0100
0010
1000
,
1100
1000
1010
1000
1001
0000
1000
0001
,
0011
0000
0000
0000
0101
0000
0000
0000
0011
0000
0000
0110
0000
1100
0000
0000
,
1001
0000
0000
0000
0000
0000
1000
0000
0001
0000
0000
0100
0000
0000
0010
0000
,
1000
0000
0000
0100
0000
0000
0010
0000
0011
0000
0000
1010
0000
0101
0000
0000
,
1001
0000
0000
1000
0020
0000
0000
0000
,
0000
0000
0000
0000
0230
0000
0000
0302
,
0000
0000
0023
0030
1001
0000
0000
0000
;

//--------------- dance-single - ----------------
#NOTES:
     dance-single:
     :
     Challenge:
     15:
     0,0,0,0,0:
0000
0000
0000
0000
,
0000
0000
0000
0000
0000
0000
0000
0000
2000
0000
0000
3000
MMMM
0000
0000
0000
,
0000
0000
0000
0000
0000
0000
0000
0000
2000
0000
0000
3000
MMMM
0000
0000
0000
,
2000
0000
0000
3000
MMMM
0000
0000
0000
0220
0000
0330
0000
MMMM
0000
0000
0000
,
2002
3003
MMMM
0000
1000
0100
0010
0001
,
1000
0010
0100
0001
0010
0001
0100
0010
,
1000
0001
0100
0010
1010
1000
1001
MMMM
,
0011
0001
1001
MMMM
1100
1000
1001
MMMM
,
0101
0000
0001
0000
1001
0000
MMMM
0000
0001
0000
0010
0100
2000
0000
3000
0000
,
2010
0000
3000
0000
2001
0000
3000
0000
0100
0010
0100
0010
0100
0010
0100
0010
,
0100
0010
0100
0010
0100
0010
0100
0010
0100
0000
0000
0000
1000
0000
0010
0000
,
0200
0301
2000
3010
0200
1300
0001
0010
,
0020
1030
0100
0010
0002
1003
0010
0200
,
0301
0000
1000
0000
0002
0000
2003
0000
3100
0000
1000
0010
0000
1000
0010
0000
,
0100
0001
0000
0100
0001
0000
1000
0000
0110
0000
0001
0000
1000
0000
0001
0000
,
0200
1300
0002
0013
2000
3100
0010
0100
,
0200
0000
1300
0000
0001
0000
1000
0000
1010
0000
0000
0101
0000
0010
0001
0000
,
1001
0000
MMMM
0000
0000
0000
1000
0000
0200
0000
0000
0001
0000
0000
0310
0000
,
2000
0000
0000
0010
0000
0000
3100
0000
0001
0000
1000
0100
1000
0000
0010
0000
,
1000
0000
0001
0000
0100
0000
0010
0000
1000
0000
0001
0010
0001
0000
0100
0000
,
0000
0000
0001
0000
0010
0000
0100
0000
1000
0000
0010
0100
0010
0000
1000
0000
,
0000
0000
0001
0000
1000
0000
0100
0000
0010
0001
0000
0010
0001
0000
1000
0000
,
0010
0100
0000
0010
0100
0000
0001
0000
0010
0000
0100
0010
0100
0000
1000
0000
,
0010
0000
0100
0000
0001
0000
1000
0000
0001
0000
0010
0001
0010
0000
0100
0000
,
0000
0000
0100
0000
1000
0000
0001
0000
1010
0000
0000
0001
0100
0000
0011
0000
,
0000
0000
0001
0000
1000
0000
0001
0000
0010
0100
0000
1000
0100
0000
0010
0000
,
0001
1000
0010
0100
0001
1000
0100
0010
0002
0000
0000
0000
0000
0000
2003
0000
,
0000
0000
3020
0000
0230
0000
0000
0302
,
1000
0000
1003
0000
0002
0000
0000
0023
,
0000
0000
0230
2300
3002
0010
0000
0010
,
0010
0000
0000
0010
0000
0000
0013
0000
1000
0000
0001
0000
0001
0000
0100
0000
,
0010
0000
0010
0000
1000
0000
0001
1000
0001
0000
0010
0000
0010
0000
0100
0000
,
1000
0000
1000
0000
0010
0000
0100
0001
0100
0000
0010
0000
1000
0000
0001
0000
,
0010
0000
0100
0000
1000
0000
0010
0000
0101
0000
1000
0010
0100
0010
1000
0000
,
0001
0000
0000
0011
0000
0000
1100
0000
0001
0000
0000
0000
1000
0000
0200
0000
,
0000
0010
0000
0000
0310
0000
MMMM
0000
1001
0000
0000
0000
0001
0000
0200
0000
,
0000
0010
0000
0000
0310
0000
MMMM
0000
1001
0000
0000
0000
1000
0000
1200
0000
,
0000
0010
0000
0000
0310
0000
MMMM
0000
0101
0000
0001
1000
0001
0100
0001
0000
,
0010
0100
0000
1000
0001
0000
0100
0000
0110
0000
0000
1000
0001
0000
0100
0010
,
0100
0001
0010
0001
1000
0000
MMMM
0000
0110
0000
0000
0001
1000
0000
0100
0010
,
0100
1000
0010
1000
0001
0000
MMMM
0000
0110
0000
0000
1001
0000
0100
0010
0000
,
1001
0000
MMMM
0000
1000
0001
0100
0010
,
1000
0001
1000
0001
1000
0001
1000
0001
1000
0000
0000
1100
0000
0000
0022
0000
,
0000
0000
0033
0000
MMMM
0000
0000
0000
0001
0000
0000
0101
0000
0000
2020
0000
,
0000
0000
0000
3030
0000
0000
MMMM
0000
0000
0000
0000
0000
1000
0000
0000
0000
0100
0000
0000
0000
0010
0000
0000
0000
,
2000
0000
0000
0000
0000
0000
3001
0000
0001
0000
0100
0010
0001
1000
0000
0000
,
0010
0100
0000
1001
0000
0000
0001
0000
1000
0000
0000
1010
0000
0000
0202
0000
,
0000
0000
0303
0000
MMMM
0000
0000
0000
0001
0000
0000
0011
0000
0000
2200
0000
,
0000
3300
MMMM
0000
0001
0000
0000
1000
,
0010
1000
0000
0002
0000
0103
0000
0001
,
0110
0000
0000
1000
0010
1000
0010
1000
0002
0000
0000
0000
0100
0000
0203
0000
,
0010
0000
2000
0300
3002
0000
1000
0010
,
0023
0000
0230
0000
0302
0000
1000
0100
,
0203
0000
1000
0010
0302
1000
1003
0001
,
0101
0000
0000
0011
0000
0000
1010
0000
1000
0000
0100
0010
0001
0000
1000
0000
,
0010
0000
1000
0000
0001
0000
0100
0000
0010
0000
1000
0001
1000
0000
0100
0000
,
0010
0000
0001
0000
1000
0000
0010
0000
0100
0000
0001
0010
0001
0000
0010
0000
,
0100
0000
1000
0000
0001
0000
0100
0000
0010
0000
1000
0001
0100
1000
0100
0001
,
0010
0000
0000
0110
0000
0000
0110
0000
1001
0000
0000
0000
1000
0100
0010
0001
,
0020
0000
0001
0000
0230
0000
1000
0000
0301
0010
0001
0010
0001
0000
2000
0000
,
0010
3010
0200
0001
0302
0000
1003
0020
,
0000
0000
1030
0000
0100
0010
0001
0000
1000
0000
0001
0010
0001
0010
0001
0000
,
0100
0010
0000
1000
0010
0000
0100
0000
0002
0000
0000
0000
1003
0100
0010
0100
,
2000
0010
3002
0100
2003
0010
3010
0200
,
0000
0000
0301
0000
1000
0001
1000
0000
0110
0000
0000
1001
0000
0100
0010
0000
,
1001
0000
0000
0000
MMMM
0000
0000
0000
2000
0000
0000
3200
0000
0000
0302
0003
,
2000
0000
0000
3020
0000
0000
0032
0003
1001
0000
0000
0110
0000
1000
0001
0000
,
0110
0000
MMMM
0000
0000
0000
1000
0000
0001
0100
0001
0100
0001
0100
0001
0100
,
0001
0100
0001
0100
0001
0100
0001
0100
0001
1000
0001
1000
0001
1000
0100
0010
,
0100
0010
0100
0010
0001
1000
0010
0100
0002
0000
0000
0000
0000
0000
0000
0000
,
0003
0000
0000
0000
;
