#TITLE:UNIVERSE;
#SUBTITLE:;
#ARTIST:JAKAZiD ft. Taya;
#TITLETRANSLIT:;
#SUBTITLETRANSLIT:;
#ARTISTTRANSLIT:;
#GENRE:;
#CREDIT:;
#MUSIC:Universe.ogg;
#BANNER:;
#BACKGROUND:;
#CDTITLE:;
#SAMPLESTART:79.535;
#SAMPLELENGTH:15.000;
#SELECTABLE:YES;
#OFFSET:0.000;
#BPMS:0.000=172.000
,96.000=86.000
,98.000=172.000
,162.000=86.000
,192.000=172.000
;
#STOPS:190.000=1.395;
#BGCHANGES:;
#FGCHANGES:;

//--------------- dance-single - RaverAce ----------------
#NOTES:
     dance-single:
     RaverAce:
     Beginner:
     4:
     0,0,0,0,0:
0000
0000
0000
0000
,
0000
0000
0000
0000
,
0000
0000
0000
0000
,
0000
0000
0000
0000
,
0000
0000
0000
0000
,
0010
0000
0000
0000
,
0010
0000
0000
0000
,
0100
0000
0000
0000
,
0100
0000
0000
0000
,
1001
0000
0000
0000
,
0001
0000
0000
0000
,
1000
0000
0000
0000
,
0001
0000
0000
0000
,
0010
0000
0000
0000
,
0100
0000
0000
0000
,
0010
0000
0000
0000
,
0100
0000
0000
0000
,
1001
0000
0000
0000
,
1000
0000
0000
0000
,
0001
0000
0000
0000
,
1000
0000
0000
0000
,
0010
0000
0000
0000
,
0100
0000
0000
0000
,
0010
0000
0000
0000
,
0110
0000
1001
0000
,
0000
0000
0001
0000
,
0000
0000
0001
0000
,
0000
0000
0001
0000
,
0000
0000
1000
0000
,
0000
0000
1000
0000
,
0000
0000
1000
0000
,
0000
0000
1000
0000
,
0000
0000
0110
0000
,
0000
0000
0010
0000
,
0000
0000
0010
0000
,
0000
0000
0010
0000
,
0000
0000
0100
0000
,
0000
0000
0100
0000
,
0000
0000
0100
0000
,
0000
0000
0110
0000
,
0000
0000
1001
0000
,
0001
0000
0100
0000
,
0010
0000
1000
0000
,
0100
0000
0010
0000
,
0001
0000
1001
0000
,
1000
0000
1001
0000
,
0001
0000
1001
0000
,
0110
0000
1001
0000
,
0000
0000
1001
0000
,
0001
0000
0100
0000
,
1000
0000
0100
0000
,
0010
0000
1000
0000
,
0001
0000
1000
0000
,
0100
0000
0001
0000
,
0100
0000
0010
0000
,
0001
0000
0100
0000
,
0010
0000
1001
0000
,
1000
0000
0100
0000
,
0001
0000
0100
0000
,
0010
0000
0001
0000
,
1000
0000
0001
0000
,
0100
0000
1000
0000
,
0100
0000
0010
0000
,
1000
0000
0110
0000
,
0000
0000
1001
0000
,
0001
0000
0100
0000
,
0010
0000
1000
0000
,
0010
0000
0100
0000
,
0001
0000
1000
0000
,
0100
0000
0010
0000
,
0001
0000
0100
0000
,
0010
0000
0110
0000
,
0000
0000
1001
0000
;

//--------------- dance-single - RaverAce ----------------
#NOTES:
     dance-single:
     RaverAce:
     Easy:
     8:
     0,0,0,0,0:
0000
0000
0000
0000
,
0000
0000
0000
0000
,
0000
0000
0000
0000
,
0000
0000
0000
0000
,
0000
0000
0000
0000
,
1000
1000
0001
0001
,
0010
0010
0100
0100
,
1000
0010
0100
0001
,
2000
3200
0320
0031
,
1002
0100
0100
0103
,
0200
0010
0010
0320
,
1000
1000
1000
2030
,
3100
1100
1000
1001
,
0002
0010
0010
0023
,
0100
0100
0100
0230
,
1300
1001
0001
0101
,
0100
1000
0100
0001
,
2001
0100
0100
3100
,
0200
0010
0010
0320
,
0001
0001
0001
0032
,
0103
0101
0001
1001
,
2000
0010
0010
3020
,
0100
0100
0100
0230
,
0301
1001
1000
1100
,
0220
0330
1001
0001
,
0100
1000
0100
0010
,
1000
0100
1100
1000
,
0010
0100
0001
0010
,
1000
0010
0110
0100
,
1000
0001
0100
1000
,
0100
0010
1000
0010
,
0100
0001
0010
0001
,
0100
0001
1001
1000
,
0100
0001
0100
0010
,
0001
0100
0101
0001
,
0010
0100
1000
0010
,
0001
0010
0110
0100
,
0001
1000
0100
0001
,
0100
0010
0001
0010
,
0100
1000
2002
0000
,
0000
3003
1002
0203
,
0320
2030
3200
0320
,
0032
0000
1003
0010
2000
0000
3200
0000
,
0320
0032
0203
0320
,
2030
0000
3001
0010
0210
0000
1000
0000
,
1000
1300
1020
0100
,
0100
0130
0102
0010
,
0010
0013
2002
0000
,
0000
3003
1001
1000
,
0010
0001
0010
0100
,
0001
0010
0110
0100
,
1000
0001
0100
1000
,
0100
0010
0110
0100
,
0001
1000
0100
0001
,
0100
0000
0010
0000
0100
1000
0000
0001
,
0000
0100
0000
0020
0000
2030
0000
3002
,
0000
1003
0010
0000
1001
0000
0001
0000
,
0010
1000
0010
0100
,
1000
0010
0110
0100
,
0001
1000
0100
0001
,
0100
0010
0110
0100
,
1000
0001
0100
1000
,
0100
0000
0010
0000
0100
0001
0000
1000
,
0000
0100
0000
0020
0000
0032
0000
2000
,
0000
0000
3003
0000
1001
0000
0001
0010
,
0000
0010
0100
0000
0100
1000
0000
1000
,
0002
0103
0110
0010
,
1000
0001
0010
0100
,
1000
0000
0001
0000
1001
0000
1000
0010
,
0000
0010
0100
0000
0100
0001
0000
0001
,
2000
3100
0110
0010
,
0001
0000
1000
0000
1020
0000
2030
0002
,
0000
3003
2002
0000
,
0000
0000
3003
0000
;

//--------------- dance-single - RaverAce ----------------
#NOTES:
     dance-single:
     RaverAce:
     Medium:
     11:
     0,0,0,0,0:
0000
0000
0000
0000
,
0000
0000
0000
0000
,
0000
0000
0000
0000
,
0000
0000
0000
0000
,
0000
0000
0000
0000
,
2001
0000
0100
0100
3200
0000
0320
0000
,
0032
0203
0320
2030
,
3001
0001
0010
0010
0100
0100
1000
1000
,
0020
0001
0100
1030
,
1001
0000
0001
0000
0010
0100
0000
0100
,
1000
0000
0010
0000
0100
0001
0000
0001
,
1000
0000
0100
0000
0010
0001
0000
0001
,
1000
0000
1000
0010
0000
0110
0000
0100
,
1001
0000
1000
0000
0010
0100
0000
0100
,
0001
0000
0010
0000
0100
1000
0000
1000
,
0001
0000
0100
1000
0000
0100
0010
0000
,
1000
0100
0000
0010
0001
0000
0101
0000
,
0021
0000
0001
0000
0031
0100
0000
0100
,
0020
0000
1000
0000
1030
0010
0000
0100
,
0002
0000
1000
0000
1003
0100
0000
0010
,
0001
0000
0100
0010
0000
1010
0000
1000
,
0200
0000
0010
0000
0310
0001
0000
0001
,
0200
0000
0010
0000
0310
1000
0000
1000
,
1200
0000
0310
0001
0000
0100
0001
0000
,
1000
0100
0000
0001
0100
0000
1000
0000
1001
0000
0001
0000
0100
0000
0010
0000
,
0100
0002
0000
2003
0000
3200
0000
0302
,
0000
0203
0000
0310
0001
0100
0010
1000
,
0001
0200
0000
2300
0000
3200
0000
0320
,
0000
1030
0001
0010
0100
1000
0100
0010
,
0100
2000
0000
3002
0000
0103
0001
0020
,
0000
0130
1000
0010
1000
0000
0001
0100
,
0000
1000
0100
0000
0001
0010
0000
0100
,
1000
0000
1001
0000
0101
0100
0010
1000
,
0100
0002
0000
0203
0000
0320
0000
0032
,
0000
2003
0000
3010
0100
0001
0010
1000
,
0010
0200
0000
2300
0000
3020
0000
0032
,
0000
0023
0000
0130
0001
0010
0100
1000
,
0001
0200
0000
0320
0000
2030
0000
3002
,
0000
0023
0000
0130
0110
0010
0001
1000
,
0010
0100
0001
1000
2002
0000
0000
0000
,
0000
0000
0000
0000
3003
0000
0000
0000
1001
0000
0001
0010
0002
0000
0000
0203
,
0000
0310
1000
0001
0010
0100
1000
0000
0001
0000
0100
0010
0200
0000
0301
1000
,
0000
1000
0100
0010
0001
0000
0100
0000
0001
0000
1000
0010
2000
0000
0000
3200
,
0000
0310
0001
1000
0010
0100
0001
0000
1000
0200
0000
0320
0000
0032
0000
2003
,
0000
3020
0000
0230
0000
0301
1000
0100
1100
0000
1000
0010
2000
0000
0100
0000
,
0001
0000
0001
0000
0001
0000
3001
0000
0101
0000
0001
0010
0002
0000
0100
0000
,
1000
0000
1000
0000
1000
0000
1003
0000
1001
0000
0001
0010
0200
0000
0010
0000
,
1000
1000
0320
0031
2002
0000
0000
0000
,
0000
0000
3003
0000
1001
0000
0001
0010
,
0100
0000
1000
0020
0000
0130
0001
1000
,
0100
0010
0100
0000
1000
0000
0001
0100
,
1000
0000
1000
0200
0000
0310
1000
0001
,
0010
0000
0011
0001
1000
0000
0001
0100
,
0010
0000
1000
0200
0000
0310
0001
1000
,
0010
0100
0010
0000
1000
0200
0000
0302
,
0000
0203
0000
0320
0000
0032
0000
2003
,
0000
3001
0100
0010
1001
0000
1000
0010
,
0100
0000
0001
0020
0000
0130
1000
0001
,
0100
0010
0100
0000
0001
0000
1000
0100
,
0001
0000
0001
0200
0000
0310
0001
1000
,
0010
0000
1010
1000
0001
0000
1000
0100
,
0010
0000
0001
0200
0000
0310
1000
0001
,
0010
0100
0010
0000
0001
0200
0000
2300
,
0000
3200
0000
0320
0000
2030
0000
0002
,
0000
0000
3003
0000
1001
0000
0001
0100
,
0000
0100
0010
0000
1000
0100
0000
0100
,
0010
0000
0011
0000
0001
0020
0000
2030
,
0000
3020
0000
0230
0000
2300
0000
3020
,
0000
0130
0001
1000
1001
0000
1000
0100
,
0000
0100
0010
0000
0001
0100
0000
0100
,
0010
0000
1010
0000
1000
0020
0000
0032
,
0000
0013
0100
0000
0101
0000
0001
0020
,
0000
0130
1000
0000
2002
0000
0000
0000
,
0000
0000
3003
0000
;

//--------------- dance-single - RaverAce ----------------
#NOTES:
     dance-single:
     RaverAce:
     Hard:
     15:
     0,0,0,0,0:
0000
0000
0000
0000
,
0000
0000
0000
0000
,
0000
0000
0000
0000
,
0000
0000
0000
0000
,
0000
0000
0000
0000
,
1000
0100
1000
0100
0010
0001
0010
0001
,
0100
0001
0100
0001
1000
0010
1000
0010
,
1000
0100
0010
0001
1000
0010
0100
0001
,
0020
1000
0100
0031
,
1000
0001
0100
0010
1000
0001
0100
0000
,
0010
1000
0001
0100
0010
0100
0001
0000
,
1000
0100
0001
0100
0010
0001
0000
0001
,
1000
0100
0010
0001
0000
0011
0000
0001
,
1000
0001
0010
0100
0000
1000
0010
0100
,
1000
0100
0001
1000
0100
0010
0001
0000
,
1100
0000
0001
0101
0000
1000
1010
0000
,
0001
0011
0000
0001
1000
0000
1001
0000
,
0011
0010
0100
1000
0010
0100
0010
0000
,
0101
0001
0100
0010
1000
0001
0100
0000
,
1010
1000
0001
0100
0001
0020
0000
0130
,
2000
0000
3100
0020
0000
0032
0000
1003
,
0100
0100
0010
0001
0100
0010
0110
0000
,
1001
1000
0010
0100
0001
1000
1010
0000
,
0001
0100
0010
1000
0001
1000
0100
0000
,
1000
0002
0000
0013
0100
0000
0110
0000
1001
0000
1000
0000
0010
0000
0100
0000
,
0010
1000
0100
0001
0100
0010
0001
1000
,
0001
0100
0010
1000
0001
0100
0001
0010
,
0100
1000
0010
0001
0010
0100
0001
2000
,
0000
0000
3100
0010
0001
0000
1000
0001
1000
0000
0001
0000
0100
0000
0010
0000
,
0100
0001
0100
1000
0100
0010
1000
0002
,
0000
0013
0100
1000
0001
0001
1000
0100
,
0010
1000
0010
0100
1000
0001
0100
0010
,
0100
0000
0000
0000
0110
0000
0010
1000
0001
0000
0010
0000
0100
0000
0010
0000
,
0100
1000
0001
0100
1000
0100
0010
1000
,
0001
0010
0100
1000
0001
0010
1000
0010
,
0100
1000
0100
0010
0001
0010
1000
0010
,
0100
0000
1000
0001
1000
0000
1000
0100
0010
0000
0001
0000
0100
0000
0001
0000
,
1000
0010
0100
0010
0001
0010
0100
0001
,
1000
0010
0100
0001
1000
0100
0001
0100
,
0010
0001
1000
0010
2000
0001
0000
3100
,
0010
0000
0000
0000
0110
0000
0000
0000
0000
0000
0002
1000
2003
0000
0000
3020
,
0000
0130
0001
0010
1000
0010
0100
0000
0000
0000
2000
0010
3020
0000
0030
0100
,
0000
0001
1000
0100
0010
0000
0001
0000
0000
0000
2000
0001
3002
0000
0000
0023
,
0000
0130
1000
0100
0001
0100
0010
0000
0001
0020
0000
2030
0000
3020
0000
0230
,
0000
0000
2300
0000
0000
0000
3002
0000
0000
0000
1003
0000
0010
0000
0100
0000
0002
0000
0000
0000
0010
0000
0010
0000
0013
0000
0000
0100
0000
0000
1000
0000
,
0001
0000
0000
0001
0000
0000
0001
0000
1000
0000
0000
1000
0000
0000
1000
0000
0002
0000
0000
0000
0100
0000
0100
0000
0103
0000
0000
0010
0000
0000
1000
0000
,
0001
0000
0000
0010
0000
0000
0100
0000
1000
0000
0000
0010
0000
0000
0100
0000
0002
0000
0000
0000
1000
0000
1000
0000
1003
0000
0000
0001
0000
0000
1000
0000
,
1010
0000
0000
0010
0000
0000
0100
0000
0001
0000
0000
0010
0000
0100
2000
0000
0002
0000
0000
0000
3003
0000
0000
0000
1000
0000
0010
0100
0000
0010
0100
0000
,
1001
0000
0000
0000
0001
0000
0010
0000
0100
1000
0100
0000
1000
0000
0001
0000
,
0001
0000
0010
0000
1000
0000
0010
0000
0100
0000
1000
0001
1000
0000
0000
0000
,
0101
0000
0000
0000
0100
0000
0010
0000
1000
0010
1000
0000
0001
0000
0001
0000
,
1000
0000
0010
0000
0001
0000
0010
0000
0110
0000
0000
0100
0000
0001
1000
0100
,
0010
0000
0000
0000
0001
0000
1000
0000
0001
0100
0001
0000
1000
0000
0010
0000
,
0010
0000
0100
0000
0001
0000
0010
0000
0100
0000
1000
0001
1000
0000
0000
0000
,
1001
0101
0000
0011
0000
0110
0000
1100
,
0000
0000
1001
0000
0000
0000
0020
0000
0100
0000
0000
0130
0000
0001
0010
0100
,
1000
0000
0000
0000
0001
0000
1000
0000
0001
0100
0010
0000
1000
0000
0100
0000
,
0100
0010
0001
1000
0100
0010
0011
0000
,
0101
0000
0000
0000
0100
0000
0010
0000
1000
0001
0100
0000
0010
0000
1000
0000
,
1000
0000
0001
0000
0010
0000
0100
0000
1100
0000
0000
0001
0000
0010
0100
1000
,
0001
0000
0000
0000
1000
0000
0001
0000
0100
0010
0100
0000
0001
0000
1000
0000
,
0010
0000
0100
0000
1000
0000
0100
0000
0001
0000
1000
0100
0010
0000
0000
0000
,
0001
0000
1000
0000
0100
0000
0010
0000
0001
1000
0001
1000
0001
1000
0001
1000
,
0020
0100
0000
0200
0000
0000
0330
0000
,
1000
0001
0100
0000
0010
0000
0100
0000
0001
0000
1000
0000
0001
0010
0100
0000
,
1000
0001
0100
0000
0010
0000
0100
0000
0001
0000
1000
0010
0000
0010
0100
0000
,
0001
0000
0010
0000
0010
0000
0100
1000
0100
0000
1000
0001
1000
0000
0100
0000
,
0010
0000
0001
0000
1000
0000
0100
0000
0110
0000
0000
0001
0000
0100
0010
1000
,
0001
1000
0100
0000
0010
0000
0100
0000
1000
0000
0001
0000
0100
0010
0100
0000
,
0001
1000
0001
0000
0100
0000
0010
0000
1000
0000
0001
0010
0000
0010
0100
0000
,
1000
0000
0010
0000
0100
0000
0001
1000
0010
0000
0100
0000
0010
1000
0100
0000
,
0011
0000
0000
0000
0010
0000
0001
0000
0200
0000
0000
0320
0000
0000
1030
0000
,
2002
0000
0000
0000
,
3003
0000
0000
0000
;
