#TITLE:Twinkle Star;
#SUBTITLE:;
#ARTIST:serena;
#TITLETRANSLIT:;
#SUBTITLETRANSLIT:;
#ARTISTTRANSLIT:;
#GENRE:;
#CREDIT:;
#MUSIC:Twinkle Star.ogg;
#BANNER:;
#BACKGROUND:;
#CDTITLE:;
#SAMPLESTART:70.704;
#SAMPLELENGTH:13.402;
#SELECTABLE:YES;
#OFFSET:0.976;
#BPMS:0.000=122.000;
#STOPS:;
#BGCHANGES:;
#FGCHANGES:;

//--------------- dance-single - OrangeRight ----------------
#NOTES:
     dance-single:
     OrangeRight:
     Beginner:
     2:
     0,0,0,0,0:
0000
0000
0000
0000
,
0000
0000
0000
0000
,
0000
0000
0000
0000
,
0000
0000
0000
0000
,
0000
0000
0000
0000
,
1000
0000
0000
0000
,
1000
0000
0001
0000
,
0100
0000
0000
0000
,
0010
0000
0100
0000
,
0001
0000
0000
0000
,
0001
0000
1000
0000
,
0010
0000
0000
0000
,
1000
0000
0001
0000
,
1000
0000
0000
0000
,
1000
0000
0000
0000
,
0001
0000
0000
0000
,
0001
0000
0000
0000
,
1000
0000
0000
0000
,
0100
0000
0000
0000
,
1000
0000
0000
0000
,
0001
0000
0100
0000
,
0001
0000
0000
0000
,
1000
0000
0000
0000
,
0100
0000
0000
0000
,
0010
0000
0100
0000
,
1000
0000
0000
0000
,
0100
0000
0000
0000
,
0010
0000
0000
0000
,
1000
0000
0001
0000
,
1000
0000
1000
0000
,
0000
0000
0000
0000
,
0001
0000
0001
0000
,
0000
0000
0000
0000
,
0100
0000
0100
0000
,
0000
0000
0000
0000
,
0010
0000
0010
0000
,
0100
0000
0001
0000
,
1000
0000
0100
0000
,
0010
0000
0000
0000
,
0001
0000
0100
0000
,
0010
0000
0000
0000
,
1000
0000
0001
0000
,
1000
0000
1000
0000
,
0001
0000
0001
0000
,
0100
0000
0010
0000
,
1000
0000
0001
0000
,
0100
0000
0000
0000
,
0001
0000
1000
0000
,
0100
0000
0000
0000
,
1000
0000
0001
0000
,
1000
0000
1000
0000
,
0001
0000
1000
0000
,
1001
0000
1001
0000
,
1000
0000
0100
0000
,
0010
0000
0000
0000
,
0001
0000
0100
0000
,
0010
0000
0000
0000
,
1000
0000
0001
0000
,
0100
0000
0001
0000
,
1000
0000
0001
0000
,
1001
0000
1001
0000
,
0100
0000
0000
0000
;

//--------------- dance-single - OrangeRight ----------------
#NOTES:
     dance-single:
     OrangeRight:
     Easy:
     5:
     0,0,0,0,0:
0000
0000
0000
0000
,
0000
0000
0000
0000
,
0000
0000
0000
0000
,
0000
0000
0000
0000
,
2000
3000
0002
0003
,
2000
0000
0000
3000
,
0002
0003
0200
0300
,
0020
0000
0000
0030
,
2000
3000
0002
0003
,
0020
0030
0200
0300
,
2000
3000
0002
0003
,
0200
0300
0020
0030
,
0110
0000
1001
0000
,
1000
0000
0100
1000
,
0100
0000
0010
0001
,
0100
0000
0001
0000
,
1000
0001
1000
0000
,
0001
0000
0100
0001
,
0100
0000
0010
1000
,
0100
0000
1000
0000
,
0010
0100
0010
0000
,
0100
0000
0001
1000
,
0100
0000
1000
0001
,
0010
0000
0001
0000
,
1000
0001
1000
0000
,
0100
0000
1000
0001
,
0100
0000
0001
1000
,
0010
0000
1000
0000
,
1001
0000
1001
0000
,
1000
0000
0000
0001
0000
0000
0000
0000
,
0100
0010
1000
0000
,
0001
0000
0000
1000
0000
0000
0000
0000
,
0100
0010
0001
0000
,
0100
0000
0000
0010
0000
0000
0000
0000
,
1000
0001
1000
0000
,
0100
0000
0000
0010
0000
0000
2002
0000
,
0000
3003
1000
0001
,
2000
0001
0000
3001
,
0200
0000
0310
0000
,
0001
0100
0010
1000
,
0020
0000
0130
0000
,
0002
1000
0000
1003
,
0200
0000
1300
0000
,
0001
0100
0010
0000
,
0220
0330
0001
1000
,
0001
0010
1000
0010
,
0002
0000
1003
0000
,
1000
0100
0001
0100
,
2000
0000
3001
0000
,
1000
0010
0100
0001
,
0020
0000
0130
0000
,
0100
1000
0010
0100
,
0010
0000
0000
0100
0000
0000
0020
0000
0000
0000
0000
0000
0030
0000
0000
0000
,
1000
0001
0001
1000
,
0100
0000
0010
0000
,
0001
1000
1000
0001
,
0100
0000
0010
0000
,
1000
0010
0010
1000
,
0001
0100
0010
1000
,
0010
0100
0100
0010
,
1000
0000
0000
1000
0000
0000
2000
0000
0000
0000
0000
0000
3000
0000
0000
0000
,
2002
0000
0000
0000
,
0000
0000
0000
0000
,
3003
0000
0000
0000
;

//--------------- dance-single - OrangeRight ----------------
#NOTES:
     dance-single:
     OrangeRight:
     Medium:
     8:
     0,0,0,0,0:
0000
0000
0000
0000
,
0000
0000
0000
0000
,
0000
0000
0000
0000
,
0000
0000
0000
0000
,
2000
3002
2003
3002
,
2003
0100
0000
0010
,
0000
0001
3200
0010
,
2300
0010
0000
0100
,
3002
2003
3002
2003
,
3002
0100
0000
0010
,
0000
1000
0203
0010
,
0302
0100
0000
0010
,
1003
0000
0000
0001
0000
0000
1001
0000
0000
0000
0100
0000
0010
0000
0000
0000
,
1000
0000
0100
1000
0100
0000
1000
0000
,
0001
0000
0100
0001
0100
0000
0001
0000
,
1000
0000
0000
0010
0000
0000
1000
0000
0001
0000
0000
0000
1000
0000
0000
0000
,
0001
0000
0000
0010
0000
0000
0001
0000
1000
0000
0000
0000
1000
0000
0000
0000
,
0001
0000
0010
0001
0010
0000
0001
0000
,
1000
0000
0010
1000
0010
0000
1000
0000
,
0001
0000
0100
0010
0100
0000
0001
0000
,
1000
0000
0100
0001
0000
0100
1000
0000
,
0001
0000
0010
0001
0010
0000
0100
0000
,
1000
0000
0010
1000
0010
0000
0100
0000
,
0001
0000
0000
0100
0000
0000
0010
0000
1000
0000
0000
0000
0001
0000
0000
0000
,
1000
0000
0000
0100
0000
0000
0010
0000
0001
0000
0000
0000
0100
0000
0000
0000
,
0001
0000
0100
0001
0010
0000
0100
0000
,
1000
0000
0100
1000
0010
0000
0100
0000
,
0001
0000
0010
0100
1000
0000
0001
0000
,
1000
0000
0000
0001
0000
0000
2002
0000
0000
0000
0000
0000
3003
0000
0000
0000
,
0101
0000
0000
1010
0000
0000
1000
0000
,
0001
0010
0100
1000
,
1100
0000
0000
0011
0000
0000
0001
0000
,
1000
0010
0100
0001
,
1001
0000
0000
0110
0000
0000
0100
0000
,
0010
1000
0100
0010
,
0110
0000
0000
1001
0000
0000
0220
0000
,
0000
0330
1000
0001
,
2000
0000
0100
0000
3010
0100
0001
0000
,
0100
0000
0010
0000
1000
0001
1000
0000
,
0002
0000
0103
0010
0000
1000
0000
0001
,
0000
0010
0001
0000
0100
0000
0010
0000
,
0200
0000
0001
0000
0310
1000
0001
0000
,
1000
0000
0010
0100
0001
0000
0010
0100
,
1000
0000
0010
0001
0000
0010
1000
0000
,
0001
0000
0000
1000
0000
0000
2002
0000
0000
0000
0000
0000
3003
0000
0000
0000
,
1000
0100
1000
0100
0010
0001
0010
0001
,
0200
1300
0200
0301
,
0001
0100
0001
0100
0010
1000
0010
1000
,
0200
0301
0200
1300
,
1000
0001
1000
0001
0100
0010
1000
0100
,
0020
0031
0002
0103
,
0100
0000
0010
0100
0000
0001
1000
0000
,
1001
0000
0000
1001
0000
0000
2002
0000
0000
0000
0000
0000
3003
0000
0000
0000
,
0000
1000
0100
1000
0001
0010
0001
2000
,
0000
3001
0000
0000
0001
1000
0001
0000
,
0000
0001
0100
0001
1000
0010
1000
0002
,
0000
1003
0000
0000
1000
0001
1000
0000
,
0000
0010
1000
0010
0100
0001
0100
0020
,
0000
0130
0000
0000
0010
0100
0010
0000
,
0000
0100
0001
0100
0010
1000
0010
0000
,
0110
0000
0000
0110
0000
0000
0220
0000
0000
0000
0000
0000
0330
0000
0000
0000
,
2002
0000
0000
0000
,
0000
0000
0000
0000
,
3003
0000
0000
0000
;

//--------------- dance-single - OrangeRight ----------------
#NOTES:
     dance-single:
     OrangeRight:
     Hard:
     11:
     0,0,0,0,0:
0000
0000
0000
0000
,
0000
0000
0000
0000
,
0000
0000
0000
0000
,
0000
0000
0000
0000
,
2000
3200
0320
0032
,
2003
0010
0000
0001
,
3100
0010
0001
0000
0200
0000
0001
0000
,
0320
1000
0000
0100
,
1030
0000
0000
0000
0010
0000
0000
0000
0100
0000
0001
0000
1000
0000
0001
1000
,
0001
0010
0100
0010
0001
0100
0010
0000
,
1000
0010
0100
0001
0200
0000
1000
0000
,
0302
0010
0100
0013
,
0011
0000
0000
0110
0000
0000
2001
0000
0000
0000
0001
0000
3001
0000
0000
0000
,
1000
0001
0100
0010
1000
0010
0100
0000
,
0001
0010
0100
1000
0010
0100
0010
1000
,
0100
0000
0000
0010
0000
0000
0001
0000
1000
0000
0010
0000
0100
0000
0000
0000
,
0001
0000
0000
0010
0000
0000
0100
0000
1000
0000
0010
0000
1000
0000
0000
0000
,
0001
1000
0100
0010
0001
0000
0100
0010
,
1000
0000
0000
0010
0000
0000
0100
0000
0001
0000
1000
0000
0010
0000
1000
0000
,
0100
0000
0000
0010
0000
0000
0001
0000
1000
0000
0010
0000
0100
0000
0000
0000
,
0002
0000
0103
0020
0000
1030
0001
1000
,
0100
0000
0010
0001
0100
0010
1000
0001
,
1000
0000
0010
0100
0001
0010
0100
0010
,
0001
0000
0000
1000
0000
0000
0010
0000
0100
0000
0000
0000
0001
0000
0000
0000
,
1000
0000
0000
0100
0000
0000
0010
0000
0001
0000
0000
0000
1000
0000
0000
0000
,
0001
0000
0100
0010
1000
0100
0010
0100
,
1000
0000
0000
0001
0000
0000
0100
0000
0010
0000
1000
0000
0010
0000
0000
0000
,
0100
0000
0000
0001
0000
0000
0010
0000
0100
0000
1000
0000
0001
0000
0100
0000
,
0110
0000
0000
1001
0000
0000
0220
0000
0000
0000
0330
0000
1000
0000
0001
0000
,
1002
0000
0013
0210
0000
1300
1001
0000
,
1000
0100
0001
0100
1000
0010
0100
0001
,
1002
0000
0103
0120
0000
1030
1001
0000
,
1000
0010
0100
0001
0010
1000
0010
0001
,
0201
0000
0310
2010
0000
3100
0110
0000
,
0010
0001
0100
1000
0100
0001
0010
0100
,
2100
0000
3010
0210
0000
0301
0021
0000
,
0100
1030
1001
0110
,
1000
0000
0010
0000
1000
0000
0100
0000
1000
0000
0010
0000
0100
0000
0001
1000
,
0001
0010
0100
1000
0001
1000
0001
0000
,
0100
0010
1000
0100
0010
0100
0001
0100
,
1000
0001
0100
0000
0001
1000
0100
0000
,
0010
0100
1000
0010
0100
0001
0010
0100
,
1000
0000
0001
0100
0010
1000
0100
0010
,
0100
0000
1000
0001
0100
0000
0010
0000
,
0110
0000
0000
1001
0000
0000
0120
0000
0000
0000
1030
0000
0001
1000
0001
0000
,
1000
0000
0100
0000
0001
0000
0100
0000
1000
0000
0010
0000
0100
0000
0001
0100
,
0001
0010
0100
1000
0001
1000
0001
0000
,
1000
0010
0100
0001
0100
1000
0100
0010
,
1000
0100
0010
0000
0001
0100
0010
0000
,
1000
0010
0001
0010
1000
0100
0010
0001
,
0100
0010
1000
0001
1000
0100
0010
0001
,
0200
0000
0310
2000
0000
3001
1000
0001
,
1001
0000
0000
0110
0000
0000
1002
0000
0000
0000
0100
0000
1003
0000
0000
0000
,
1000
0000
0010
1000
0010
1000
0010
0000
0100
0001
0100
0001
0100
0000
0020
0000
,
0000
0000
0130
0000
0000
0000
0010
0000
0100
0000
0001
0000
1000
0001
0000
0000
,
0001
0000
0100
0001
0100
0001
0100
0000
0010
1000
0010
1000
0010
0000
2000
0000
,
0000
0000
3001
0000
0000
0000
0001
0000
1000
0000
0100
0000
1000
0010
0000
0000
,
1000
0000
0100
1000
0100
1000
0001
0000
0010
0001
0010
0001
1000
0000
0002
0000
,
0000
0103
0000
0010
1000
0100
0010
0000
,
0001
0000
0010
0001
0010
0001
0100
0000
0010
1000
0010
1000
0100
0000
1000
0000
,
1100
0000
0000
0110
0000
0000
2001
0000
0000
0000
0001
0000
3001
0000
0000
0000
,
0220
0000
0000
0000
,
0000
0000
0000
0000
,
0330
0000
0000
0000
;

//--------------- dance-double - OrangeRight ----------------
#NOTES:
     dance-double:
     OrangeRight:
     Easy:
     4:
     0,0,0,0,0:
00000000
00000000
00000000
00000000
,
00000000
00000000
00000000
00000000
,
00000000
00000000
00000000
00000000
,
00000000
00000000
00000000
00000000
,
20000000
30000000
00020000
00030000
,
02000000
00000000
00000000
03000000
,
00020000
00030000
00200000
00300000
,
00002000
00000000
00000000
00003000
,
00010000
00000100
00001000
00000000
,
00000010
00000100
00000020
00000030
,
00001000
00000001
00002000
00003000
,
00000200
00000300
00000020
00000030
,
00001001
00000000
00001001
00000000
,
00000001
00000000
00000100
00000001
,
00000100
00000000
00000010
00001000
,
00000010
00000000
00001000
00000000
,
00000100
00001000
00000100
00000000
,
00010000
00000000
00001000
00010000
,
00001000
00000000
00100000
00010000
,
00100000
00000000
00010000
00000000
,
01000000
00100000
01000000
00000000
,
00100000
00000000
10000000
01000000
,
10000000
00000000
00010000
01000000
,
00010000
00000000
00100000
00000000
,
00001000
00010000
00001000
00000000
,
00010000
00000000
00001000
00010000
,
00000100
00000000
00001000
00000010
,
00000100
00000000
00000001
00000000
,
00001000
00000001
00001000
00000000
,
00000001
00000000
00000000
00001000
00000000
00000000
00000000
00000000
,
00000010
00000100
00000010
00000000
,
00001000
00000000
00000000
00000001
00000000
00000000
00000000
00000000
,
00000010
00000100
00000010
00000000
,
00000001
00000000
00000000
00001000
00000000
00000000
00000000
00000000
,
00000100
00010000
00001000
00000000
,
00010000
00000000
00000000
00001000
00000000
00000000
00022000
00000000
,
00000000
00033000
00010000
00001000
,
00020000
00001000
00000000
00031000
,
00002000
00010000
00000000
00013000
,
00010000
00001000
01000000
00010000
,
20000000
30000000
00100000
01000000
,
00020000
10000000
00000000
10030000
,
00010000
01000000
00001000
00000000
,
00010000
00000100
00001000
00000000
,
00002002
00003003
00001000
00000001
,
00001000
00000100
00001000
00000100
,
00000020
00000000
00000130
00000000
,
00010000
00001000
00010000
00001000
,
02000000
00000000
03100000
10000000
,
00020000
10000000
00000000
10030000
,
00010000
00100000
00001000
00000000
,
00010000
00000010
00000100
00000000
,
00000010
00000000
00000000
00000100
00000000
00000000
00000020
00000000
00000000
00000000
00000000
00000000
00000030
00000000
00000000
00000000
,
00001000
00000100
00000100
00001000
,
00000100
00000000
00010000
00000000
,
00001000
00010000
00010000
00001000
,
01000000
00000000
00010000
00000000
,
10000000
00010000
00010000
10000000
,
01000000
00000000
00100000
00000000
,
00010000
00100000
00001000
00010000
,
00001000
00000000
00000000
00001000
00000000
00000000
00002000
00000000
00000000
00000000
00000000
00000000
00003000
00000000
00000000
00000000
,
00022000
00000000
00000000
00000000
,
00000000
00000000
00000000
00000000
,
00033000
00000000
00000000
00000000
;

//--------------- dance-double - OrangeRight ----------------
#NOTES:
     dance-double:
     OrangeRight:
     Medium:
     7:
     0,0,0,0,0:
00000000
00000000
00000000
00000000
,
00000000
00000000
00000000
00000000
,
00000000
00000000
00000000
00000000
,
00000000
00000000
00000000
00000000
,
20000000
30020000
20030000
30020000
,
20030000
01000000
00000000
00100000
,
00000000
30010000
01000000
00010000
,
00200000
00001000
00000000
00010000
,
00000000
00301000
00010000
00000100
,
00002000
00000010
00000000
00000100
,
00000000
00003001
00000100
00000010
,
00000200
00000001
00000000
00000310
,
00000110
00000000
00000000
00000110
00000000
00000000
00000220
00000000
00000000
00000000
00000000
00000000
00000330
00000000
00000000
00000000
,
00001000
00000000
00000100
00001000
00000100
00000000
00001000
00000000
,
00000001
00000000
00000100
00000001
00000100
00000000
00000001
00000000
,
00001000
00000000
00000000
00000100
00000000
00000000
00001000
00000000
00000100
00000000
00000000
00000000
00010000
00000000
00000000
00000000
,
00001000
00000000
00000000
00010000
00000000
00000000
00001000
00000000
01000000
00000000
00000000
00000000
00010000
00000000
00000000
00000000
,
10000000
00000000
00100000
10000000
00100000
00000000
10000000
00000000
,
00010000
00000000
00100000
00010000
00100000
00000000
00010000
00000000
,
00100000
00000000
00001000
00010000
00001000
00000000
01000000
00000000
,
00100000
00000000
01000000
00010000
00000000
10000000
01000000
00000000
,
10000000
00000000
00100000
10000000
00100000
00000000
01000000
00000000
,
00010000
00000000
00100000
00010000
00100000
00000000
00001000
00000000
,
00010000
00000000
00000000
00000100
00000000
00000000
00001000
00000000
00000100
00000000
00000000
00000000
00010000
00000000
00000000
00000000
,
00001000
00000000
00000000
01000000
00000000
00000000
00010000
00000000
00100000
00000000
00000000
00000000
00001000
00000000
00000000
00000000
,
00010000
00000000
00000100
00001000
00000100
00000000
00010000
00000000
,
00001000
00000000
01000000
00010000
01000000
00000000
00001000
00000000
,
00100000
00000000
00010000
01000000
00100000
00000000
10000000
00000000
,
00010000
00000000
00000000
10000000
00000000
00000000
20020000
00000000
00000000
00000000
00000000
00000000
30030000
00000000
00000000
00000000
,
10100000
00000000
00000000
01010000
00000000
00000000
00010000
00000000
,
00100000
00001000
00010000
00000100
,
00001100
00000000
00000000
00000011
00000000
00000000
00000010
00000000
,
00000001
00000100
00000010
00001000
,
00001001
00000000
00000000
00000110
00000000
00000000
00000010
00000000
,
00001000
00000100
00010000
00001000
,
00101000
00000000
00000000
00010100
00000000
00000000
00022000
00000000
,
00000000
00033000
00010000
00001000
,
00200000
00000000
00001000
00000000
00010000
00000000
00301000
00010000
,
00000200
00010000
00001000
00010300
,
00000200
00000000
00010300
00002000
00000000
02003000
00000000
03020000
,
00000000
10030000
00010000
00000000
10000000
00000000
00010000
00000000
,
20000000
00000000
00100000
00000000
01000000
00000000
30100000
01000000
,
00020000
00000000
00100000
00000000
01000000
00000000
00130000
01000000
,
10000000
00000000
00010000
10000000
00000000
00100000
01000000
00000000
,
00010000
00000000
00000000
00100000
00000000
00000000
00001000
00000000
00010000
00000000
00000100
00000000
00010000
00000000
00000000
00000000
,
00000100
00010000
00000100
00000000
00010000
00001000
00010000
00001000
,
00200000
00001000
00010000
00301000
,
00100000
00001000
00100000
00000000
00001000
00010000
00001000
00010000
,
00000200
00000000
00001000
00000000
00001300
00000001
00001000
00000000
,
00000001
00000100
00000001
00000000
00000010
00000000
00000100
00001000
,
00000100
00000000
00010000
00001000
00010000
00000100
00001000
00000000
,
00000010
00000000
00000100
00000010
00000000
00001000
00000001
00000000
,
00001001
00000000
00000000
00001001
00000000
00000000
00002002
00000000
00000000
00000000
00000000
00000000
00003003
00000000
00000000
00000000
,
00000000
00000001
00000100
00000001
00001000
00000010
00001000
00000200
,
00000000
00010300
00000000
00000000
00001000
00000000
00100000
00000000
,
00000000
00010000
01000000
00010000
10000000
01000000
10000000
00200000
,
00000000
01300000
00000000
00000000
00010000
00000000
10000000
00000000
,
00000000
00100000
10000000
00100000
01000000
00010000
01000000
00002000
,
00000000
00013000
00000000
00000000
00000100
00000000
00001000
00000000
,
00000000
00000010
00001000
00000010
00000100
00000001
00000100
00000000
,
00000110
00000000
00000000
00000110
00000000
00000000
00000220
00000000
00000000
00000000
00000000
00000000
00000330
00000000
00000000
00000000
,
00002002
00000000
00000000
00000000
,
00000000
00000000
00000000
00000000
,
00003003
00000000
00000000
00000000
;

//--------------- dance-double - OrangeRight ----------------
#NOTES:
     dance-double:
     OrangeRight:
     Hard:
     11:
     0,0,0,0,0:
00000000
00000000
00000000
00000000
,
00000000
00000000
00000000
00000000
,
00000000
00000000
00000000
00000000
,
00000000
00000000
00000000
00000000
,
20000000
00000000
30020000
00000000
00230000
00000000
00301000
00010000
,
00000200
00001000
00000010
00000001
,
00000320
00000001
00000230
00001000
,
00020300
00001000
00000100
00000010
,
00032000
00010000
01000000
00100000
,
00013000
00001000
00100000
00010000
02000000
00000000
00100000
00000000
,
03020000
00100000
20030000
00100000
,
32000000
00000000
00010000
00000000
00100000
00000000
13000000
00010000
,
10010000
00000000
00000000
01100000
00000000
00000000
10010000
00000000
00000000
00000000
10000000
00000000
00010000
00000000
00000000
00000000
,
10000000
01000000
10000000
00100000
01000000
00010000
00100000
00000000
,
00010000
00100000
00001000
00010000
00000100
00001000
00000100
00010000
,
00001000
00000000
00000000
00100000
00000000
00000000
00001000
00000000
00010000
00000000
00000100
00000000
00010000
00000000
00000000
00000000
,
00010000
00000000
00000000
00000010
00000000
00000000
00010000
00000000
00001000
00000000
01000000
00000000
00001000
00000000
00000000
00000000
,
00010000
00000000
00000100
00001000
00000010
00000100
00000001
00001000
,
00000100
00000000
00000000
00000010
00000000
00000000
00000001
00000000
00000000
00000000
00000100
00000000
00000010
00000000
00000100
00000000
,
00000001
00000000
00000000
00001000
00000000
00000000
00000100
00000000
00010000
00000000
00001000
00000000
00010000
00000000
00000000
00000000
,
00002000
00000000
00103000
00020000
00000000
01030000
00100000
10000000
,
00010000
00000000
10000000
01000000
00100000
00010000
01000000
00001000
,
00010000
00000000
00000100
00010000
00001000
00100000
00001000
00010000
,
00000100
00000000
00000000
00001000
00000000
00000000
00000010
00000000
00000100
00000000
00000001
00000000
00001000
00000000
00000000
00000000
,
00000010
00000000
00000000
00001000
00000000
00000000
00000100
00000000
00000010
00000000
00000001
00000000
00001000
00000000
00000000
00000000
,
00000010
00000000
00000100
00000001
00000010
00001000
00000010
00000001
,
00000100
00000000
00000000
00000010
00000000
00000000
00001000
00000000
00000100
00000000
00000000
00000000
00010000
00000000
00001000
00000000
,
00100000
00000000
00000000
00010000
00000000
00000000
01000000
00000000
00100000
00000000
10000000
00000000
00010000
00000000
10000000
00000000
,
10010000
00000000
00000000
01100000
00000000
00000000
10010000
00000000
00000000
00000000
00100000
00000000
01000000
00000000
10000000
00000000
,
12000000
00000000
03100000
00120000
00000000
01030000
00001000
00000000
,
00010000
00000100
00010000
00001000
00100000
00001000
00010000
00001000
,
00021000
00000000
00030100
00002100
00000000
00003010
00000100
00000000
,
00000001
00000010
00000001
00001000
00000100
00001000
00000001
00000100
,
00000201
00000000
00000310
00002010
00000000
00003100
00010000
00000000
,
00001000
00100000
00001000
00010000
00000100
00010000
00001000
01000000
,
01002000
00000000
00013000
00020100
00000000
00031000
00201000
00000000
,
00001000
00301000
00011000
00010100
,
00001000
00000100
00000010
00000100
00001000
00000010
00000001
00000010
,
00001000
00000100
00010000
00001000
00100000
00010000
01000000
00000000
,
00010000
01000000
10000000
01000000
00010000
00100000
01000000
10000000
,
00100000
00010000
00100000
10000000
01000000
00100000
00010000
00000000
,
20000000
00000000
00100000
00000000
31000000
00100000
00010000
01000000
,
00001000
00000000
00010000
00000100
00001000
00000100
00010000
00001000
,
00200000
00000000
00310000
02000000
00000000
03100000
10000000
00010000
,
10010000
00000000
00000000
01100000
00000000
00000000
10010000
00000000
00000000
00000000
01000000
00000000
00100000
00000000
00000000
00000000
,
10000000
00100000
01000000
00100000
10000000
01000000
00010000
01000000
,
10000000
00100000
01000000
00010000
00100000
00001000
00010000
00000000
,
00001000
00010000
00000100
00001000
00000010
00000001
00000010
00001000
,
00000100
00000010
00000001
00000000
00001001
00000000
00000110
00000000
,
00000102
00000000
00000010
00000000
00000103
00000010
00001000
00000100
,
00010000
00000000
00001000
00100000
00010000
01000000
10000000
01000000
,
00020000
00000000
10030000
00200000
00000000
01300000
00010000
10000000
,
10010000
00000000
00000000
10010000
00000000
00000000
10020000
00000000
00000000
00000000
10000000
00000000
10030000
00000000
00000000
00000000
,
10000000
00000000
01000000
10000000
01000000
10000000
01000000
00000000
00100000
00010000
00100000
00010000
00100000
00000000
00020000
00000000
,
00000000
01030000
00000000
01000000
00001000
00010000
00000100
00000000
,
00001000
00000000
00000100
00001000
00000100
00001000
00000100
00000000
00000010
00000001
00000010
00000001
00000010
00000000
00000002
00000000
,
00000000
00000103
00000000
00000100
00000010
00001000
00000100
00000000
,
00010000
00000000
00000100
00010000
00000100
00010000
00001000
00000000
01000000
00001000
01000000
00001000
00010000
00000000
00002000
00000000
,
00000000
00103000
00000000
00010000
00100000
00001000
00010000
00000000
,
00001000
00000000
00100000
00001000
00100000
00001000
00010000
00000000
00000010
00010000
00000010
00010000
00001000
00000000
01000000
00000000
,
01001000
00000000
00000000
00010010
00000000
00000000
00012000
00000000
00000000
00000000
00010000
00000000
00013000
00000000
00000000
00000000
,
00202000
00000000
00000000
00000000
,
00000000
00000000
00000000
00000000
,
00303000
00000000
00000000
00000000
;
