#TITLE:Treble, Bass & Attitude (CLSM Remix);
#SUBTITLE:;
#ARTIST:The Acolyte;
#TITLETRANSLIT:;
#SUBTITLETRANSLIT:;
#ARTISTTRANSLIT:;
#GENRE:;
#CREDIT:;
#MUSIC:01. Treble, Bass & Attitude (CLSM Remix).mp3;
#BANNER:;
#BACKGROUND:;
#CDTITLE:;
#SAMPLESTART:76.850;
#SAMPLELENGTH:15.000;
#SELECTABLE:YES;
#OFFSET:1.300;
#BPMS:0.000=175.000;
#STOPS:;
#BGCHANGES:;
#FGCHANGES:;

//--------------- dance-single - forcednature ----------------
#NOTES:
     dance-single:
     forcednature:
     Beginner:
     3:
     0,0,0,0,0:
0000
0000
0000
0000
,
0000
0000
0000
0000
,
0000
0000
0000
0000
,
0000
0000
0000
0000
,
0000
0000
0000
0000
,
1000
0000
1000
0000
,
0001
0000
0001
0000
,
0100
0000
0100
0000
,
0010
0010
0010
0000
,
1001
0000
0000
0000
,
0100
0000
0000
0000
,
1000
0000
0000
0000
,
0001
0000
0000
0000
,
0100
0000
0000
0000
,
0010
0000
0000
0000
,
1000
0000
0000
0000
,
0001
0000
0000
0000
,
1001
0000
0000
0000
,
0010
0000
0000
0000
,
1001
0000
0000
0000
,
0100
0000
0000
0000
,
0010
0000
0010
0000
,
0100
0000
0100
0000
,
1000
0001
1000
0001
,
1000
0001
1000
0000
,
1001
0000
0000
0000
,
0001
0000
0000
0000
,
0100
0000
0000
0000
,
0010
0000
0000
0000
,
1000
0000
0000
0000
,
0001
0000
0000
0000
,
1000
0000
0000
0000
,
0100
0000
0010
0000
,
0110
0000
0000
0000
,
0001
0000
0000
0000
,
1000
0000
0000
0000
,
0001
0000
0000
0000
,
0100
0000
0000
0000
,
0010
0000
0000
0000
,
1000
1000
0001
0001
,
0100
0100
0100
0100
,
0010
0000
0000
0000
,
1000
0000
0000
0000
,
0001
0000
0000
0000
,
0010
0000
0000
0000
,
0100
0000
0000
0000
,
1000
0000
0000
0000
,
0001
0000
0000
0000
,
0100
0000
0000
0000
,
0010
0000
0000
0000
,
1000
0000
0000
0000
,
0001
0000
0000
0000
,
1000
0000
0000
0000
,
0001
0000
0000
0000
,
0100
0000
0000
0000
,
0001
0000
0000
0000
,
1000
0000
1000
0000
,
1000
0000
0000
0000
,
0100
0000
0010
0000
,
0100
0000
0000
0000
,
1000
0000
0001
0000
,
1000
0000
0000
0000
,
0010
0000
0100
0000
,
0010
0000
0000
0000
,
0100
0000
0001
0000
,
0100
0000
0000
0000
,
0001
0000
0010
0000
,
0001
0000
0000
0000
,
1000
0000
0010
0000
,
1000
0000
0000
0000
,
0001
0000
1000
0000
,
0001
0000
0000
0000
,
0100
0000
0000
0000
,
1001
0000
0000
0000
;

//--------------- dance-single - forcednature ----------------
#NOTES:
     dance-single:
     forcednature:
     Easy:
     8:
     0,0,0,0,0:
0000
0000
0000
0000
,
0000
0000
0000
0000
,
0000
0000
0000
0000
,
0000
0000
0000
0000
,
0000
0000
0000
0000
,
1000
1000
0001
0010
,
0100
0100
1000
0001
,
0100
0100
1000
0100
,
0001
0000
0001
0001
1000
0000
0100
0000
,
1001
0000
0001
0000
0100
0000
0010
1000
,
0010
0000
0100
0000
0001
0000
0010
0001
,
0010
0100
1000
0001
,
0100
0010
1000
0001
,
1000
0000
0100
0000
0010
0000
0100
1000
,
0100
0000
0010
0000
0001
0000
0100
0001
,
0100
0010
1000
0001
,
0010
0001
1000
0010
,
0100
0000
0001
0000
1000
0000
0100
0010
,
0100
0000
1000
0000
0001
0000
0100
0010
,
0100
0000
0001
0000
1000
0000
0100
0010
,
0100
0000
1000
0000
0001
0000
0100
0010
,
0100
0001
0100
1000
,
0100
0001
0100
1000
,
0100
0110
0010
0110
,
1000
0001
1000
0001
1000
0001
1000
0000
,
1001
0001
0100
0001
,
1000
0001
1000
0100
,
1000
1000
0001
0001
,
0100
0010
0100
0010
,
1000
0001
1000
1001
,
0001
1000
0001
1001
,
0100
0100
0010
0010
,
1000
1000
0001
0001
,
0010
0100
0010
0110
,
0100
0010
0100
0110
,
1000
1000
0001
0001
,
0100
0100
0010
0010
,
0100
0010
0100
0110
,
0010
0100
0010
0110
,
0100
0100
0010
0010
,
1000
0001
1000
0001
1000
0001
1000
0000
,
1001
0000
0001
0000
0000
0100
0000
0000
,
0010
0000
1000
0000
0000
0100
0000
0000
,
0010
0000
0100
0000
0000
1000
0000
0000
,
0001
0000
0100
0000
0000
0010
0000
0000
,
1000
0000
0001
0000
0000
0010
0000
0000
,
0001
0000
0100
0000
0000
0010
0000
0000
,
0100
0000
1000
0000
0000
0100
0000
0000
,
1001
1001
1001
0000
,
0010
0000
1000
0000
0000
1001
0000
0000
,
0010
0000
0001
0000
0000
1001
0000
0000
,
0100
0000
1000
0000
0000
1001
0000
0000
,
0100
0000
0001
0000
0000
1001
0000
0000
,
1000
0000
0100
0000
0000
0110
0000
0000
,
0001
0000
0100
0000
0000
0110
0000
0000
,
1000
0000
0010
0000
0000
0110
0000
0000
,
0001
0010
0100
1000
,
0010
0000
1000
0001
0000
1000
0000
0000
,
0001
0000
0100
0001
0000
0100
0000
0000
,
0010
0000
1000
0100
0000
1000
0000
0000
,
0001
0000
0010
0001
0000
1000
0000
0000
,
0001
0000
0100
0001
0000
0100
0000
0000
,
0010
0000
1000
0010
0000
1000
0000
0000
,
0001
0000
0010
0100
0000
0010
0000
0000
,
0100
0000
1000
0001
0000
1000
0000
0000
,
1001
0000
1000
0010
0000
1000
0000
0000
,
0001
0000
0100
0001
0000
0010
0000
0000
,
0100
0000
1000
0001
0000
0100
0000
0000
,
0001
0000
1000
0100
0000
0010
0000
0000
,
0100
0000
1000
0001
0000
0010
0000
0000
,
0001
0000
1000
0010
0000
0100
0000
0000
,
0001
0000
1000
0100
0000
0010
0000
0000
,
0100
0000
1000
0001
0000
0100
0000
0000
,
1001
0000
0000
0000
;

//--------------- dance-single - forcednature ----------------
#NOTES:
     dance-single:
     forcednature:
     Medium:
     10:
     0,0,0,0,0:
0000
0000
0000
0000
,
0000
0000
0000
0000
,
0000
0000
0000
0000
,
0000
0000
0000
0000
,
0000
0000
0000
0000
,
1000
0000
1000
0000
0001
0000
0100
0010
,
1000
0000
1000
0000
0001
0000
0010
0100
,
0010
0010
0001
0100
,
0010
0000
0100
0100
0100
0000
0001
0000
,
1001
0000
1000
0000
0100
0000
1000
0001
,
0100
0000
0010
0000
1000
0000
0001
0010
,
0100
0010
0001
0100
,
0010
1000
0001
1000
,
0100
0000
0010
0000
0100
0000
1000
0001
,
0100
0000
0010
0000
1000
0000
0001
0010
,
0100
0010
0001
0100
,
0010
1000
0001
1000
,
0110
0000
0001
0000
1000
0000
0010
0100
,
0001
0000
1000
0000
0100
0000
0010
0100
,
1000
0000
0001
0000
0100
0000
0010
1000
,
0001
0000
0010
0000
0001
0000
0100
0010
,
1000
0000
0000
0000
1000
0000
0000
0001
0100
0000
0000
0000
0001
0000
0000
1000
,
0100
0000
0000
0000
1000
0000
0000
0001
0010
0000
0000
0000
0001
0000
0000
1000
,
0010
1010
1001
0011
,
0100
0100
0010
0010
0001
1000
0001
0000
,
0110
0000
0001
0000
1000
0000
0010
1000
,
0001
0000
1000
0000
0100
0000
0010
0001
,
0100
0010
1000
0001
,
1000
0000
0100
0000
0001
0000
0100
0010
,
0001
0000
1000
0000
0010
0000
0100
0001
,
1000
0000
0100
0000
1000
0000
0010
0100
,
0001
0010
0100
1000
,
0010
0000
0100
0000
0001
0001
1000
0000
,
1001
0000
1000
0000
0100
0000
1000
0010
,
0100
0000
0001
0000
0010
0000
0100
1000
,
0001
0100
0001
1000
,
0010
0000
1000
0000
0001
0000
0010
0100
,
1000
0000
0001
0000
0100
0000
0010
1000
,
0001
0000
0010
0000
0001
0000
0100
0010
,
1000
0000
0000
1000
0100
0000
0000
0100
0010
0000
0000
0010
0001
0000
0000
0000
,
0100
0100
0010
0010
1000
0001
1000
0000
,
1001
0000
0101
0000
0000
0010
0100
0000
,
0001
0000
1000
0000
0000
0100
1000
0000
,
0010
0000
1100
0000
0000
0001
1000
0000
,
0010
0000
0100
0000
0000
0001
0010
0000
,
0100
0000
0110
0000
0000
1000
0001
0000
,
1000
0000
0010
0000
0000
0100
0001
0000
,
0010
0000
1001
0000
0000
0001
0100
0000
,
0010
1010
1001
0100
,
0110
0000
1000
0001
0000
1000
0001
0000
,
0010
0000
0100
1000
0000
0100
1000
0000
,
0010
0000
0100
0001
0000
0100
0001
0000
,
1000
0000
0100
0010
0000
0100
0010
0000
,
0001
0000
0100
0010
0000
0100
0010
0000
,
1000
0000
0001
0010
0000
0001
0010
0000
,
0001
0000
1000
0010
0000
1000
0010
0000
,
1001
0000
0110
0000
1000
0100
0001
0000
,
0110
0000
1000
0001
0000
0100
0000
0010
,
1000
0000
0001
0010
0000
0100
0000
1000
,
0001
0000
0100
1000
0000
0100
0000
0010
,
1000
0000
0001
0010
0000
1000
0000
0010
,
0100
0000
1000
0001
0000
0100
0000
0010
,
1000
0000
0001
0010
0000
0100
0000
0001
,
0100
0000
0010
0001
0000
0100
0000
1000
,
0100
0000
0001
1000
0000
0100
0000
0010
,
0001
0000
0100
0010
0000
1000
0000
0001
,
0010
0000
0100
1000
0000
0001
0000
0100
,
1000
0000
0100
0010
0000
1000
0000
0001
,
0010
0000
1000
0010
0000
0100
0000
1000
,
0001
0000
0100
1000
0000
0100
0000
0001
,
1000
0000
0100
0001
0000
0100
0000
1000
,
0001
0000
0100
0010
0000
1000
0000
0001
,
0010
0000
0100
1000
0000
0010
0000
0100
,
0001
0000
0000
0000
;

//--------------- dance-single - forcednature ----------------
#NOTES:
     dance-single:
     forcednature:
     Hard:
     13:
     0,0,0,0,0:
0000
0000
0000
0000
,
0000
0000
0000
0000
,
0000
0000
0000
0000
,
0000
0000
0000
0000
,
0000
0000
0000
0000
,
0101
0000
0101
0000
0010
0000
0100
1000
,
1100
0000
1100
0000
0010
0000
0100
0001
,
1001
1001
0100
0010
,
1001
0000
0000
0000
0100
0010
0100
0010
0100
0000
0000
0000
1001
0000
0000
0000
,
1100
0000
0101
0000
1100
0000
1000
0001
,
0101
0000
1100
0000
0101
0000
0001
1000
,
1010
0011
1010
0100
,
0011
1010
0011
0100
,
1100
0000
1001
0000
1010
0000
0100
0001
,
0101
0000
1001
0000
0011
0000
0100
1000
,
1100
1001
0101
0010
,
0101
1001
1100
0010
,
0001
0100
0000
0000
0100
0001
0000
0000
0001
0100
0000
0000
0010
0000
1000
0000
,
0100
1000
0000
0000
1000
0100
0000
0000
0100
1000
0000
0000
0001
0000
0010
0000
,
0001
0100
0000
0000
0100
0001
0000
0000
0001
0100
0000
0000
0010
0000
1000
0000
,
0100
1000
0000
0000
1000
0100
0000
0000
0100
1000
0000
0000
0001
0000
0010
0000
,
0001
0000
0000
0000
0001
0000
1000
0100
1000
0000
0000
0000
1000
0000
0001
0100
,
0001
0000
0000
0000
0001
0000
1000
0010
1000
0000
0000
0000
1000
0000
0001
0010
,
0001
0101
1100
1001
,
0001
0100
0001
0000
1000
0100
1000
0000
0010
0000
0010
0000
0100
0000
0000
0000
,
0201
0000
1000
0000
0301
0000
0010
0100
,
1200
0000
0001
0000
1300
0000
0010
0100
,
0201
0010
1300
0010
,
1200
0000
0010
0000
0301
0000
0010
0010
,
0021
0000
1000
0000
0031
0000
0100
0010
,
1020
0000
0001
0000
1030
0000
0100
0010
,
0021
0100
1030
0100
,
1010
0000
0000
0000
0101
0000
0000
0000
1000
0001
1000
0000
0100
0000
0100
0000
,
0010
0000
0001
0010
0100
1000
0001
0100
,
0001
0000
1000
0010
0100
0001
1000
0100
,
1000
0000
0010
0001
0010
1000
0010
0100
,
0010
0000
1000
0100
0001
0100
0010
0001
,
0100
0000
1000
0100
0001
1000
0100
0001
,
0100
0000
0001
0100
1000
0001
0100
1000
,
0110
0000
0000
0000
1100
0000
0000
0000
0101
0000
0000
1000
0001
0000
0000
0000
,
1000
0100
1000
0000
0001
0100
0001
0000
0010
0000
0010
0000
0100
0000
0000
0000
,
1001
0000
0101
0000
0000
0010
1000
0000
,
0100
0000
0010
0100
0000
1000
0001
0000
,
0100
0000
1010
0000
0000
0100
0001
0000
,
0010
0000
0100
1000
0000
0001
0100
0000
,
0010
0000
1010
0000
0000
1000
0001
0000
,
0010
0000
0100
1000
0000
0001
0100
0000
,
0010
0000
0110
0000
0000
0100
0001
0000
,
1000
1000
0100
1000
1000
0001
0100
0000
,
0010
0000
1000
0001
0010
0001
1000
0000
,
0010
0100
0001
0100
0010
1000
0001
0000
,
1000
0000
0110
0000
0100
1000
0001
0000
,
0100
0001
1000
0010
1000
0001
0010
0000
,
0100
0000
1000
0001
0100
0010
1000
0000
,
0100
0010
0001
0100
0010
0100
0001
0000
,
0101
0000
1010
0000
1000
0100
0010
0000
,
0100
0000
1000
0000
0001
0000
0100
0000
0001
0000
1000
0001
1000
0000
0000
0000
,
0001
0100
0001
1000
0000
0010
0000
0100
,
0001
0100
0001
0010
0000
0100
0000
1000
,
0001
1000
0001
0100
0000
1000
0000
0100
,
0001
0100
0001
0010
0000
0100
0000
1000
,
0100
0010
0001
0101
0000
1100
0000
0001
,
1000
0100
0010
0110
0000
1001
0000
1000
,
0010
0001
0010
0110
0000
1001
0000
0001
,
0010
1000
0010
0110
0000
1001
0000
1000
,
0001
0010
1000
0001
0100
1000
0001
1000
,
0001
0100
1000
0001
0010
1000
0001
0010
,
0100
1000
0010
0200
0000
1000
0000
0010
,
0010
0000
0001
0001
0000
0310
0000
0001
,
1000
0100
0001
0100
0010
1000
0010
0001
,
1000
0010
0001
1000
0100
0001
1000
0001
,
0200
0000
1000
1000
0000
0010
0000
0001
,
0001
0000
0010
0010
0000
0310
0000
0100
,
1001
0000
0000
0000
;

//--------------- dance-single - forcednature ----------------
#NOTES:
     dance-single:
     forcednature:
     Challenge:
     15:
     0,0,0,0,0:
0000
0000
0000
0000
,
0000
0000
0000
0000
,
0000
0000
0000
0000
,
0000
0000
0000
0000
,
0000
0000
0000
0000
,
0001
0100
0000
0000
0100
0010
0000
0000
1000
0000
0000
0000
0001
0000
0010
0000
,
0100
1000
0000
0000
1000
0001
0000
0000
0100
0000
0000
0000
0010
0000
1000
0000
,
0001
0010
0000
0000
0010
0100
0000
0000
1000
0000
0000
0000
0001
0000
0000
0000
,
0100
0001
0000
0000
1000
0100
1000
0100
0010
0000
0000
0000
0001
0100
0010
0000
,
1001
0000
1010
0010
0100
0001
0010
0100
,
1100
0000
0101
1000
0001
0010
0100
1000
,
0110
0000
1001
0001
0100
0001
1000
0010
,
0110
0000
1001
0001
0010
0100
0001
0100
,
0110
0000
1001
1000
0100
0001
0100
0010
,
0011
0000
0101
0001
1000
0010
0100
0001
,
0011
0000
1100
1000
0010
0001
0010
0100
,
0101
0000
1100
1000
0001
0010
0110
0000
,
1001
0000
0000
0000
0001
0100
0001
0000
1000
0000
0010
0000
1000
0000
0100
0000
,
0001
0000
0000
0000
0100
0010
0100
0000
1000
0000
0001
0000
0100
0000
0010
0000
,
0001
0000
0000
0000
0010
1000
0010
0000
0100
0000
0001
0000
1000
0000
0100
0000
,
0010
0000
0000
0000
0100
1000
0100
0000
0001
0000
1000
0000
0010
0000
0001
0000
,
1001
0000
0000
0000
0001
0000
0100
0010
1000
0000
0000
0000
1000
0000
0100
0010
,
0001
0000
0000
0000
0001
0000
0100
1000
0100
0000
0000
0000
1000
0000
0100
0001
,
0100
0101
1100
1001
,
0100
0001
0100
0001
0100
0001
0100
0001
0010
0000
0100
0000
1001
0000
0000
0000
,
0001
0100
1000
0001
0010
0001
1000
0100
,
0001
0010
0100
0001
1000
0010
0001
1000
,
0010
0100
1000
0001
0010
1000
0001
0010
,
0100
0001
0100
1000
0010
0000
1001
0000
,
0001
0100
0001
0010
1000
0010
0100
0001
,
0100
1000
0001
0010
0100
0001
1000
0010
,
0001
1000
0010
0001
0010
0100
1000
0100
,
0001
0000
1000
0000
0100
0000
0010
0000
0001
1000
0001
0000
1001
0000
0000
0000
,
1000
0100
1000
0010
0001
1000
0001
0010
,
0100
0001
0010
1000
0001
1000
0010
0001
,
1000
0010
0100
1000
0001
0010
1000
0100
,
0010
1000
0001
1000
0010
0000
1001
0000
,
0001
0100
1000
0100
0010
1000
0100
0001
,
1000
0001
1000
0010
0001
1000
0010
0100
,
0110
0000
0000
1000
0001
0000
0000
0001
1000
0000
0001
0100
0010
0000
0000
0000
,
1000
0100
1000
0100
0010
0001
0010
0001
1000
0001
1000
0001
0100
0010
0100
0010
,
0200
0000
0001
0000
0000
0310
0110
0000
,
2001
0000
0100
0100
0000
3010
1001
0000
,
0201
0000
1000
0000
0000
0310
0110
0000
,
1002
0000
0100
0100
0000
0013
1001
0000
,
0021
0000
0100
0230
0000
1300
1100
0000
,
1020
0000
0100
0230
0000
0301
1001
0000
,
0201
0000
1000
2300
0000
3100
1100
0000
,
1001
0000
0000
0000
0110
0000
0000
0000
1001
0000
0000
0000
0100
0010
0000
0000
,
1002
0000
0103
1000
0001
0010
1000
0000
,
2001
0000
3100
0001
1000
0010
0001
0000
,
0201
0000
1300
0100
0001
0010
0100
0000
,
1200
0000
0301
0100
1000
0010
0100
0001
,
0201
0000
0000
0000
0310
0000
1000
0000
0001
0000
1000
0000
0100
0000
0010
0001
,
0020
0000
0000
0000
0130
0000
1000
0000
0001
0000
0100
0000
0010
0000
1000
0001
,
2000
0000
0000
0000
3100
0000
0001
0000
0100
0000
0010
0000
0001
0000
1000
0010
,
2000
0000
0000
0000
0001
0000
0000
0000
0000
0000
3001
0010
0001
0000
0000
0000
,
1000
0010
0001
0010
0000
0110
0000
0100
,
0001
1000
0100
0001
0000
0110
0000
0100
,
1000
0001
1000
0010
0000
0110
0000
0001
,
1000
0100
0001
0100
0000
0110
0000
1000
,
0001
1000
0010
0001
0000
0110
0100
0001
,
1000
0010
1000
0100
0000
0110
0010
0100
,
1000
0001
1000
0010
0000
0110
0100
0001
,
1000
0000
0100
0000
0010
0000
0010
0000
0001
0100
0001
0000
1000
0000
0010
0000
,
1000
0000
0100
0000
0010
0001
0010
0000
0100
0000
1000
0001
1000
0000
0010
0000
,
0100
0000
0001
0000
1000
0100
1000
0000
0010
0000
0100
0001
0100
0000
1000
0000
,
0100
0000
0010
0000
1000
0001
0010
0000
0100
0000
0010
0001
1000
0000
0010
0000
,
0100
0000
0001
0000
1000
0100
0010
0000
0001
0000
0010
0100
1000
0000
0001
0000
,
0100
0000
1000
0000
0100
0010
1000
0000
0001
0000
0010
0100
1000
0000
0010
0000
,
0100
0000
1000
0000
0100
0001
1000
0000
0100
0000
0010
0001
0100
0000
0010
0000
,
1000
0000
0001
0000
0010
0100
1000
0000
0001
0000
0100
0010
1000
0000
0001
0000
,
1000
0000
0100
0001
0000
0100
0000
1000
,
1001
0000
0000
0000
;
