#TITLE:Touch;
#SUBTITLE:;
#ARTIST:Natasha Bedingfield;
#TITLETRANSLIT:;
#SUBTITLETRANSLIT:;
#ARTISTTRANSLIT:;
#GENRE:;
#CREDIT:;
#MUSIC:Touch.mp3;
#BANNER:;
#BACKGROUND:;
#CDTITLE:;
#SAMPLESTART:30.816;
#SAMPLELENGTH:15.000;
#SELECTABLE:YES;
#OFFSET:1.271;
#BPMS:0.000=124.000;
#STOPS:;
#BGCHANGES:1.170=Touch.avi=1.000=1=0=0,
99999=-nosongbg-=1.000=0=0=0 // don't automatically add -songbackground-
;
#FGCHANGES:;

//--------------- dance-single - forcednature ----------------
#NOTES:
     dance-single:
     forcednature:
     Beginner:
     1:
     0,0,0,0,0:
0000
0000
0000
0000
,
0000
0000
0000
0000
,
0000
0000
0000
0000
,
0000
0000
0000
0000
,
0000
0000
0000
0000
,
0000
0000
0000
0000
,
0000
0000
0000
0000
,
0000
0000
0000
0000
,
0000
0000
0000
0000
,
0001
0000
0000
0000
,
1000
0000
0000
0000
,
0010
0000
0000
0000
,
0100
0000
0000
0000
,
0001
0000
0000
0000
,
0010
0000
0000
0000
,
0100
0000
0000
0000
,
1000
0000
1000
0000
,
1001
0000
0000
0000
,
0110
0000
0000
0000
,
0001
0000
0001
0000
,
0001
0000
0000
0000
,
1001
0000
0000
0000
,
0110
0000
0000
0000
,
1000
0000
1000
0000
,
1000
0000
0000
0000
,
0110
0000
0001
0000
,
1000
0000
0000
0000
,
0100
0000
0010
0000
,
0001
0000
0000
0000
,
0110
0000
0000
0000
,
1001
0000
0000
0000
,
0000
0000
0000
1001
0000
0000
0000
0000
,
0010
0000
0000
0000
,
0100
0000
0000
0000
,
1000
0000
0000
0000
,
0001
0000
0000
0000
,
0100
0000
0000
0000
,
0010
0000
0010
0000
,
1000
0000
1000
0000
,
0001
0000
0001
0000
,
0010
0000
0010
0000
,
0100
0000
0000
0000
,
1000
0000
0000
0000
,
0001
0000
0000
0000
,
0100
0000
0000
0000
,
0010
0010
0010
0000
,
1000
1000
1000
0000
,
0100
0000
0010
0000
,
0002
0000
0003
0000
,
1001
0000
0000
0000
,
0110
0000
0000
0000
,
1000
0000
1000
0000
,
1000
0000
0000
0000
,
1001
0000
0000
0000
,
0110
0000
0000
0000
,
0001
0000
0001
0000
,
0001
0000
0000
0000
,
0110
0000
1000
0000
,
0001
0000
0000
0000
,
0100
0000
0010
0000
,
1000
0000
0000
0000
,
0110
0000
0000
0000
,
1001
0000
0000
0000
,
0000
0000
0000
1001
0000
0000
0000
0000
,
0100
0000
0010
0010
,
0010
0000
0000
0000
;

//--------------- dance-single - forcednature ----------------
#NOTES:
     dance-single:
     forcednature:
     Easy:
     5:
     0,0,0,0,0:
0000
0000
0000
0000
,
0000
0000
0000
0000
,
0000
0000
0000
0000
,
0000
0000
0000
0000
,
0000
0000
0000
0000
,
0000
0000
0000
0000
,
0000
0000
0000
0000
,
0000
0000
0000
0000
,
0000
0000
0000
0000
,
1000
1000
1000
0000
,
0001
0001
0001
0000
,
0100
0100
0100
0000
,
0010
0010
0010
0000
,
2000
0000
3100
0000
,
0002
0000
0103
0000
,
0020
0100
0100
0100
,
0130
0000
0000
0010
,
1001
0001
0100
0000
,
1001
1000
0100
0000
,
0010
0010
0010
0010
,
0100
1000
0001
0000
,
0110
1000
0001
0000
,
0110
0001
1000
0000
,
0010
0010
0010
0010
,
0100
0001
1000
0000
,
1001
0001
0010
0100
,
1000
0010
0100
0000
,
0001
0010
0001
0100
,
0010
1000
0100
0000
,
0110
0010
0001
0000
,
0110
0010
1000
0001
,
0000
0000
0000
2002
0000
3003
0000
0000
,
1000
1000
0001
0000
,
0100
0001
0100
0000
,
0010
1000
0010
0000
,
1000
0100
0100
0100
,
0010
0001
0010
0000
,
0100
1000
0001
0000
,
0100
0001
1000
0000
,
0100
0010
0001
0000
,
0100
0010
1000
0001
,
1000
0100
1000
0000
,
0001
0100
0001
0000
,
0010
0100
0010
0000
,
0100
0100
0100
0000
,
1000
1000
1001
0000
,
0001
0001
1001
0000
,
0100
0010
0100
0010
,
0200
0000
0300
0010
,
1001
1000
0100
0000
,
0010
0001
0100
0000
,
0010
1000
0010
1000
,
0100
0010
0001
0000
,
1000
0010
1000
0000
,
0001
0010
0100
0000
,
1000
0001
1000
0001
,
0100
0001
1000
0010
,
1001
1000
0100
0010
,
0001
0100
0010
0000
,
1001
1000
0010
0100
,
0001
0010
0100
0000
,
0110
0100
1000
0000
,
0110
0100
0001
0010
,
0000
0000
0000
2002
0000
3003
0000
0000
,
0001
0000
0100
0000
0010
0000
1000
1000
,
1000
0000
0000
0000
;

//--------------- dance-single - forcednature ----------------
#NOTES:
     dance-single:
     forcednature:
     Medium:
     7:
     0,0,0,0,0:
0000
0000
0000
0000
,
0000
0000
0000
0000
,
0000
0000
0000
0000
,
0000
0000
0000
0000
,
0000
0000
0000
0000
,
0000
0000
0000
0000
,
0000
0000
0000
0000
,
0000
0000
0000
0000
,
0000
0000
0000
0000
,
0002
0000
0000
0000
,
0203
0000
0000
0000
,
0320
0000
0000
0000
,
2030
0000
0000
0000
,
3200
0010
0010
0000
,
0320
0001
0001
0000
,
0032
1000
1000
1000
,
2000
0000
0000
0000
3003
0001
1000
0001
,
1000
0000
0010
0000
0100
0001
0100
0001
,
0100
0000
0010
0000
1000
0100
0010
0100
,
0000
0110
0000
0110
0000
0110
0000
0000
,
1000
0000
0001
0000
1000
0010
1000
0010
,
1000
0000
0100
0000
0010
0001
0010
0001
,
0010
0000
0100
0000
1000
0001
1000
0001
,
0000
1001
0000
1001
0000
1001
0000
0000
,
0001
0000
0100
0000
0010
1000
0100
0000
,
0110
0000
0100
0000
1000
0001
0100
0000
,
0010
0000
1000
0000
0001
0010
0100
0000
,
0110
0000
0010
0000
0001
1000
0010
0000
,
0110
0000
0100
0000
0001
1000
0001
1000
,
0001
0000
0010
0000
0100
1000
0100
1000
,
0100
0000
0010
0000
0001
0100
0001
0000
,
0000
0000
0000
2002
0000
3003
0000
0000
,
1000
0000
0100
0000
0010
0001
0100
0000
,
0010
0000
0010
0000
1000
0001
1000
0000
,
0100
0000
0100
0000
0010
0001
0010
0000
,
0100
0000
1000
0000
0001
0001
0001
0000
,
0100
0000
0010
0000
1000
1000
1000
0000
,
0100
0100
0100
0010
,
0001
0001
0001
1000
,
0010
0100
0010
0000
1001
0000
0010
0000
,
0100
0010
0100
0000
0010
0010
0000
0000
,
1001
0000
1000
0000
0010
0000
0100
0001
,
0000
0001
0000
0000
0001
0000
0000
0000
2002
0000
0000
0000
3003
0000
0000
0000
,
1000
0000
0100
0000
0010
0100
1000
0000
,
0010
0010
0110
0001
,
1100
1100
1100
0010
,
0101
0101
0202
0303
,
1000
0000
0001
0000
0010
0100
0010
0000
,
2002
0000
0000
0000
3003
0001
0100
0001
,
0100
0000
0010
0000
1000
0100
1000
0100
,
1000
0000
0010
0000
1000
0001
1000
0001
,
0000
1001
0000
1001
0000
1001
0000
0000
,
0001
0000
0100
0000
0010
1000
0010
1000
,
0010
0000
0100
0000
0001
0010
0001
0010
,
0001
0000
1000
0000
0100
0010
0100
0010
,
0000
0110
0000
0110
0000
0110
0000
0000
,
1000
0000
0001
0000
0100
0001
0100
0000
,
0110
0000
0010
0000
1000
0100
0010
0000
,
0100
0000
1000
0000
0001
0100
0010
0000
,
1001
0000
1000
0000
0100
0010
0001
0000
,
1001
0000
0001
0000
1000
0010
1000
0010
,
1000
0000
0100
0000
0010
0001
0010
0001
,
0010
0000
0100
0000
1000
0001
1000
0000
,
0000
0000
0000
2002
0000
3003
0000
0000
,
0001
0000
0100
0000
0010
1000
0001
0001
,
0010
0000
0000
0000
;

//--------------- dance-single - forcednature ----------------
#NOTES:
     dance-single:
     forcednature:
     Hard:
     10:
     0,0,0,0,0:
0000
0000
0000
0000
,
0000
0000
0000
0000
,
0000
0000
0000
0000
,
0000
0000
0000
0000
,
0000
0000
0000
0000
,
0000
0000
0000
0000
,
0000
0000
0000
0000
,
0000
0000
0000
0000
,
0000
0000
0000
0000
,
0001
0000
0000
0001
0000
0000
0001
0000
0000
0001
0000
0000
1000
0000
0001
0000
,
1000
0000
0000
1000
0000
0000
1000
0000
0000
1000
0000
0000
0100
0000
1000
0000
,
0100
0000
0000
0100
0000
0000
0100
0000
0000
0100
0000
0000
0010
0000
0001
0000
,
0010
0000
0000
0010
0000
0000
0010
0000
0000
0010
0000
0000
0001
0000
0100
0000
,
0001
0000
0000
0001
0000
0000
0001
0000
0000
0001
0000
0000
1000
0000
0100
0000
,
1000
0000
0000
1000
0000
0000
1000
0000
0000
1000
0000
0000
0001
0000
0010
0000
,
0001
0000
0000
0001
0000
0000
0001
0000
0000
0001
0000
0000
0100
0000
0001
0000
,
0100
0000
0010
0000
1000
0100
0010
0001
,
0011
0000
1100
0000
1000
0010
0100
0001
,
0101
0000
1100
0000
0001
1000
0100
0001
,
0100
1000
0100
0001
0100
1000
0001
0000
,
0200
0000
0320
0000
1030
0100
0010
0001
,
0101
0000
1010
0000
0001
1000
0100
0010
,
0110
0000
1001
0000
1000
0010
0100
0001
,
0100
1000
0100
0001
0100
1000
0100
0000
,
0020
0000
2030
0000
3100
0010
0001
1000
,
0001
0100
1000
0100
0010
1000
0001
1000
,
0100
0001
0100
0010
0000
0001
1000
1010
,
0000
0001
0010
0011
0000
1000
0010
0001
,
0010
0100
0001
1001
0000
1000
0100
0020
,
0001
0000
0130
0010
0001
0001
0100
0020
,
1000
0000
0130
0010
1000
1000
0200
0000
,
0300
0000
0000
2002
0000
3003
0000
0000
,
0001
0000
0000
0001
0100
0000
0100
0000
0010
0000
1000
0000
0100
0000
0010
0000
,
0001
0001
0100
0100
0010
1000
0001
1000
,
0100
0010
0100
1000
0010
0100
0001
0010
,
0100
0000
0000
0000
1000
0000
0010
0000
0100
0000
0000
0100
0000
0100
0010
0000
,
1000
1000
1010
0000
0001
0100
0001
0010
,
0100
0001
0100
1000
0100
0001
0100
0010
,
0001
1000
0001
0100
0001
0010
0100
1000
,
0010
1000
0100
1000
0010
0000
0100
0001
,
0010
0100
0010
0001
0100
0010
0000
1000
,
0001
0010
0001
0100
0001
1000
0010
1000
,
0000
0100
0000
0000
0010
0000
0001
0000
2002
0000
0000
0000
3003
0000
1000
0000
,
0010
1000
0001
0100
0001
0010
0100
0010
,
1000
0010
0001
1000
0001
0000
0100
0010
,
1020
0000
0001
0000
1030
0000
0001
0010
,
0021
1000
0002
0033
,
1000
0001
0100
0010
1010
0000
0001
1000
,
0200
0000
0320
0000
0031
0100
0010
1000
,
1010
0000
0101
0000
0001
1000
0100
1000
,
1010
0000
1100
0000
0001
0010
0001
0100
,
0010
0001
0010
1000
0010
0100
0001
0000
,
0020
0000
0230
0000
1300
0001
0100
0010
,
1010
0000
0101
0000
1000
0100
0010
0001
,
0011
0000
1100
0000
0001
0100
0001
0010
,
1000
0010
0001
0010
1000
0010
0100
0000
,
2000
0000
3002
0000
0103
0010
1000
0001
,
1001
1000
0010
0100
0010
1000
0100
0001
,
0100
0010
0001
0100
0000
0010
1000
1100
,
0000
0010
0001
0101
0000
1000
0100
0001
,
0100
0010
0001
1001
0000
0001
0100
0020
,
1000
0000
0130
0010
1000
1000
0100
0020
,
0001
0000
0130
0010
0001
0001
0200
0000
,
0300
0000
0000
2002
0000
3003
0000
0000
,
1000
0000
0000
0010
0100
0000
0100
0000
0001
0000
0010
0000
0100
0000
0100
0000
,
1001
0000
0000
0000
;
