#TITLE:Tonight Tonight (Goldstein Remix);
#SUBTITLE:;
#ARTIST:Hot Chelle Rae;
#TITLETRANSLIT:;
#SUBTITLETRANSLIT:;
#ARTISTTRANSLIT:;
#GENRE:;
#CREDIT:;
#MUSIC:Tonight Tonight (Goldstein Remix).mp3;
#BANNER:;
#BACKGROUND:;
#CDTITLE:;
#SAMPLESTART:32.942;
#SAMPLELENGTH:16.271;
#SELECTABLE:YES;
#OFFSET:-0.400;
#BPMS:0.000=118.000;
#STOPS:;
#BGCHANGES:;
#FGCHANGES:;

//--------------- dance-single - eataninja ----------------
#NOTES:
     dance-single:
     eataninja:
     Beginner:
     3:
     0,0,0,0,0:
0000
0000
0000
0000
,
0000
0000
0000
0000
,
0000
0000
0000
0000
,
0000
0000
0000
0000
,
1000
1000
0000
0000
,
0100
0100
0000
0000
,
0001
0001
0000
0000
,
0010
0010
0000
0000
,
1001
0000
0000
0000
,
0010
0010
0010
0000
,
0110
0000
0000
0000
,
0001
0001
0001
0000
,
1000
1000
0000
0000
,
0001
0001
0000
0000
,
0100
0000
0010
0000
,
0100
0100
0000
0000
,
1001
0000
1001
0000
,
0010
0010
0100
0000
,
1001
0000
1001
0000
,
0100
0100
0010
0000
,
0001
0000
1000
0000
,
0010
0000
0100
0000
,
1001
0000
1001
0000
,
0110
0000
0110
0000
,
0100
0000
0001
0000
,
0010
0000
0100
0000
,
1000
0000
0001
0000
,
0100
0100
0100
0000
,
0010
0010
0000
0000
,
0100
0100
0000
0000
,
0001
0000
1000
0000
,
0001
0001
0000
0000
,
1001
0000
0110
0000
,
0100
0100
0010
0000
,
0110
0000
1001
0000
,
0001
0001
1000
0000
,
0001
0000
0010
0000
,
0100
0000
1000
0000
,
1001
0000
0110
0000
,
0110
0000
1001
0000
,
0001
0001
0000
0000
,
0100
0100
0000
0000
,
1000
1000
0000
0000
,
0010
0010
0000
0000
,
0001
0000
0000
0000
,
0010
0000
0000
0000
,
1000
0000
0000
0000
,
0010
0000
0000
0000
,
0100
0100
0100
0000
,
0100
0100
1000
0000
,
0010
0010
0010
0000
,
0010
0100
0010
0000
,
1000
0000
1001
0000
,
0001
0000
0110
0000
,
0001
0000
1001
0000
,
1000
0000
0010
0010
;

//--------------- dance-single - eataninja ----------------
#NOTES:
     dance-single:
     eataninja:
     Easy:
     6:
     0,0,0,0,0:
0000
0000
0000
0000
,
0000
0000
0000
0000
,
0000
0000
0000
0000
,
0000
0000
0000
0000
,
1000
0100
1000
0000
,
0100
0001
0100
0000
,
1000
0010
1000
0000
,
0010
0001
0010
0000
,
0100
0010
0110
0000
,
0100
0001
0100
0100
,
0010
1000
0100
0000
,
0010
1000
0010
0001
,
1000
0010
1000
0010
,
0100
0001
0100
0001
,
1000
0100
0001
0100
,
1000
0010
0101
0000
,
2001
3100
2001
3100
,
0010
0001
0100
0100
,
1002
0103
1002
0103
,
0010
0000
0010
0000
1000
0001
1000
0000
,
0100
0010
0100
0000
0010
0000
0000
0000
,
0001
1000
0001
0000
0100
0000
0000
0000
,
1002
0013
1002
0013
,
2001
3010
2001
3010
,
1000
0100
0001
0100
,
0001
1000
0010
0001
,
1000
0010
0001
0010
,
0001
1000
0100
0110
,
0001
1000
0001
0000
,
0010
0100
1000
0000
,
1000
0001
1000
1000
,
0010
0100
0000
0101
,
2001
3100
2001
3010
,
0100
0100
0001
1000
,
1002
0013
1002
0103
,
0010
0000
1000
0000
0001
1000
0001
0000
,
0010
0100
1000
0000
0001
0000
0000
0000
,
0001
1000
0010
0000
0100
0000
0000
0000
,
1002
0103
0102
1003
,
2001
3100
2010
3001
,
1000
0100
0001
0000
,
0010
1000
0100
0000
,
1000
0010
0001
0000
,
0100
1000
0010
0000
,
1000
0001
1000
0000
0100
0000
0010
0000
,
0001
0000
0100
0000
0010
0010
0010
0000
,
1000
0001
1000
0000
0010
0000
0100
0000
,
0001
0010
1000
0010
,
0100
0100
1001
1001
,
0100
0000
0100
0000
0001
0001
0001
0000
,
0010
0010
1001
1001
,
0001
1000
0100
0011
,
1000
0001
0101
0110
,
1000
0001
0011
0110
,
1000
1000
1000
0000
0001
0001
0001
0000
,
1000
0000
0010
0000
0001
0010
1000
0000
;

//--------------- dance-single - eataninja ----------------
#NOTES:
     dance-single:
     eataninja:
     Medium:
     10:
     0,0,0,0,0:
0000
0000
0000
0000
,
0000
0000
0000
0000
,
0000
0000
0000
0000
,
0000
0000
0000
0000
,
1000
0000
0000
0000
0010
0000
0000
0100
0000
0000
0000
0000
0000
0000
0000
0000
,
0001
0000
0000
0000
1000
0000
0000
0100
0000
0000
0000
0000
0000
0000
0000
0000
,
1000
0000
0000
0000
0100
0000
0000
0010
0000
0000
0000
0000
0000
0000
0000
0000
,
0001
0000
0000
0000
1000
0000
0000
0010
0000
0000
0000
0000
0000
0000
0000
0000
,
0100
0000
0000
0000
0100
0000
0000
0000
0001
0000
0000
1000
0000
0000
0001
0000
,
0010
0000
0000
0000
0010
0000
0000
0000
0100
0000
0000
0100
0000
0000
0100
0000
,
0010
0000
0000
0000
0010
0000
0000
0000
0001
0000
0000
1000
0000
0000
0001
0000
,
0100
0000
0000
0000
0100
0000
0000
0000
0010
0000
0000
0010
0000
0000
0010
0000
,
1000
0000
0001
0000
1000
0000
0000
0000
0100
0000
0000
0010
0000
0000
0001
0000
,
1000
0000
0010
0000
1000
0000
0000
0000
0001
0000
0000
0100
0000
0000
0100
0000
,
0010
0000
1000
0000
0001
0000
1000
0000
0100
0000
0000
0010
0000
0000
0100
0000
,
1000
0001
0100
0100
1000
0000
0000
0000
,
0110
0100
0001
0000
0110
0100
0001
0000
,
1000
0001
1000
1000
0001
0010
0100
0000
,
0110
0100
1000
0000
0110
0100
1000
0000
,
0001
0001
1000
0010
0100
0100
0001
0000
,
1000
0100
0001
0100
0010
0001
1000
0000
,
0001
0100
1000
0100
0010
0100
0001
0000
,
1001
1000
0100
0000
1001
1000
0100
0000
,
1100
1000
0001
0000
0101
0001
1000
0000
,
0001
0010
0100
1000
0001
0010
0001
1000
,
0010
0100
0010
0100
0001
1000
1000
1000
,
0010
0100
0001
1000
0001
0010
0100
1000
,
0001
0100
0001
0100
1000
0100
0001
0000
,
0100
0000
0000
0000
0100
0000
0000
0000
0010
0000
0000
1000
0000
0000
1000
0000
,
0100
0000
0000
0000
0100
0000
0000
0000
0010
0000
0000
0001
0000
0000
0001
0000
,
1000
0000
0010
0000
1000
0000
0000
0000
0001
0000
0000
0001
0000
0000
1000
0000
,
0100
0010
0001
0000
0000
0000
1100
0000
,
1001
0001
0100
0000
1001
0001
0100
0000
,
0010
0100
0010
0010
1000
0001
0010
0000
,
1001
1000
0100
0000
1001
1000
0100
0000
,
0010
0010
0001
0001
1000
0010
0100
0000
,
0001
0100
1000
0100
0001
0010
0100
0000
,
0001
0100
0010
0100
1000
0001
0100
0000
,
0110
0100
0001
0000
0110
0010
1000
0000
,
0110
1000
0001
0000
0110
0001
1000
0000
,
1000
0000
0000
0000
0100
0000
0000
0010
0000
0000
0000
0000
0000
0000
0000
0000
,
1000
0000
0000
0000
0010
0000
0000
0001
0000
0000
0000
0000
0000
0000
0000
0000
,
0001
0000
0000
0000
0100
0000
0000
0010
0000
0000
0000
0000
0000
0000
0000
0000
,
0001
0000
0000
0000
0010
0000
0000
1000
0000
0000
0000
0000
0000
0000
0000
0000
,
0001
0000
1000
0000
0001
0000
0000
0010
0000
0000
0100
0000
0100
0000
0000
1000
,
0000
0000
0010
0000
0010
0000
0000
0100
0000
0000
0001
0000
1000
0000
0000
0000
,
1000
0000
0100
0000
0001
0000
0000
0100
0000
0000
0010
0000
0001
0000
0000
0100
,
0000
0000
0010
0000
0010
0000
0000
0001
0000
0000
0010
0000
1000
0000
0000
0000
,
1010
0000
0000
0000
1010
0000
0000
0000
0001
0000
0000
0010
0000
0000
0100
0000
,
1100
0000
0000
0000
1100
0000
0000
0000
0001
0000
0000
1000
0000
0000
0001
0000
,
0101
0000
0000
0000
0101
0000
0000
0000
1000
0000
0000
0010
0000
0000
0100
0000
,
1000
0010
0001
0101
,
1000
0000
0000
0000
1000
0000
0000
0000
0001
0000
0000
1000
0000
0000
0001
0000
,
0100
0000
0000
0000
0100
0000
0000
0000
0010
0000
0000
0010
0000
0000
0010
0000
,
1000
0001
1000
0001
0010
0100
0010
0100
,
1000
0010
0100
0100
1000
0100
0002
0023
,
0030
0000
0000
0000
;

//--------------- dance-single - eataninja ----------------
#NOTES:
     dance-single:
     eataninja:
     Hard:
     13:
     0,0,0,0,0:
0000
0000
0000
0000
,
0000
0000
0000
0000
,
0000
0000
0000
0000
,
0000
0000
0000
0000
,
1200
0000
0000
0000
0001
0000
0000
0310
0000
0000
0000
0000
0000
0000
0000
0000
,
0012
0000
0000
0000
1000
0000
0000
0103
0000
0000
0000
0000
0000
0000
0000
0000
,
0201
0000
0000
0000
1000
0000
0000
0310
0000
0000
0000
0000
0000
0000
0000
0000
,
2010
0000
0000
0000
0001
0000
0000
3100
0000
0000
0000
0000
0000
0000
0000
0000
,
1000
0100
1000
0100
0010
0000
0010
0000
0100
0000
0000
0000
0000
0000
0000
0000
,
1000
0001
1000
0001
0100
0000
0010
0000
1000
0001
1000
0000
0100
0010
0001
0000
,
0100
0000
1000
0000
0100
0010
0100
0000
0001
0000
0000
0000
0000
0000
1000
0000
,
0100
0010
0100
0000
1000
0000
0001
0000
0100
0010
1000
0000
1000
0001
0000
0000
,
1000
0100
1000
0100
0010
0001
1000
0001
,
0100
0000
0001
0000
0100
0000
0001
0000
1000
0000
0010
0100
0001
0000
1000
0000
,
0001
0010
0001
0000
1000
0100
1000
0000
0001
1000
0001
0000
0100
0010
0100
0000
,
0001
0100
0001
0100
0010
1000
0001
0010
0200
0300
0000
0000
0000
0000
0000
0000
,
1000
0000
0000
1000
0100
0000
0000
0100
0001
0000
0000
0001
0100
0000
0000
0100
,
0010
0000
0010
0000
0001
0000
1000
0000
0001
0100
0001
0100
0000
0000
0100
0010
,
1000
0000
0000
1000
0001
0000
0000
0001
0010
0000
0000
0010
0100
0000
0000
0100
,
1000
0000
1000
0000
0001
0000
0001
0000
0100
0001
0100
0001
0000
0000
0000
0001
,
1000
0000
0100
0000
0010
0000
0001
0000
0100
0000
1000
0000
0100
0000
0010
1000
,
0001
0010
0100
0001
0100
1000
0001
0100
,
0010
0000
0000
0010
1000
0000
0000
1000
0001
0000
0000
0001
0010
0000
0000
0010
,
0100
0000
0000
0100
1000
0000
0000
1000
0001
0000
0000
0001
0100
0000
0000
0000
,
0010
1000
0010
1000
0001
0000
0010
0000
0100
0000
1000
0000
0001
0000
1000
0000
,
0010
0100
0010
0100
0001
0000
1000
0000
0001
0010
0001
0000
0010
0100
1000
0000
,
0001
0100
0010
0100
0001
0000
1000
0000
0001
0000
0010
0000
0100
0000
1000
0000
,
0001
0100
1000
0100
0001
0010
1100
0000
,
1000
0000
0000
1000
0010
0000
0000
0010
0100
0000
0000
1000
0100
0000
0000
0000
,
0001
0000
0000
0001
0010
0000
0000
0010
0100
0000
1000
0001
1000
0000
0010
0000
,
0100
0000
0000
0100
0001
0000
0000
0001
1000
0000
0000
0100
0001
0000
0000
0000
,
0100
0010
0100
0010
0001
1000
0010
0100
0001
0000
0000
0000
0101
0000
0000
0000
,
1000
0000
0010
0000
0001
0000
0010
0100
0010
0000
1000
0000
0001
0000
0010
0100
,
1000
0000
0001
1000
0001
0000
0001
0000
0100
0010
0100
0001
0000
0000
1000
0001
,
1000
0000
0100
0000
0001
0000
0100
0010
0001
0000
1000
0000
0010
0000
0100
0010
,
0100
0000
0001
1000
0001
0000
0010
0000
0100
1000
0100
1000
0000
0000
0000
1000
,
0001
0001
0100
1000
0001
0010
1000
0001
,
1000
0000
0100
0000
0001
0000
1000
0000
0010
0000
0100
0000
1000
0000
0001
1000
,
0001
0000
0100
0000
0010
0000
1000
0001
0010
0000
0100
0000
1000
0000
0001
0100
,
0001
0000
0100
0000
1000
0000
0100
0010
0100
0000
0001
0000
1000
0000
0000
0000
,
1200
0000
0000
0000
0010
0000
0000
1300
0000
0000
0000
0000
0000
0000
0000
0000
,
1020
0000
0000
0000
0001
0000
0000
0130
0000
0000
0000
0000
0000
0000
0000
0000
,
0201
0000
0000
0000
0010
0000
0000
0301
0000
0000
0000
0000
0000
0000
0000
0000
,
0021
0000
0000
0000
1000
0000
0000
0130
0000
0000
0000
0000
0000
0000
0000
0000
,
0100
0000
0010
0000
0001
0000
1000
0010
0000
0010
0100
0000
0001
0000
1000
0100
,
0000
0100
0010
0000
0001
0000
0100
1000
0000
0100
0010
0000
1000
0000
0000
0000
,
0001
0000
0010
0000
0100
0000
1000
0001
0000
0001
1000
0000
0010
0000
0100
1000
,
0000
1000
0100
0000
0001
0000
0010
0100
0000
0001
0100
0000
1000
0000
0000
0000
,
1100
0000
0000
0000
1001
0000
0000
0000
0001
0100
0000
0100
0010
0000
1000
0000
,
1010
0000
0000
0000
1001
0000
0000
0000
0001
0010
0000
0010
0100
0000
0100
0000
,
1001
0000
0000
0000
0101
0000
0000
0000
0100
0010
0000
0010
1000
0000
0001
0000
,
1001
0011
1100
0101
,
1000
0001
0000
0000
1000
0001
0000
0000
0010
0100
0000
0100
1000
0000
1000
0000
,
0001
1000
0000
0000
0001
1000
0000
0000
0010
0100
0000
0100
0001
0000
0001
0000
,
1000
0010
1000
0010
1000
0001
1000
0001
,
0100
0010
0100
0000
0001
1000
0001
0000
0010
0000
0010
0000
0200
0000
2300
0000
,
3000
0000
0000
0000
;
