#TITLE:Tizona d'El Cid;
#SUBTITLE:;
#ARTIST:TOMOSUKE;
#TITLETRANSLIT:;
#SUBTITLETRANSLIT:;
#ARTISTTRANSLIT:;
#GENRE:MPB;
#CREDIT:;
#MUSIC:Tizona d'El Cid.ogg;
#BANNER:;
#BACKGROUND:;
#CDTITLE:;
#SAMPLESTART:0.357;
#SAMPLELENGTH:15.000;
#SELECTABLE:YES;
#OFFSET:2.303;
#BPMS:0.000=132.500;
#STOPS:;
#DISPLAYBPM:132.000;
#BGCHANGES:;
#FGCHANGES:;

//--------------- dance-single - aboutblank ----------------
#NOTES:
     dance-single:
     aboutblank:
     Beginner:
     3:
     0,0,0,0,0:
0000
0000
0000
0000
,
0000
0000
0000
0000
,
0000
0000
0000
0000
,
0000
0000
0000
0000
,
0000
0000
0000
0000
,
1001
0000
0000
0000
,
1000
0000
0000
0000
,
0001
0000
0000
0000
,
0100
0000
0000
0000
,
0010
0000
0010
0000
,
1000
0000
0000
0000
,
0100
0000
0100
0000
,
0001
0000
0000
0000
,
1001
0000
0000
0000
,
1001
0000
0000
0000
,
0110
0000
0000
0000
,
0110
0000
0000
0000
,
1000
0000
1000
0000
,
0020
0000
0000
0000
,
0031
0000
0001
0000
,
0001
0000
0000
0000
,
1000
0000
1000
0000
,
1000
0000
0000
0000
,
0010
0000
0100
0000
,
0001
0000
0000
0000
,
0010
0000
0100
0000
,
1000
0000
0000
0000
,
0001
0000
0001
0000
,
1000
0000
1000
0000
,
0010
0000
0100
0000
,
0001
0000
0000
0000
,
0110
0000
0000
0000
,
1001
0000
0000
0000
,
0110
0000
0000
0000
,
1001
0000
0000
0000
,
0001
0001
0001
0000
,
1000
1000
1000
0000
,
0000
0220
0000
0000
0000
0000
0330
0000
,
0001
1000
0001
0000
,
0000
0220
0000
0000
0000
0000
0330
0000
,
1000
0001
2000
0000
,
0000
0000
0000
0000
0000
0000
3000
0020
,
0000
0000
0000
0000
0000
0030
0000
0200
,
0000
0000
0000
0000
0000
0300
0000
0002
,
0000
0000
0000
0000
0000
0003
0000
2000
,
0000
0000
0000
0000
0000
3000
0000
0200
,
0000
0000
0000
0000
0000
0300
0000
0220
,
0000
0000
0000
0000
0000
0330
0000
2002
,
0000
0000
0000
0000
0000
3003
0000
0001
,
0000
0000
0000
1000
0000
0000
0000
0200
,
0000
0000
0000
0000
0000
0300
0000
1001
,
0000
0000
0000
0000
0000
0000
0000
0020
,
0000
0000
0000
0000
0000
0030
0000
1001
,
0000
0000
0000
0000
0000
0000
0000
0110
,
0000
0000
0000
0000
,
0000
0000
0000
0000
,
0000
0000
0000
1000
0000
0000
0000
1000
,
0000
0000
0000
0010
0000
0000
0000
0000
,
0000
0000
0000
0001
0000
0000
0000
0001
,
0000
0000
0000
0100
0000
0000
0000
0000
,
0000
1000
0000
0001
0000
0000
0000
1000
,
0000
0000
0000
0200
0000
0000
0000
0300
,
0000
0000
0000
0001
0000
0000
0000
1001
,
0000
0000
0000
1000
0000
0000
0000
1001
,
0000
0000
0000
0100
0000
0000
0000
0110
,
0000
2002
0000
0000
0000
0000
0000
0000
0000
0000
0000
0000
0000
0000
0000
0000
,
0000
0000
0000
0000
3003
0000
0000
0220
0000
0000
0000
0000
0000
0000
0000
0000
,
0000
0330
0000
0000
;

//--------------- dance-single - forcednature ----------------
#NOTES:
     dance-single:
     forcednature:
     Easy:
     4:
     0,0,0,0,0:
0000
0000
0000
0000
,
0000
0000
0000
0000
,
0000
0000
0000
0000
,
0000
0000
0100
0000
,
0100
0000
0010
0000
,
1001
0000
0000
0000
,
0001
0000
0000
0000
,
0100
0000
0000
0000
,
0010
0000
0000
0000
,
1000
0000
0000
0000
,
0100
0000
0000
0000
,
0010
0000
0000
0000
,
0001
0000
0000
0000
,
0100
0100
0000
0000
,
0010
0010
0000
0000
,
1000
1000
0000
0000
,
0001
0001
0000
0000
,
0010
0010
0000
0000
,
0100
0000
0100
0000
,
1001
0000
0000
0000
,
0001
0000
0000
0000
,
1000
0000
0000
0000
,
0010
0000
0000
0000
,
1000
0000
0100
0000
,
1000
0000
0000
0000
,
0001
0000
0100
0000
,
0001
0000
0000
0000
,
1001
0000
0010
0000
,
0100
0000
0000
0000
,
0010
0000
0100
0000
,
0010
0000
0000
0000
,
1001
0000
0000
0000
,
0100
0000
0000
0000
,
1001
0000
0000
0000
,
0010
0000
0000
0000
,
1001
0000
0000
0000
,
0100
0000
0000
0000
,
0000
1000
0000
0000
0001
0000
0000
0000
,
1000
0000
0000
0000
0000
0000
0000
0001
0000
0000
0000
0000
0000
1000
0000
0000
,
0000
0100
0000
0000
0010
0000
0000
0000
,
0100
0000
0000
0000
0000
0000
0000
0010
0000
0000
0000
0000
0000
0100
0000
0000
,
0000
0000
0000
0000
0000
1000
0000
0001
,
0000
0000
0000
0000
0000
0100
0000
0010
,
0000
0000
0000
0000
0000
1000
0000
0001
,
0000
0000
0000
0000
0000
0010
0000
0100
,
0000
0000
0000
0000
0000
1000
0000
0010
,
0000
0000
0000
0000
0000
0001
0000
0010
,
0000
0000
0000
0000
0000
1000
0000
0100
,
0000
0000
0000
0000
0000
0001
0000
0100
,
0000
0000
0000
0000
,
0010
0000
0000
0000
0000
0000
0000
0000
0000
0000
0000
0000
0000
0000
0000
0100
,
0000
0000
0100
0000
0000
0100
0000
0000
0100
0000
0000
0000
0000
0000
0000
0000
,
0010
0000
0000
0000
0000
0000
0000
0000
0000
0000
0000
0000
0000
0000
0000
0100
,
0000
0000
0100
0000
0000
0100
0000
0000
0100
0000
0000
0000
0000
0000
1000
0000
,
0000
0001
0000
0000
1000
0000
0000
0002
0000
0000
0000
0000
0000
0000
0000
0000
,
0000
0000
0003
0000
,
0000
0100
0000
0100
0000
0000
0000
0010
,
0000
0000
0000
1000
0000
0000
0000
0001
,
0000
0000
0000
0000
0000
0000
0000
0010
,
0000
0000
0000
0010
0000
0000
0000
0010
,
0000
0000
0000
0100
0000
0000
0000
0000
,
0000
0000
0000
1000
0000
0000
0000
0001
,
0000
0000
0000
0000
0000
0000
0000
1000
0000
0000
0000
0000
0000
0000
0001
0000
,
0000
0000
0000
0000
0000
0000
0000
0100
0000
0000
0000
0000
0000
0000
0010
0000
,
0000
0000
0000
0000
0000
0000
0000
0001
0000
0000
0000
0000
0000
0000
0000
0000
,
0000
2002
0000
0000
0000
0000
3003
0000
0000
0000
0000
0000
0000
0000
0000
0000
,
0000
0000
0000
0000
0000
0000
0000
0100
0000
0000
0010
0000
0000
0100
0000
0000
,
0010
0000
0000
2002
0000
0000
0000
0000
0000
0000
0000
0000
0000
0000
0000
0000
,
0000
0000
0000
0000
,
0000
3003
0000
0000
;

//--------------- dance-single - forcednature ----------------
#NOTES:
     dance-single:
     forcednature:
     Medium:
     9:
     0,0,0,0,0:
0000
0000
0000
0000
,
0000
0000
0000
0000
,
0000
0000
0000
0000
,
0000
0000
0000
0000
0000
0000
0000
0000
1000
0000
0000
0000
0001
0000
0000
0100
,
0000
0000
0000
0100
0000
0000
0000
0000
0000
0000
0000
0000
0010
0000
0000
0000
0000
0000
0000
0000
0000
0000
0000
0000
0000
0000
0000
0000
1000
0000
0000
0000
0000
0000
0000
0000
0001
0000
0000
0000
0000
0000
0000
0000
0000
0000
0000
0000
,
1001
0000
0000
0002
0000
0000
0000
0003
0000
0000
0100
0000
0001
0000
0000
0000
,
1000
0000
0000
0100
0000
0000
0020
0000
0000
0000
0030
0000
0100
0000
1000
0000
,
0001
0000
0000
0200
0000
0000
0000
0300
0000
0000
0000
0000
0010
0000
1000
0000
,
0001
0000
0000
0000
0000
0000
0000
0000
0000
0020
0000
0000
0000
0000
0000
0000
0000
0000
0000
0000
0000
0030
0000
0000
0000
0000
0000
0000
0001
0000
0000
0000
0000
0000
0000
0000
1000
0000
0000
0000
0000
0000
0000
0000
0000
0000
0000
0000
,
0001
0000
0000
0100
0000
0000
0000
0010
0000
0000
0010
0000
1000
0000
0000
0000
,
0001
0000
0000
0010
0000
0000
0002
0000
0000
0000
0003
0000
0100
0000
0010
0000
,
1000
0000
0000
0200
0000
0000
0000
0300
0000
0000
0000
0000
1000
0000
0001
0000
,
1000
0000
0000
0000
0000
0000
0000
0000
0000
0020
0000
0000
0000
0000
0000
0000
0000
0000
0000
0000
0000
0030
0000
0000
0000
0000
0000
0000
0100
0000
0000
0000
0000
0000
0000
0000
0100
0000
0000
0000
0000
0000
0000
0000
0000
0000
0000
0000
,
0010
0000
0000
2002
0000
0000
0000
0000
0000
0000
0000
0000
3003
0000
0000
0000
,
1000
0000
0000
0002
0000
0000
0000
0000
0000
0000
0000
0000
0003
0000
0000
0000
,
0010
0000
0000
2002
0000
0000
0000
0000
0000
0000
0000
0000
3003
0000
0000
0000
,
0001
0000
0000
2000
0000
0000
0000
0000
0000
0000
0000
0000
3000
0000
0000
0000
,
1100
0000
0000
0202
0000
0000
0000
0000
0000
0000
0000
0000
0303
0000
0000
0000
,
1001
0000
0000
0000
1000
0000
0001
0000
0000
0000
0001
0000
1000
0000
0000
0000
0010
0000
0000
0000
0000
0100
0000
0000
,
0001
0010
0001
0100
,
0010
1000
0001
0000
,
1000
0100
0010
0100
,
1000
0001
0100
0000
,
1000
0010
1000
0001
,
0010
0000
0100
0100
0100
0000
0010
0010
,
0010
0000
0001
1000
,
0010
0000
1000
0001
,
1001
0000
1000
0010
,
0100
0000
0001
0001
0001
0000
1000
1000
,
1000
0100
0010
0100
,
1000
0001
0100
0000
,
0010
0000
0000
2002
0000
0000
0000
0000
0000
0000
0000
0000
3003
0000
0000
0000
,
1000
0000
0000
0002
0000
0000
0000
0000
0000
0000
0000
0000
0003
0000
0000
0000
,
0100
0000
0000
2002
0000
0000
0000
0000
0000
0000
0000
0000
3003
0000
0000
0000
,
0001
0000
0000
2000
0000
0000
0000
0000
0000
0000
0000
0000
3000
0000
0000
0000
,
0101
0000
0000
2200
0000
0000
0000
0000
0000
0000
0000
0000
3300
0000
0000
0000
,
0001
0000
0000
2000
0000
0000
0000
0000
0000
0000
0000
0000
3000
0000
0000
0000
,
0000
0000
0100
0000
0000
0010
0000
0000
0100
0000
0000
0010
0000
0000
0001
0000
,
1000
0000
0000
0010
0000
0010
0000
0010
0000
0000
0100
0000
0000
1001
0000
0000
,
0000
0000
0110
0000
0000
0001
0000
0000
1000
0000
0000
0010
0000
0000
0100
0000
,
0001
0000
0000
1000
0000
1000
0000
1000
0000
0000
0100
0000
0000
2002
0000
0000
,
0000
0000
0000
3003
0000
0001
0000
0100
,
0000
0010
0000
1000
0000
0001
1000
0002
,
0000
0000
0000
0000
0000
0013
0000
0100
,
0000
1000
0000
0010
0000
1000
0000
0002
,
0000
0000
0000
0000
0000
0013
0000
0200
,
0000
0000
0000
0000
0000
1300
0001
2000
,
0000
0000
0000
3000
0000
0010
0100
0020
,
0000
0000
0000
0030
0000
0100
0001
0200
,
0000
0000
0000
0300
0000
0000
0000
0000
,
0001
0000
0000
0000
0000
1000
0000
0000
0000
0001
0000
0000
0000
0000
0000
0100
,
0000
0000
0100
0000
0000
0010
0000
0000
2002
0000
0000
0000
3003
0000
0000
0000
,
0010
0000
0000
0000
0000
0100
0000
0000
0000
0010
0000
0000
0000
0000
0000
1000
,
0000
0000
0001
0000
0000
1000
0000
0000
2002
0000
0000
0000
3003
0000
0100
0000
,
0000
0010
0000
0000
0100
0000
0000
2002
0000
0000
0000
0000
0000
0000
0000
0000
,
0000
0000
3003
0000
,
0000
1000
0000
0001
0000
0000
0000
0100
,
0000
0010
0000
1000
0000
0001
0001
0001
,
0000
1000
1000
1000
0000
0100
0000
0010
,
0000
0100
0000
1000
0000
0000
0000
0010
,
0000
0100
0000
0001
0000
0000
0000
0010
,
0000
0100
0000
1000
0000
0010
0010
0010
,
0000
0000
0100
0000
0100
0000
0000
0001
0000
0000
1000
0000
0001
0000
1000
0000
,
0000
0002
0000
0000
0003
0000
0000
0100
0000
0000
0010
0000
0100
0000
0010
0000
,
0000
0200
0000
0000
0300
0000
0000
0001
0000
0000
1000
0000
0001
0000
0010
0000
,
0000
2002
0000
0000
0000
0000
3003
0000
0000
0000
0000
0000
0000
0000
0000
0000
,
0000
0000
0000
0000
0000
0000
0000
0100
0000
0000
0010
0000
0000
0100
0000
0000
,
0010
0000
0000
2002
0000
0000
0000
0000
0000
0000
0000
0000
0000
0000
0000
0000
,
0000
0000
0000
0000
,
0000
3003
0000
0000
;

//--------------- dance-single - forcednature ----------------
#NOTES:
     dance-single:
     forcednature:
     Hard:
     12:
     0,0,0,0,0:
0000
0000
0000
0000
,
0000
0000
0000
0000
,
0000
0000
0000
0000
,
0000
0000
0000
0000
0000
0000
0000
0000
1000
0100
0000
0000
0001
0100
0000
0010
,
0000
0000
0000
0010
0000
0000
0000
0000
0000
0000
0000
0000
0001
0000
0000
1000
0000
0000
0000
0000
0000
0000
0000
0000
0000
0000
0000
0000
0010
0000
0000
0000
0100
0000
0000
0000
0001
0000
0000
0000
1000
0000
0000
0000
0100
0000
0000
0000
,
0010
0000
0000
2002
0000
0000
0000
3003
0000
1000
0000
0010
0000
0100
0001
0100
,
0001
0000
0000
0010
0000
0000
0220
0000
0330
0000
1000
0000
0001
0000
1000
0010
,
1000
0000
0000
2002
0000
0000
0000
3003
0000
0000
0000
0000
0010
0000
0100
1000
,
0100
0000
0000
0000
0000
0000
0000
0000
0000
0220
0000
0000
0000
0000
0000
0000
0000
0000
0000
0000
0000
0330
0000
0000
0000
0000
0000
0000
0001
0000
0000
0000
0100
0000
0000
0000
0010
0000
0000
0000
1000
0000
0000
0000
0001
0000
0000
0000
,
1000
0000
0000
2200
0000
3300
0000
0010
0000
0001
0100
0010
0000
1000
0100
0010
,
0001
0000
0000
0100
0000
0000
2002
0000
3003
0000
1000
0000
0010
0000
1000
0001
,
1000
0000
0000
2200
0000
0000
0000
3300
0000
0000
0000
0000
0001
0000
0010
0001
,
0010
0000
0000
0000
0000
0000
0000
0000
0000
0220
0000
0000
0000
0000
0000
0000
0000
0000
0000
0000
0000
0330
0000
0000
0000
0000
0000
0000
1000
0000
0000
0000
0001
0000
0000
0000
0100
0000
0000
0000
0010
0000
0000
0000
1000
0000
0000
0000
,
0001
0000
0000
2002
0000
0000
0000
3003
0000
0001
0000
0100
0001
0000
0000
0000
,
1000
0000
0000
2020
0000
0000
0000
3030
0000
0001
0000
0001
0010
0000
0100
0000
,
1001
0000
0000
1001
0000
0000
0001
1000
0000
0010
0000
0100
0000
0001
0000
1000
,
0100
0000
0000
0010
0100
0010
0100
0000
0000
1000
0000
1000
0001
0000
0000
0000
,
1001
0000
0000
1001
0000
0000
0001
0100
0002
0000
0000
0000
1003
0000
0010
0000
,
1000
0000
0001
0000
1000
0000
0100
0000
0010
0000
0001
0000
0100
0000
0010
0000
0100
0000
0000
0000
0000
0001
0000
0000
,
1001
0000
0001
0000
0100
0001
0000
1000
0000
0010
0000
0010
2000
0000
0000
0000
,
3001
0000
0010
0000
0100
1000
0000
0001
0000
0100
0000
0100
0020
0000
0000
0000
,
1030
0000
0001
0000
1000
0010
0000
1000
0000
0100
0000
0100
0020
0000
0000
0000
,
0130
0000
1000
0000
0001
0100
0000
0010
0000
0000
1000
0000
0001
0010
0000
0002
,
0000
0000
0103
0010
2000
0000
3001
1000
,
0200
0000
0000
0000
0310
0001
0010
0001
0020
0000
0000
0000
0130
1000
0100
1000
,
0200
0000
0000
0000
1300
0000
0010
0000
1000
0000
0000
0001
0000
0000
0100
0000
,
0010
0000
0000
0000
0000
1000
0000
1000
0001
0000
0010
0000
0100
1000
0000
0001
,
0200
0000
0310
1000
0002
0000
0013
0100
,
2000
0000
0000
0000
3001
0100
0001
0100
0002
0000
0000
0000
1003
0010
1000
0010
,
2000
0000
0000
0000
3001
0000
1000
0000
0100
0000
0000
0010
0000
0000
0001
0000
,
1000
0000
0010
0000
0000
0010
0000
0000
0100
0000
0001
0000
1000
0000
0001
0000
,
0010
0000
0000
0110
0000
0000
0001
1000
0000
0001
0000
0100
0000
0010
0000
1000
,
0001
0000
0000
0001
1000
0000
0010
1000
0000
0001
0000
0000
0010
0000
0100
0000
,
1000
0000
0000
1001
0000
0000
1000
0001
0000
0100
0000
0001
1000
0000
0010
0000
,
1000
0000
0100
0010
0000
0100
0000
1000
0000
0001
0000
1000
0010
0000
0000
0000
,
1000
0001
1000
0000
0001
0100
0000
0010
1000
0000
0001
0010
0000
0100
1000
0000
,
0000
0010
1000
0000
0100
0000
0010
0001
1000
0010
1000
0010
0100
0001
0100
0001
,
0000
0000
1001
0000
0000
0100
0000
0000
0110
0000
0000
1000
0000
0000
0001
0000
,
0100
0000
0000
0010
0000
0100
0000
1001
0000
0000
1000
0000
0000
0202
0000
0303
,
0000
0000
0110
0000
0000
1000
0000
0000
0011
0000
0000
1000
0000
0000
0100
0000
,
0001
0000
0000
0100
0000
0010
0000
1001
0000
0000
0110
0000
0000
2002
0000
0000
,
0000
0000
0000
3003
0000
0110
0000
2001
,
0000
0000
3001
0000
0100
0000
0001
0000
1000
0000
0010
1000
0000
1000
0200
0000
,
0000
0000
0310
0000
0001
0000
0010
0000
0100
0000
1000
0000
0000
0201
0000
0000
,
0000
0310
1000
0001
0000
1100
0000
0201
,
0000
0310
1000
0001
0000
0110
0000
2100
,
0000
0000
3001
0000
1000
0000
0001
0000
0000
0000
0100
0010
0000
0010
0200
0000
,
0000
0000
0301
0000
1000
0000
0100
0000
0010
0000
0001
1000
0000
1000
0002
0000
,
0000
0000
1003
0000
0010
0000
0100
0000
0001
0000
1000
0100
0000
0100
0020
0000
,
0000
0000
0130
0000
1000
0000
0001
0000
0000
0000
1000
0001
1000
0001
0000
0000
,
0010
0001
0010
0001
0000
1000
0000
0010
0000
1000
0000
0000
0000
0000
0001
0100
,
0000
0000
0110
0000
0000
1100
0000
0000
0202
0000
0000
0000
0303
0000
0000
0000
,
0001
1000
0100
1000
0000
0010
0000
0100
0000
0001
0000
0000
0000
0000
1000
0001
,
0000
0000
0011
0000
0000
1100
0000
0000
2002
0000
0000
0000
3003
1000
0001
0000
,
0000
1010
0000
0000
0011
0000
0000
2002
0000
0000
0000
0000
0000
0000
0000
0000
,
0000
0000
0000
0000
3003
0000
0000
1000
,
0001
0000
0100
0001
0000
2000
0000
0000
0000
0000
3010
0000
1000
0000
0002
0000
,
0000
0000
0013
0000
0001
0000
0200
0000
0000
0000
0310
1000
0010
1000
0020
0000
,
0000
0000
0130
0001
0100
0001
0200
0000
0000
0000
0301
0000
1000
0000
0100
0000
,
0000
0010
0000
0000
0001
0000
1000
0000
0000
0010
0000
1000
0000
0001
0000
0010
,
0100
0000
1000
0001
0000
2000
0000
0000
0000
0000
3010
0000
0100
0000
0002
0000
,
0000
0000
1003
0000
0100
0000
0020
0000
0000
0000
0130
1000
0100
1000
0200
0000
,
0000
0000
0310
0001
0010
0001
0010
0100
0000
0000
0010
0000
0001
0000
1001
0000
,
0000
0220
0000
0000
0000
0330
0000
1001
0000
0000
1000
0000
0100
0000
0001
0000
,
0000
0220
0000
0000
0000
0330
0000
1010
0000
0000
0001
0000
0100
0000
0010
0000
,
0000
2002
0000
3003
0000
0000
0010
0000
0000
0010
0000
0000
0000
0000
0000
0010
,
0000
0000
0010
0000
0000
0000
1000
0001
0000
0000
0110
0000
0000
1100
0000
0000
,
0101
0000
0000
2002
0000
0000
0000
0000
0000
0000
0000
0000
0000
0000
0000
0000
,
0000
0000
0000
0000
,
0000
3003
0000
0000
;

//--------------- dance-single - forcednature ----------------
#NOTES:
     dance-single:
     forcednature:
     Challenge:
     15:
     0,0,0,0,0:
0000
0000
0000
0000
,
0000
0000
0000
0000
,
0000
0000
0000
0000
,
0000
0000
0000
0000
0000
0000
0000
0000
0001
0100
0000
0010
1000
0010
0000
1000
,
0000
0000
0000
0001
0000
0000
0000
0000
0000
1000
0000
0000
0100
0000
0000
0010
0000
0000
0000
0000
0000
1001
0000
0000
0000
0000
0000
0000
0001
0000
0000
0000
0100
0000
0000
0000
0001
0000
0000
0000
1000
0000
0000
0000
0100
0000
0000
0000
,
2000
0000
0000
0020
0000
0000
0000
0000
3030
1000
0000
0001
0010
0100
1000
0001
,
0200
0000
0000
0320
0000
0000
2030
0000
0000
3000
0001
0000
0010
0000
0001
1000
,
0002
0000
0000
0200
0000
0000
0303
0000
0000
0000
0000
0000
1000
0000
0001
0010
,
0002
0000
0000
0000
0000
0000
0000
0000
0000
2000
0000
0000
0000
0000
0000
0000
0000
0000
3003
0000
0000
0000
0000
0000
0000
0000
0000
0000
0010
0000
0000
0000
0100
0000
0000
0000
0001
0000
0000
0000
1000
0000
0000
0000
0001
0000
0000
0000
,
0200
0000
0000
0320
0000
0030
0000
1000
0000
1000
0100
0010
0001
0100
0010
1000
,
0002
0000
0000
0203
0000
0000
0320
0000
0000
0000
1030
0000
0001
0000
1000
0100
,
2000
0000
0000
0020
0000
0000
3030
0000
0000
0000
0000
0000
0001
0000
1000
0100
,
2000
0000
0000
0000
0000
0000
0000
0000
0000
0020
0000
0000
0000
0000
0000
0000
0000
0000
3030
0000
0000
0000
0000
0000
0000
0000
0000
0000
1000
0000
0000
0000
0100
0000
0000
0000
0001
0000
0000
0000
0100
0000
0000
0000
1000
0000
0000
0000
,
0010
0000
0200
0002
0000
0000
0000
0000
0000
0000
0000
0000
0000
0000
0303
0000
,
1000
0000
0010
0200
0000
0000
0000
0001
0000
0001
0000
0001
0301
0000
0100
0000
,
1001
0000
0000
0201
0000
0000
0000
1000
0000
1000
0000
1000
1300
0000
0000
0000
,
0100
0000
0000
0000
0000
0000
0001
0000
0000
0020
0000
0000
0000
0000
0000
0000
0000
0000
0000
0000
0000
0100
0000
0000
0000
0000
0000
0100
0000
0000
0000
0000
0000
0100
0000
0000
0130
0000
0000
0000
0000
0000
1000
0000
0100
0000
1000
0000
,
0100
0000
0000
0000
0000
0000
1000
0000
0000
0010
0000
0000
0000
0000
0000
0000
0000
0000
1000
0000
0001
0000
1000
0000
0001
0000
0000
0010
0000
0000
0000
0000
0000
0100
0000
0000
1000
0000
0000
0010
0000
0000
1000
0000
0000
0000
0000
0000
,
0001
0000
0000
0000
0100
0000
0000
0000
1000
0000
0000
0000
0100
0000
0000
0000
0001
0000
0000
0000
1000
0000
0000
0000
0100
0000
0000
0000
0000
0000
0010
0000
0000
0000
0000
0000
0001
0000
0000
1000
0000
0000
0000
0000
0000
1000
0000
0000
,
0001
0000
1000
0000
0010
0100
0000
0001
0000
1000
0000
0001
0010
0000
0000
0000
,
0100
0000
1000
0000
0001
1000
0000
0010
0000
0100
0000
0001
1000
0100
1000
0000
,
0010
0000
0100
0000
0001
1000
0000
0100
0000
0010
0000
0100
1000
0100
0000
0000
,
0010
0000
0001
0000
1000
0001
0000
0100
0000
0010
0100
0000
0001
1000
0000
0100
,
0010
0000
0100
1000
0010
0000
0100
0001
,
1000
0000
0000
0000
0010
1000
0001
0100
0010
0000
0000
1000
0100
0010
0001
0100
,
0010
0000
0000
0000
1000
0000
0001
0000
0010
0000
0000
0100
0000
0000
1000
0000
,
0010
0000
0100
0000
0000
0100
0000
0100
0001
0000
1000
0100
1000
0010
0000
0100
,
0001
0000
1000
0001
1000
0000
0100
0000
0010
0001
0000
0100
0001
0000
1000
0000
,
0010
0000
0000
0000
1000
0100
0010
0100
0001
0000
0000
0100
0010
0100
1000
0001
,
1000
0000
0000
0000
0010
0000
0100
0000
0001
1000
0000
0001
1000
0000
0010
0000
,
0200
0000
0010
0000
0000
0310
0000
0000
0010
1000
0001
0010
0100
1000
0010
0000
,
0101
0000
0000
0101
0000
0000
1000
0100
1000
0010
0100
0001
0010
0100
0010
0001
,
0100
0000
0010
1000
0001
1000
0100
0010
0000
0100
0000
1000
0001
1000
0001
0000
,
0110
0000
0000
0000
0000
0000
0001
0000
0000
1000
0000
0000
0001
0000
0000
0010
0000
0000
0100
0000
0000
1000
0000
0000
0001
0000
0010
0000
0001
0000
0010
0000
0000
0100
0000
0000
1000
0000
0000
0001
0000
0000
1000
0000
0000
0010
0000
0000
,
1000
0000
0001
0000
0100
0000
0010
1000
0000
0100
1000
0001
1000
0001
0000
0000
,
0000
0000
0001
0100
0001
0000
0000
0000
1000
0100
1000
0000
0000
0000
0001
0010
0001
0000
0000
0000
1000
0010
1000
0000
0000
0000
0001
0000
0000
0000
0000
0000
,
0100
0000
0010
0000
0100
0000
0000
0000
0001
0000
0000
0000
1000
0000
0100
0000
0010
0000
0001
0010
0001
0000
0010
0000
0100
0000
1000
0000
0001
0000
1000
0000
,
0010
0000
1100
0000
0000
0001
0000
0000
0101
0000
0000
1000
0000
0000
0010
0000
,
0100
0000
0000
0011
0000
0110
0000
1001
0000
0000
0100
0000
0000
1010
0000
0000
,
0000
0000
0101
0000
0000
0010
0000
0000
1100
0000
0000
0010
0000
0000
0001
0000
,
0100
0000
0000
0110
0000
1100
0000
0101
0000
0000
1100
0000
0000
1001
0000
0000
,
0001
0100
0010
0000
1000
0010
0100
0000
0001
1000
0010
0000
1000
0100
0010
0000
,
0100
1000
0001
0000
0100
0001
1000
0000
0010
1000
0001
0010
0000
0010
0100
0000
,
1000
0001
0100
0000
0010
1000
0001
0000
1000
0100
0010
0000
0000
0101
0000
0000
,
1000
0010
1000
0000
0001
0010
0100
0000
0000
0000
1100
0000
0000
0000
1001
0000
,
0001
0100
0010
0000
1000
0100
0010
0000
0100
1000
0010
0000
1000
0001
0010
0000
,
0001
0100
0010
0000
1000
0100
0010
0000
0100
1000
0001
0100
0000
0100
0010
0000
,
1000
0001
0010
0000
0001
1000
0010
0000
0000
0000
0100
0010
0000
1000
0001
0000
,
1000
0100
0010
0000
0100
1000
0001
0000
0000
0000
0100
0001
0000
1000
0010
0000
,
1000
0100
0010
0000
0001
0000
0100
0000
0000
0100
0000
0000
0010
0100
0010
0000
,
1000
0100
0010
0001
0000
0100
0000
1000
0000
0100
0001
0100
0001
0010
0100
1000
,
0000
0000
1010
0000
0000
0011
0000
0000
0202
0000
0000
0000
0000
0000
0303
0000
,
1000
0100
1000
0010
0000
0100
0000
0001
0000
0010
0100
0010
0100
1000
0010
0100
,
0000
0000
0101
0000
0000
1100
0000
0000
1001
0000
0000
0000
0000
0010
0100
0000
,
0000
1010
0000
0000
0011
0000
0000
2002
0000
0000
0000
0000
0000
0000
0000
0000
,
0000
0000
0000
0000
3003
0000
0000
1001
,
0001
0000
0100
0010
0000
1000
0001
0000
1000
0100
1000
0000
0010
0000
0100
0000
,
0000
1000
0100
0000
0001
0000
0010
0000
0000
0000
0100
1000
0001
0100
0010
0000
,
0000
0100
1000
0100
0001
0100
0010
0000
0000
0000
1000
0000
0001
0000
1000
0000
,
0000
0010
0000
0000
0100
0000
0001
0000
0010
0000
0000
0010
0000
0000
0001
0000
,
1000
0000
0010
1000
0000
0001
0100
0000
0000
0000
0010
0000
1000
0000
0100
0000
,
0000
0000
0010
0000
0001
0000
1000
0000
0000
0000
0001
0100
0010
1000
0100
0000
,
0000
0010
0100
1000
0001
0100
0000
1010
0000
0000
0100
0000
0010
0000
1001
0000
,
0000
0110
0000
0000
0000
0000
0000
1001
0000
0000
0010
0000
0100
0000
1100
0000
,
0000
0101
0000
0000
0000
0000
0000
1001
0000
0000
0100
0000
0010
0000
1100
0000
,
0000
0000
0000
0101
0000
0000
0000
0000
0000
0000
0000
0000
0000
0000
0000
0000
0000
0000
0001
0000
0000
1000
0000
0000
0000
0000
0000
0001
0000
0000
0000
0000
0000
0000
1000
0000
0000
0000
0000
0000
0001
0000
0000
0000
0000
1000
0000
0000
,
0000
0000
0001
0000
1000
0000
0001
0000
0000
0000
1000
0001
1000
0000
0001
0000
0000
0000
0000
0000
0110
0000
0000
0000
0000
0000
1100
0000
0000
0000
0000
0000
,
0101
0000
0000
2002
0000
0000
0000
0000
0000
0000
0000
0000
0000
0000
0000
0000
,
0000
0000
0000
0000
,
0000
3003
0000
0000
;

//--------------- dance-double - forcednature ----------------
#NOTES:
     dance-double:
     forcednature:
     Easy:
     6:
     0,0,0,0,0:
00000000
00000000
00000000
00000000
,
00000000
00000000
00000000
00000000
,
00000000
00000000
00000000
00000000
,
00000000
00000000
00010000
00001000
,
00000100
00000000
00000000
00000000
00000000
00000000
00000000
00000110
00000000
00000000
00000000
00000000
00000000
00000000
00000000
00000000
,
00001001
00000000
00000001
00000100
,
00001000
00010000
01000000
00100000
,
00010000
00000000
10000000
00100000
,
10000000
01000000
00010000
00001000
,
00100000
00000000
00001000
00010000
,
00000010
00001000
00000001
00000100
,
00000001
00000000
00000010
00000100
,
00010000
00001000
01000000
00000000
,
00100000
00000000
00000000
01100000
00000000
00000000
00000000
00000000
00000000
00000000
00000000
00000000
00000000
00000000
00000000
00000000
,
10000000
00000000
00000000
10000000
00000000
00000000
00000000
00000000
00000000
00000000
00000000
00000000
00000000
00000000
00000000
00000000
,
10010000
00000000
00000000
10010000
00000000
00000000
00000000
00000000
00000000
00000000
00000000
00000000
00000000
00000000
00000000
00000000
,
01000000
00000000
00000000
01000000
00000000
00000000
00000000
00000000
00000000
00000000
00000000
00000000
00000000
00000000
00000000
00000000
,
00011000
00000000
00000000
00011000
00000000
00000000
00000000
00000000
00000000
00000000
00000000
00000000
00000000
00000000
00000000
00000000
,
00000110
00000000
00001000
00000001
,
00001000
00000010
00000100
00000000
,
00000001
00000010
00000100
00000000
,
00010000
00001000
00100000
00010000
,
00100000
00001000
00010000
00000000
,
00100000
00000000
10000000
00010000
,
10000000
01000000
00100000
00010000
,
01000000
00001000
00010000
00000010
,
00001000
00000000
00000000
00000001
,
00000010
00000000
00000100
00001000
,
00000100
00010000
00001000
00010000
,
00000010
00001000
00000001
00001000
,
00000100
00000000
00000000
00010000
,
00011000
00000000
00000000
00011000
00000000
00000000
00000000
00000000
00000000
00000000
00000000
00000000
00000000
00000000
00000000
00000000
,
00001000
00000000
00000000
00001000
00000000
00000000
00000000
00000000
00000000
00000000
00000000
00000000
00000000
00000000
00000000
00000000
,
00000110
00000000
00000000
00000110
00000000
00000000
00000000
00000000
00000000
00000000
00000000
00000000
00000000
00000000
00000000
00000000
,
00000001
00000000
00000000
00000001
00000000
00000000
00000000
00000000
00000000
00000000
00000000
00000000
00000000
00000000
00000000
00000000
,
00001001
00000000
00000000
00001001
00000000
00000000
00000000
00000000
00000000
00000000
00000000
00000000
00000000
00000000
00000000
00000000
,
00000100
00001000
00010000
01000000
,
00000000
01100000
00000000
00000000
10000000
00000000
00000000
00000000
,
00010000
00000000
00010000
00000000
00000000
00010000
00000000
00000000
,
00000000
00011000
00000000
00000000
00000100
00000000
00000000
00000000
,
00001000
00000000
00000000
00000000
00001000
00000000
00000000
00000000
00001000
00000000
00000000
00000000
00000000
00000010
00000000
00000000
,
00000000
00000100
00000000
00000001
00000000
00000010
00000000
00000100
,
00000000
00000000
00000000
00001000
00000000
00000010
00000000
00010000
,
00000000
00001000
00000000
00100000
00000000
00010000
00000000
00100000
,
00000000
00000000
00000000
01000000
00000000
10000000
00000000
01000000
,
00000000
00000000
00000000
00100000
00000000
00001000
00000000
00010000
,
00000000
00000000
00000000
00000010
00000000
00001000
00000000
00000001
,
00000000
00000000
00000000
00000100
00000000
00001000
00000000
00010000
,
00000000
00000000
00000000
01000000
00000000
00010000
00000000
00002000
,
00000000
00000000
00003000
00000000
,
00010000
00000000
00000000
00000000
00000000
00000000
00000000
00000000
00000000
00000000
00000000
00000000
00000000
00000000
00000000
01000000
,
00000000
00000000
01000000
00000000
00000000
01000000
00000000
00000000
01000000
00000000
00000000
00000000
00000000
00000000
00000000
00000000
,
00010000
00000000
00000000
00000000
00000000
00000000
00000000
00000000
00000000
00000000
00000000
00000000
00000000
00000000
00000000
00001000
,
00000000
00000000
00001000
00000000
00000000
00001000
00000000
00000000
00001000
00000000
00000000
00000000
00000000
00000000
00000100
00000000
,
00000000
00000010
00000000
00000000
00000100
00000000
00000000
00000020
00000000
00000000
00000000
00000000
00000000
00000000
00000000
00000000
,
00000000
00000000
00000000
00000000
00000000
00000000
00000000
00000030
,
00000000
00000000
00000000
00001001
00000000
00001000
00000000
00000010
,
00000000
00010000
00000000
00001000
00000000
00100000
00000000
00010000
,
00000000
00000000
00000000
01000000
00000000
00100000
00000000
10000000
,
00000000
01000000
00000000
00100000
00000000
00000000
00000000
00001000
,
00000000
00010000
00000000
00001000
00000000
00000010
00000000
00000100
,
00000000
00001000
00000000
00000001
00000000
00000100
00000000
00001000
,
00000000
00000000
00000000
00000000
00000000
00000000
00000000
00011000
00000000
00000000
00000000
00000000
00000000
00000000
01000000
00000000
,
00000000
01000000
00000000
00000000
00000000
00000000
00000000
00011000
00000000
00000000
00000000
00000000
00000000
00000000
00000100
00000000
,
00000000
00000100
00000000
00000000
00000000
00000000
00000000
00011000
00000000
00000000
00000000
00000000
00000000
00000000
00100000
00000000
,
00000000
00100000
00000000
00000000
00000000
00000000
00000000
00000000
00000000
00000000
00000000
00000000
00000000
00000000
00000000
00000000
,
00000000
00000000
00000000
00000000
00000000
00000000
00000000
01000000
00000000
00000000
00010000
00000000
00000000
00001000
00000000
00000000
,
00000100
00000000
00000000
00000220
00000000
00000000
00000000
00000000
00000000
00000000
00000000
00000000
00000000
00000000
00000000
00000000
,
00000000
00000000
00000000
00000000
,
00000000
00000330
00000000
00000000
;

//--------------- dance-double - forcednature ----------------
#NOTES:
     dance-double:
     forcednature:
     Medium:
     9:
     0,0,0,0,0:
00000000
00000000
00000000
00000000
,
00000000
00000000
00000000
00000000
,
00000000
00000000
00000000
00000000
,
00000000
00000000
00000000
00000000
00000000
00000000
00000000
00000000
00010000
00000000
00000000
00000000
00001000
00000000
00000000
00000100
,
00000000
00000100
00000000
00000000
00000010
00000000
00000000
00001001
00000000
00000000
00000000
00000000
00000000
00000000
00000000
00000000
,
00000101
00000000
00001000
00000000
00000010
00010000
00001000
01000000
,
00010000
00000000
00000000
00010000
00000000
00000000
10000000
00000000
00000000
00000000
01000000
00000000
00100000
00000000
00000000
00000000
,
00001000
00000000
00000000
00002000
00000000
00000000
00000000
00000000
00003000
00000000
00000000
00000000
00010000
00000000
00000010
00000000
,
00001000
00000000
00000000
00000000
00000000
00000000
00000000
00000000
00000000
00002000
00000000
00000000
00000000
00000000
00000000
00000000
00000000
00000000
00000000
00000000
00000000
00000000
00000000
00000000
00003000
00000000
00000000
00000000
00000001
00000000
00000000
00000000
00000000
00000000
00000000
00000000
00000010
00000000
00000000
00000000
00000000
00000000
00000000
00000000
00000000
00000000
00000000
00000000
,
00000100
00000000
00000000
00000100
00000000
00000000
00000000
00010000
00000000
00000000
00001000
00000000
00010000
00000000
00000000
00000000
,
00100000
00000000
00000000
00100000
00000000
00000000
10000000
00000000
00000000
00000000
00010000
00000000
10000000
00000000
00000000
00000000
,
01000000
00000000
00000000
02000000
00000000
00000000
00000000
00000000
03000000
00000000
00000000
00000000
00100000
00000000
00001000
00000000
,
00010000
00000000
00000000
00000000
00000000
00000000
00000000
00000000
00000000
00020000
00000000
00000000
00000000
00000000
00000000
00000000
00000000
00000000
00000000
00000000
00000000
00000000
00000000
00000000
00030000
00000000
00000000
00000000
00000010
00000000
00000000
00000000
00000000
00000000
00000000
00000000
00001000
00000000
00000000
00000000
00000000
00000000
00000000
00000000
00000000
00000000
00000000
00000000
,
00000001
00000000
00000000
00002002
00000000
00000000
00000000
00000000
00000000
00000000
00000000
00000000
00003003
00000000
00000000
00000000
,
00000100
00000000
00000000
00000220
00000000
00000000
00000000
00000000
00000000
00000000
00000000
00000000
00000330
00000000
00000000
00000000
,
00011000
00000000
00000000
00022000
00000000
00000000
00000000
00000000
00000000
00000000
00000000
00000000
00033000
00000000
00000000
00000000
,
01000000
00000000
00000000
02200000
00000000
00000000
00000000
00000000
00000000
00000000
00000000
00000000
03300000
00000000
00000000
00000000
,
10010000
00000000
00000000
20020000
00000000
00000000
00000000
00000000
00000000
00000000
00000000
00000000
30030000
00000000
00000000
00000000
,
02200000
00000000
00000000
00000000
03300000
00000000
00000000
00000000
10000000
00000000
01000000
00000000
00010000
00001000
00000000
00001000
,
00010000
00000000
00000010
00000000
00001000
00000001
00000100
00000000
,
00000010
00000000
00010000
00000000
00001000
00100000
00010000
00000000
,
01000000
00000000
00100000
00000000
10000000
01000000
00100000
00000000
,
01000000
00000000
10000000
00000000
00010000
01000000
00001000
00000000
,
00010000
00000000
00000100
00001000
00000100
00000000
00010000
00000000
,
00001000
00000000
00100000
00010000
00100000
00000000
01000000
10000000
,
01000000
00000000
00000000
00000000
00010000
00000000
00001000
00000000
00010000
00000000
00000000
00000100
00000000
00000000
00001000
00000000
,
00000002
00000000
00000000
00000000
00000003
00000000
00000000
00000000
00000100
00000000
00000001
00000000
00000100
00000000
00000000
00000010
,
00000000
00000000
00010000
00001000
00100000
00000000
00010000
10000000
,
00100000
00000000
01000000
00010000
01000000
00000000
00001000
00010000
,
00000100
00000000
00000000
00000000
00001000
00000000
00000001
00000000
00001000
00000000
00000000
00000010
00000000
00000000
00010000
00000000
,
00002000
00000000
00003000
00000000
00100000
00100000
00100000
00000000
,
01100000
00000000
00000000
02200000
00000000
00000000
00000000
00000000
00000000
00000000
00000000
00000000
03300000
00000000
00000000
00000000
,
00010000
00000000
00000000
00022000
00000000
00000000
00000000
00000000
00000000
00000000
00000000
00000000
00033000
00000000
00000000
00000000
,
00000110
00000000
00000000
00000220
00000000
00000000
00000000
00000000
00000000
00000000
00000000
00000000
00000330
00000000
00000000
00000000
,
00001000
00000000
00000000
00022000
00000000
00000000
00000000
00000000
00000000
00000000
00000000
00000000
00033000
00000000
00000000
00000000
,
01100000
00000000
00000000
20020000
00000000
00000000
00000000
00000000
00000000
00000000
00000000
00000000
30030000
00000000
00000000
00000000
,
01000000
00000000
00010000
00000000
00001000
00000000
00000100
00000100
,
00000000
00000000
00000110
00000000
00000000
00000001
00000000
00000000
00001000
00000000
00000000
00000010
00000000
00000000
00000100
00000000
,
00001000
00000000
00000000
00010000
00000000
00010000
00000000
00010000
00000000
00000000
00100000
00000000
00000000
10000000
00000000
00000000
,
00000000
00000000
10010000
00000000
00000000
00010000
00000000
00000000
00100000
00000000
00000000
01000000
00000000
00000000
00010000
00000000
,
00001000
00000000
00000000
00000010
00000000
00000010
00000000
00000100
00000000
00000000
00001000
00000000
00000000
00001001
00000000
00000000
,
00000000
00000001
00000000
00000100
00000000
00001000
00000000
00010000
,
00000000
00000000
00100000
00000000
00000000
00000000
10000000
00000000
00000000
00000000
00010000
00100000
00000000
00100000
00010000
00000000
,
00000000
01000000
00000000
00001000
00000000
00010000
00000000
00000100
,
00000000
00001000
00000000
00000001
00000000
00000110
00000000
00001001
,
00000000
00000001
00000000
00000100
00000000
00001000
00000000
00010000
,
00000000
00000000
01000000
00000000
00000000
00000000
00100000
00000000
00000000
00000000
00010000
10000000
00000000
10000000
00010000
00000000
,
00000000
00000000
01000000
00000000
00000000
00000000
00001000
00000000
00000000
00000000
00010000
00000100
00000000
00000100
00010000
00000000
,
00000000
00000000
00000010
00000000
00000000
00000000
00001000
00000000
00000000
00000000
00000001
00000010
00000000
00000010
00000001
00000000
,
00000000
00000100
00000000
00001000
00000000
00010000
00000000
00000000
,
00100000
00000000
00100000
00000000
00000000
10000000
00000000
00010000
00000000
10000000
00000000
00000000
00000000
00000000
00000000
01000000
,
00000000
00000000
00100000
00000000
00000000
00001000
00000000
00000000
00022000
00000000
00000000
00000000
00033000
00000000
00000000
00000000
,
00000100
00000000
00001000
00000000
00000000
00000001
00000000
00000001
00000000
00000100
00000000
00000000
00000000
00000000
00000000
00000110
,
00000000
00000000
00001000
00000000
00000000
00000001
00000000
00000000
00000010
00000000
00000000
00000000
00000000
00000000
00011000
00000000
,
00000000
00100000
00000000
00000000
00010000
00000000
00000000
02000000
00000000
00000000
00000000
00000000
00000000
00000000
00000000
00000000
,
03200000
00000000
00000000
00000000
20300000
00000000
00000000
30000000
,
01000000
00000000
00100000
00000000
00000000
00001000
00000000
00000000
00000000
00000000
00010000
00000000
00000100
00000000
00001000
00000000
,
00000000
00000001
00000100
00000010
00000000
00010000
00001000
00100000
,
00000000
01000000
10000000
00010000
00000000
01000000
00000000
00001000
,
00000000
00010000
00000000
00000000
00001000
00000000
00020000
00000000
00000000
00000000
00000000
00000000
00030000
00000000
00000000
00000000
,
00000100
00000000
00001000
00000000
00000000
00001001
00000000
00000000
00000000
00000000
00000001
00000000
00000000
00000000
00000100
00000000
,
00000000
00000010
00001000
00000100
00000000
00010000
00001000
00100000
,
00000000
00000000
00010000
00000000
01000000
00000000
00000000
01100000
00000000
00000000
10000000
00000000
00010000
00000000
00100000
00000000
,
00000000
01000000
00000000
00000000
00000000
00000000
00000000
00011000
00000000
00000000
00000100
00000000
00001000
00000000
00000010
00000000
,
00000000
00000100
00000000
00000000
00000000
00000000
00000000
00001001
00000000
00000000
00000001
00000000
00000100
00000000
00001000
00000000
,
00000000
00022000
00000000
00000000
00000000
00000000
00000000
00000000
00000000
00000000
00000000
00000000
00000000
00000000
00000000
00000000
,
00000000
00000000
00033000
00000000
00000000
00000000
00000000
01001000
00000000
00000000
00001000
00000000
00000000
00010100
00000000
00000000
,
00010000
00000000
00000000
00022000
00000000
00000000
00000000
00000000
00000000
00000000
00000000
00000000
00000000
00000000
00000000
00000000
,
00000000
00000000
00000000
00000000
,
00000000
00033000
00000000
00000000
;

//--------------- dance-double - forcednature ----------------
#NOTES:
     dance-double:
     forcednature:
     Hard:
     13:
     0,0,0,0,0:
00000000
00000000
00000000
00000000
,
00000000
00000000
00000000
00000000
,
00000000
00000000
00000000
00000000
,
00000000
00000000
00000000
00000000
00000000
00000000
00000000
00000000
00010000
00001000
00000000
00000000
00010000
00100000
00000000
10000000
,
00000000
00000000
00000000
10000000
00000000
00000000
00000000
00000000
00000000
00000000
00000000
00000000
01000000
00000000
00000000
00100000
00000000
00000000
00000000
00000000
00000000
00001000
00000000
00000000
00000000
00000000
00000000
00000000
00010000
00000000
00000000
00000000
00000010
00000000
00000000
00000000
00001000
00000000
00000000
00000000
00000001
00000000
00000000
00000000
00001000
00000000
00000000
00000000
,
00000100
00000000
00000000
00020200
00000000
00000000
00000000
00030300
00000000
00010000
00000000
00001000
00000000
01000000
00010000
01000000
,
00010000
00000000
00000000
00100000
00000000
00000000
02200000
00000000
03300000
00000000
10000000
00000000
01000000
00000000
00010000
00001000
,
00010000
00000000
00000000
00020020
00000000
00000000
00000000
00030030
00000000
00000000
00000000
00000000
00000001
00000000
00001000
00000100
,
00001000
00000000
00000000
00000000
00000000
00000000
00000000
00000000
00000000
00002002
00000000
00000000
00000000
00000000
00000000
00000000
00000000
00000000
00000000
00000000
00000000
00003003
00000000
00000000
00000000
00000000
00000000
00000000
00000001
00000000
00000000
00000000
00000100
00000000
00000000
00000000
00001000
00000000
00000000
00000000
00010000
00000000
00000000
00000000
01000000
00000000
00000000
00000000
,
10000000
00000000
00000000
20020000
00000000
30030000
00000000
10000000
00000000
01000000
00100000
00010000
00000000
00100000
00001000
00010000
,
00000100
00000000
00000000
00000010
00000000
00000000
00000220
00000000
00000330
00000000
00000001
00000000
00000100
00000000
00001000
00010000
,
00001000
00000000
00000000
02002000
00000000
00000000
00000000
03003000
00000000
00000000
00000000
00000000
10000000
00000000
01000000
00100000
,
00001000
00000000
00000000
00000000
00000000
00000000
00000000
00000000
00000000
00022000
00000000
00000000
00000000
00000000
00000000
00000000
00000000
00000000
00000000
00000000
00000000
00033000
00000000
00000000
00000000
00000000
00000000
00000000
00010000
00000000
00000000
00000000
00001000
00000000
00000000
00000000
00000010
00000000
00000000
00000000
00000100
00000000
00000000
00000000
00001000
00000000
00000000
00000000
,
00000001
00000000
00000000
00002002
00000000
00000000
00000000
00003003
00000000
00001000
00000000
00000100
00010000
00000000
00000000
00000000
,
00100000
00000000
00000000
02200000
00000000
00000000
00000000
03300000
00000000
10000000
00000000
10000000
00010000
00000000
01000000
00000000
,
01001000
00000000
00000000
00010010
00000000
00000000
00010000
00001000
00000000
00000010
00000000
00000100
00000000
00001000
00000000
00000001
,
00000100
00000000
00000000
00000010
00010000
00000010
00010000
00000000
00000000
00001000
00000000
00001000
00100000
00000000
00000000
00000000
,
01100000
00000000
00000000
01100000
00000000
00000000
10000000
00010000
20000000
00000000
00000000
00000000
31000000
00000000
00010000
00000000
,
00001000
00000000
00000010
00000000
00000100
00000000
00001000
00000000
00000001
00000000
00000100
00000000
00000010
00000000
00001000
00000000
00010000
00000000
00000000
00000000
00000000
01000000
00000000
00000000
,
01100000
00000000
00100000
00000000
10000000
00010000
00000000
10000000
00000000
01000000
00000000
00010000
00002000
00000000
00000000
00000000
,
00003010
00000000
00000001
00000000
00000100
00001000
00000000
00010000
00000000
00000100
00000000
00000100
00002000
00000000
00000000
00000000
,
00003010
00000000
00010000
00000000
00001000
01000000
00000000
00010000
00000000
10000000
00000000
10000000
02000000
00000000
00000000
00000000
,
03100000
00000000
00001000
00000000
00010000
00000010
00000000
00001000
00000000
00000000
00000001
00000000
00000010
00000100
00000000
00000020
,
00000000
00000000
00000031
00001000
00020000
00000000
10030000
00100000
,
02000000
00000000
00000000
00000000
03100000
10000000
00100000
10000000
02000000
00000000
00000000
00000000
03100000
00001000
00100000
00001000
,
00020000
00000000
00000000
00000000
00130000
00000000
01000000
00000000
00001000
00000000
00000000
00010000
00000000
00000000
00000100
00000000
,
00000010
00000000
00000000
00000000
00000000
00000001
00000000
00000001
00000100
00000000
00000010
00000000
00010000
00001000
00000000
00000010
,
00000200
00000000
00010300
00100000
02000000
00000000
03010000
10000000
,
02000000
00000000
00000000
00000000
03010000
00001000
00010000
00001000
00000020
00000000
00000000
00000000
00000130
00001000
00000100
00001000
,
00000020
00000000
00000000
00000000
00000130
00000000
00001000
00000000
00010000
00000000
00000000
00100000
00000000
00000000
10000000
00000000
,
01000000
00000000
00010000
00000000
00000000
00001000
00000000
00000000
00000010
00000000
00000001
00000000
00001000
00000000
00000001
00000000
,
00000100
00000000
00000000
00000110
00000000
00000000
00000010
00010000
00000000
00001000
00000000
01000000
00000000
00100000
00000000
10000000
,
00010000
00000000
00000000
00010000
10000000
00000000
01000000
00010000
00000000
00001000
00000000
00000000
00000010
00000100
00000010
00000000
,
00000001
00000000
00000000
00000101
00000000
00000000
00000100
00001000
00000000
00010000
00000000
01000000
00100000
00000000
00010000
00000000
,
10000000
00000000
00100000
00010000
00000000
00001000
00000000
00000010
00000000
00000001
00000000
00001000
00000010
00000000
00000000
00000000
,
00000100
00001000
00010000
00000000
00001000
00010000
00000000
01000000
00100000
00000000
01000000
10000000
00000000
00010000
01000000
00000000
,
00000000
00100000
01000000
00000000
00100000
00000000
10000000
00010000
10000000
01000000
10000000
01000000
00010000
00001000
00000000
00000000
,
00000000
00000000
00010100
00000000
00000000
00000010
00000000
00000000
00001001
00000000
00000000
00010000
00000000
00000000
01000000
00000000
,
00100000
00000000
00000000
10010000
00000000
10010000
00000000
01000000
00000000
00000000
00100000
00000000
00000000
00011000
00000000
00000000
,
00000000
00000000
00000110
00000000
00000000
00001000
00000000
00000000
00000101
00000000
00000000
00001000
00000000
00000000
00010000
00000000
,
01000000
00000000
00000000
01100000
00000000
01100000
00000000
00010000
00000000
00000000
00011000
00000000
00000000
00000220
00000000
00000000
,
00000000
00000000
00000000
00000330
00000000
00011000
00000000
02010000
,
00000000
00000000
13000000
00000000
01000000
00000000
00010000
00000000
00100000
00000000
00001000
00010000
00000000
00010000
00002000
00000000
,
00000000
00000000
00003010
00000000
00000001
00000000
00000100
00000000
00001000
00000000
00010000
00000000
00000000
00102000
00000000
00000000
,
00000000
00003100
00000001
00001000
00000000
00000110
00000000
00021000
,
00000000
00130000
10000000
00010000
00100000
01000000
00000000
00012000
,
00000000
00000000
00003010
00000000
00000001
00000000
00000100
00000000
00000000
00000000
00000010
00010000
00000000
00001000
02000000
00000000
,
00000000
00000000
03100000
00000000
10000000
00000000
01000000
00000000
00010000
00000000
00001000
00000010
00000000
00000010
00000002
00000000
,
00000000
00000000
00000103
00000000
00001000
00000000
00010000
00000000
01000000
00000000
00100000
00001000
00000000
00001000
00020000
00000000
,
00000000
00000000
00130000
00000000
10000000
00000000
00010000
00000000
00000000
00000000
00001000
00000001
00001000
00000001
00000000
00000000
,
00000010
00000100
00001000
00000100
00000000
00010000
00000000
00001000
00000000
01000000
00000000
00000000
00000000
00000000
00000000
01100000
,
00000000
00000000
00011000
00000000
00000000
00000110
00000000
00000000
00022000
00000000
00000000
00000000
00033000
00000000
00000000
00000000
,
01000000
00001000
00010000
00000010
00000000
00001000
00000000
00000001
00000000
00000010
00000000
00000000
00000000
00000000
00000000
00000110
,
00000000
00000000
00011000
00000000
00000000
01100000
00000000
00000000
00022000
00000000
00000000
00000000
00033000
00000000
10010000
00000000
,
00000000
00011000
00000000
00000000
00001001
00000000
00000000
00022000
00000000
00000000
00000000
00000000
00000000
00000000
00000000
00000000
,
00000000
00000000
00000000
00000000
00000000
00000000
00000000
00033000
,
00010000
00000000
00000100
00001000
00000000
00000002
00000000
00000000
00000000
00000000
00000103
00000000
00001000
00000000
00020000
00000000
,
00000000
00000000
00130000
00000000
10000000
00000000
02000000
00000000
00000000
00000000
03100000
00001000
00100000
00001000
00020000
00000000
,
00000000
00000000
00030010
00001000
00000010
00001000
00000200
00000000
00000000
00000000
00000301
00000000
00000100
00000000
00010000
00000000
,
00000000
00001000
00000000
00000000
01000000
00000000
10000000
00000000
00000000
01000000
00000000
00100000
00000000
10000000
00000000
01000000
,
00010000
00000000
00001000
00000010
00000000
00000002
00000000
00000000
00000000
00000000
00000103
00000000
00010000
00000000
00002000
00000000
,
00000000
00000000
00103000
00000000
10000000
00000000
00020000
00000000
00000000
00000000
00130000
00001000
00100000
00001000
00020000
00000000
,
00000000
00000000
00130000
10000000
00100000
10000000
01000000
00010000
00000000
00000000
00001000
00000000
00000100
00000000
00000110
00000000
,
00000000
00022000
00000000
00000000
00000000
00033000
00000000
01010000
00000000
00000000
10000000
00000000
00010000
00000000
01100000
00000000
,
00000000
00022000
00000000
00000000
00000000
00033000
00000000
00010100
00000000
00000000
00000001
00000000
00000100
00000000
00010010
00000000
,
00000000
00202000
00000000
00000000
00303000
00000000
01000000
00000000
00000000
00001000
00000000
00000000
00000000
00000000
00000000
00000100
,
00000000
00000000
00000001
00000000
00000000
00000000
00000000
00000110
00000000
00000000
00001100
00000000
00000000
00011000
00000000
00000000
,
01010000
00000000
00000000
02200000
00000000
00000000
00000000
00000000
00000000
00000000
00000000
00000000
00000000
00000000
00000000
00000000
,
00000000
00000000
00000000
00000000
,
00000000
03300000
00000000
00000000
;

//--------------- dance-double - forcednature ----------------
#NOTES:
     dance-double:
     forcednature:
     Challenge:
     15:
     0,0,0,0,0:
00000000
00000000
00000000
00000000
,
00000000
00000000
00000000
00000000
,
00000000
00000000
00000000
00000000
,
00000000
00000000
00000000
00000000
00000000
00000000
00000000
00000000
00010000
00001000
00000000
00000100
00000010
00000100
00000000
00001000
,
00000000
00000000
00000000
00010000
00000000
00000000
00000000
00000000
00000000
00000100
00000000
00000000
00000010
00000000
00000000
00000001
00000000
00000000
00000000
00000000
00000000
00001001
00000000
00000000
00000000
00000000
00000000
00000000
00000001
00000000
00000000
00000000
00000100
00000000
00000000
00000000
00001000
00000000
00000000
00000000
00010000
00000000
00000000
00000000
01000000
00000000
00000000
00000000
,
20000000
00000000
00000000
00200000
00000000
00000000
00000000
00000000
30300000
10000000
00000000
01000000
00010000
00001000
00010000
00001000
,
00000200
00000000
00000000
00000302
00000000
00000000
00000023
00000000
00000000
00000030
00000100
00000000
00010000
00000000
00001000
01000000
,
00002000
00000000
00000000
00200000
00000000
00000000
00303000
00000000
00000000
00000000
00000000
00000000
10000000
00000000
01000000
00010000
,
00002000
00000000
00000000
00000000
00000000
00000000
00000000
00000000
00000000
00200000
00000000
00000000
00000000
00000000
00000000
00000000
00000000
00000000
00303000
00000000
00000000
00000000
00000000
00000000
00000000
00000000
00000000
00000000
00001000
00000000
00000000
00000000
00000010
00000000
00000000
00000000
00000001
00000000
00000000
00000000
00000100
00000000
00000000
00000000
00001000
00000000
00000000
00000000
,
00020000
00000000
00000000
00230000
00000000
00300000
00000000
10000000
00000000
01000000
00010000
00001000
00010000
00001000
00000100
00000001
,
00002000
00000000
00000000
00003200
00000000
00000000
00020300
00000000
00000000
00000000
00130000
00000000
10000000
00000000
01000000
00010000
,
00002000
00000000
00000000
00200000
00000000
00000000
00303000
00000000
00000000
00000000
00000000
00000000
00001000
00000000
00010000
00000010
,
00020000
00000000
00000000
00000000
00000000
00000000
00000000
00000000
00000000
00000200
00000000
00000000
00000000
00000000
00000000
00000000
00000000
00000000
00030300
00000000
00000000
00000000
00000000
00000000
00000000
00000000
00000000
00000000
00000010
00000000
00000000
00000000
00000100
00000000
00000000
00000000
00001000
00000000
00000000
00000000
00010000
00000000
00000000
00000000
01000000
00000000
00000000
00000000
,
00100000
00000000
00000000
20020000
00000000
00000000
00000000
00000000
00000000
00000000
00000000
00000000
00000000
00000000
30030000
00000000
,
10000000
00000000
01000000
00020000
00000000
00000000
00000000
00000010
00000000
00000010
00000000
00000010
00030010
00000000
00000000
00000000
,
00010100
00000000
00000000
00102000
00000000
00000000
00000000
01000000
00000000
01000000
00000000
01000000
01003000
00000000
00000000
00000000
,
01001000
00000000
00000000
00000000
00000000
00000000
00000000
00000000
00000000
00020010
00000000
00000000
00000000
00000000
00000000
00000000
00000000
00000000
00000000
00000000
00000000
00000100
00000000
00000000
00000000
00000000
00000000
00000100
00000000
00000000
00000000
00000000
00000000
00000100
00000000
00000000
00030100
00000000
00000000
00000000
00000000
00000000
00010000
00000000
00001000
00000000
00010000
00000000
,
00001000
00000000
00000000
00000000
00000000
00000000
00000000
00000000
00000000
00000110
00000000
00000000
00000000
00000000
00000000
00000000
00000000
00000000
00000001
00000000
00000100
00000000
00000001
00000000
00000100
00000000
00000000
00000000
00000000
00000000
00000000
00000000
00000000
00000000
00000000
00000000
00001000
00000000
00000000
00000000
00000000
00000000
00100000
00000000
00000000
00000000
00000000
00000000
,
01000000
00000000
00000000
00000000
00010000
00000000
00000000
00000000
00001000
00000000
00000000
00000000
00010000
00000000
00000000
00000000
00100000
00000000
00000000
00000000
10000000
00000000
00000000
00000000
01000000
00000000
00000000
00000000
00000000
00000000
00010000
00000000
00000000
00000000
00000000
00000000
00001000
00000000
00000000
00000010
00000000
00000000
00000000
00000000
00000000
00000010
00000000
00000000
,
00000001
00000000
00000100
00000000
00000010
00001000
00000000
00010000
00000000
01000000
00000000
00100000
10000000
00000000
00000000
00000000
,
01000000
00000000
00100000
00000000
00010000
00001000
00000000
00000100
00000000
00000010
00000000
00000001
00001000
00000010
00001000
00000000
,
00010000
00000000
01000000
00000000
00100000
10000000
00000000
00010000
00000000
00100000
00000000
10000000
00100000
00010000
00000000
00000000
,
01000000
00000000
00001000
00000000
00010000
00000010
00000000
00000100
00000000
00001000
00000100
00000000
00000001
00001000
00000000
00000100
,
00000002
00000000
00000103
00000010
00000002
00000000
00000103
00001000
,
00020000
00000000
00000000
00000000
00130000
10000000
00010000
10000000
02000000
00000000
00000000
03010000
00001000
00000010
00000100
00001000
,
00000002
00000000
00000000
00000000
00000103
00000000
00001000
00000000
00020000
00000000
00000000
00230000
00000000
00000000
20300000
00000000
,
31000000
00000000
00100000
00000000
00000000
00001000
00000000
00001000
00010000
00000000
00100000
10000000
01000000
10000000
00000000
00010000
,
01000000
00000000
00001000
00010000
00001000
00000000
00000010
00000000
00000001
00000100
00000000
00000010
00001000
00000000
00010000
00000000
,
02000000
00000000
00000000
00000000
03100000
10000000
00010000
10000000
02000000
00000000
00000000
03010000
00001000
00000010
00000100
00001000
,
00000002
00000000
00000000
00000000
00000103
00000000
00001000
00000000
00010000
00100000
00000000
10000000
00100000
00000000
01000000
00000000
,
00002000
00000000
00000000
00000000
00000000
00000000
00000000
00013000
00001000
00000100
00000010
00001000
00000001
00000100
00000001
00000000
,
00001010
00000000
00000000
01010000
00000000
00000000
10000000
01000000
00010000
00001000
01000000
00010000
00100000
00001000
01000000
00010000
,
10000000
00000000
00100000
01000000
00010000
01000000
00001000
00010000
00000000
00000100
00000000
00001000
00000100
00000010
00000001
00000000
,
00001001
00000000
00000000
00000000
00000000
00000000
00000001
00000000
00000000
00000100
00000000
00000000
00000010
00000000
00000000
00010000
00000000
00000000
00001000
00000000
00000000
00100000
00000000
00000000
00010000
00000000
10000000
00000000
00010000
00000000
10000000
00000000
00000000
01000000
00000000
00000000
00010000
00000000
00000000
00001000
00000000
00000000
00010000
00000000
00000000
00000100
00000000
00000000
,
00001000
00000000
00000001
00000000
00000100
00000000
00010000
01000000
00000000
00100000
10000000
00010000
20000000
00000000
00000000
00000000
,
30000000
00000000
00001000
01000000
00001000
00000000
00000000
00000000
00010000
00000010
00010000
00000000
00000000
00000000
00001000
00100000
00001000
00000000
00000000
00000000
00010000
00000100
00010000
00000000
00000000
00000000
00001000
00000000
00000000
00000000
00000000
00000000
,
00000000
00000000
00000100
00000000
00000001
00000000
00000000
00000000
00000010
00000000
00000000
00000000
00000100
00000000
00010000
00000000
00001000
00000000
00100000
00010000
00100000
00000000
01000000
00000000
10000000
00000000
00010000
00000000
00000000
00000000
00000000
00000000
,
00000000
00000000
00011000
00000000
00000000
01010000
00000000
00000000
00110000
00000000
00000000
00011000
00000000
00000000
00000100
00000000
,
00001000
00000000
00000000
00000101
00000000
00010010
00000000
01001000
00000000
00000000
01100000
00000000
00000000
10010000
00000000
00000000
,
00000000
00000000
11000000
00000000
00000000
00110000
00000000
00000000
00001100
00000000
00000000
00000011
00000000
00000000
00000001
00000000
,
00000100
00000000
00000000
00000110
00000000
00010010
00000000
00011000
00000000
00000000
00101000
00000000
00000000
10010000
00000000
10000000
,
01000000
00010000
00001000
00000000
00100000
00010000
01000000
00000000
00001000
00010000
00000010
00000000
00001000
00000100
00000010
00000000
,
00000001
00000100
00000010
00000000
00001000
00000100
00010000
00000000
00001000
01000000
00010000
00100000
00000000
01000000
10000000
00000000
,
00010000
01000000
00001000
00000000
00010000
00000100
00001000
00000000
00000010
00010000
00001000
00000000
00001000
00000010
00000001
00000000
,
00000100
00000010
00010000
00000000
00001000
00100000
01000000
00000000
00100000
00010000
10000000
00100000
00000000
00100000
01000000
00000000
,
00001000
00010000
00000100
00000000
00001000
00000001
00000100
00000000
00000010
00010000
00001000
00000000
00100000
00010000
01000000
00000000
,
00100000
10000000
01000000
00000000
00010000
00001000
00000010
00000000
00000100
00001000
00000001
00000100
00000000
00001000
00010000
00000000
,
00100000
10000000
00010000
00000000
00100000
00001000
00010000
00000000
00100000
10000000
01000000
00100000
00000000
00010000
00001000
00000000
,
00000100
00000010
00000001
00000000
00000100
00000010
00001000
00000000
00010000
01000000
00100000
10000000
00000000
00010000
00100000
00000000
,
01000000
00010000
00001000
00000000
00000100
00000000
00000010
00000000
00000000
00000010
00000000
00000000
00000000
00000000
00000000
00000000
,
00000100
00001000
00010000
00100000
00000000
01000000
00000000
00010000
00000000
10000000
01000000
00010000
00001000
00000100
00000001
00000010
,
00000000
00000000
00000110
00000000
00000000
00011000
00000000
00000000
02200000
00000000
00000000
00000000
00000000
00000000
03300000
00000000
,
10000000
01000000
00010000
00001000
00000000
00000100
00000000
00000001
00000000
00000010
00000100
00000010
00000100
00010000
00001000
01000000
,
00000000
00000000
01100000
00000000
00000000
00011000
00000000
00000000
00000110
00000000
00000000
00000000
00000000
00000000
00000101
00000000
,
00000000
00001010
00000000
00000000
00110000
00000000
00000000
22000000
00000000
00000000
00000000
00000000
00000000
00000000
00000000
00000000
,
00000000
00000000
00000000
00000000
00000000
00000000
00000000
33000000
,
10000000
00000000
01000000
00010000
00000000
00001000
00010000
00000000
00100000
10000000
01000000
00000000
00010000
00000000
00001000
00000000
,
00000010
00000001
00000100
00000000
00000010
00000000
00020000
00000000
00000000
00000000
00130000
01000000
00010000
10000000
02000000
00000000
,
00000000
03010000
00001000
00000010
00000100
00001000
00000002
00000000
00000000
00000000
00000103
00000000
00001000
00000000
00020000
00000000
,
00000000
02030000
00000000
00000000
03200000
00000000
00301000
00000000
00010000
00100000
00000000
00010000
00100000
00000000
10000000
00000000
,
00010000
00000000
00100000
00001000
00000000
00010000
00000020
00000000
00000000
00000000
00000130
00000000
00001000
00000000
00020000
00000000
,
00000000
00000000
00030100
00000000
00000010
00000000
00000002
00000000
00000000
00000000
00000103
00001000
00010000
00100000
20000000
00000000
,
00000000
31000000
00010000
00001000
00000010
00000001
00000000
00001001
00000000
00000000
00000001
00000000
00001000
00000000
00010010
00000000
,
00000000
02002000
00000000
00000000
00000000
03003000
00000000
10010000
00000000
00000000
10000000
00000000
00010000
00000000
00101000
00000000
,
00000000
00020200
00000000
00000000
00000000
00030300
00000000
00011000
00000000
00000000
00000100
00000000
00000010
00000000
00001001
00000000
,
00000000
00000000
00000000
00022000
00000000
00000000
00000000
00000000
00000000
00000000
00000000
00000000
00000000
00000000
00000000
00033000
00000000
00000000
00100000
00000000
00000000
00100000
00000000
00000000
00000000
00000000
00000000
01000000
00000000
00000000
00000000
00000000
00000000
00000000
10000000
00000000
00000000
00000000
00000000
00000000
00010000
00000000
00000000
00000000
00000000
01000000
00000000
00000000
,
00000000
00000000
00001000
00000000
00010000
00000000
00000100
00000000
00000000
00000000
00000010
00000001
00000010
00000000
00000200
00000000
00000000
00000000
00000000
00000000
00020300
00000000
00000000
00000000
00000000
00000000
00230000
00000000
00000000
00000000
00000000
00000000
,
02300000
00000000
00000000
00002000
00000000
00000000
00000000
00000000
00000000
00000000
00000000
00000000
00000000
00000000
00000000
00000000
,
00000000
00000000
00000000
00000000
,
00000000
03003000
00000000
00000000
;
