#TITLE:Time;
#SUBTITLE:;
#ARTIST:RAM;
#TITLETRANSLIT:;
#SUBTITLETRANSLIT:;
#ARTISTTRANSLIT:;
#GENRE:;
#CREDIT:;
#MUSIC:04. Time.mp3;
#BANNER:;
#BACKGROUND:;
#CDTITLE:;
#SAMPLESTART:90.590;
#SAMPLELENGTH:21.943;
#SELECTABLE:YES;
#OFFSET:-0.076;
#BPMS:0.000=175.000;
#STOPS:;
#BGCHANGES:;
#FGCHANGES:;

//--------------- dance-single - aboutblank ----------------
#NOTES:
     dance-single:
     aboutblank:
     Beginner:
     4:
     0,0,0,0,0:
0000
0000
0000
0000
,
0000
0000
0000
0000
,
0000
0000
0000
0000
,
0000
0000
0000
0000
,
0000
0000
0000
0000
,
0000
0000
0000
0000
,
1000
0000
0000
0000
,
1000
0000
0000
0000
,
0001
0000
0000
0000
,
0001
0000
0000
0000
,
0100
0000
0000
0000
,
0100
0000
0000
0000
,
0010
0000
0000
0000
,
0010
0000
0000
0000
,
1000
0000
0000
0000
,
0000
0000
0000
0000
,
0001
0000
0000
0000
,
0000
0000
0000
0000
,
1000
0000
0000
0000
,
1000
0000
1000
0000
,
0001
0000
0000
0000
,
0001
0000
0001
0000
,
1000
0000
0000
0000
,
1000
0000
1000
0000
,
0001
0000
0000
0000
,
0001
0000
0001
0000
,
0100
0000
0000
0000
,
0100
0000
0100
0000
,
0010
0000
0000
0000
,
0010
0000
0010
0000
,
0100
0000
0000
0000
,
0100
0000
0100
0000
,
0010
0000
0000
0000
,
0010
0000
0000
0000
,
1000
0000
1000
0000
,
1000
0000
0000
0000
,
0001
0000
0001
0000
,
0001
0000
0000
0000
,
0100
0000
0100
0000
,
0100
0000
0000
0000
,
0010
0000
0010
0000
,
0010
0000
0000
0000
,
1001
0000
0000
0000
,
0000
0000
0000
0000
,
0000
0000
0000
0000
,
0000
0000
0000
0000
,
1000
0000
1000
0000
,
0100
0000
0100
0000
,
0010
0000
0010
0000
,
0001
0000
0000
0000
,
1000
0000
0000
0000
,
0000
0000
0000
0000
,
0001
0000
0000
0000
,
0000
0000
0000
0000
,
0100
0000
0000
0000
,
0100
0000
0000
0000
,
0010
0000
0000
0000
,
0010
0000
0000
0000
,
1000
0000
1000
0000
,
1000
0000
0000
0000
,
0001
0000
0001
0000
,
0001
0000
0000
0000
,
0100
0000
0100
0000
,
0100
0000
0000
0000
,
0010
0000
0010
0000
,
0110
0000
0000
0000
,
1000
0000
1000
0000
,
1000
0000
0000
0000
,
0100
0000
0100
0000
,
0100
0000
0000
0000
,
0010
0000
0010
0000
,
0010
0000
0000
0000
,
0001
0000
0001
0000
,
0001
0000
0000
0000
,
0001
0000
0001
0000
,
0001
0000
0000
0000
,
0100
0000
0100
0000
,
0100
0000
0000
0000
,
0010
0000
0010
0000
,
0010
0000
0000
0000
,
1000
0000
1000
0000
,
1000
0000
0000
0000
,
0001
0001
0001
0000
,
0001
0001
0001
0000
,
1000
1000
1000
0000
,
1000
1000
1000
0000
,
0001
0001
0001
0000
,
0010
0010
0010
0000
,
0100
0100
0100
0000
,
0100
0100
0100
0000
,
1001
0000
0000
0000
,
0000
0000
0000
0000
,
0000
0000
0000
0000
,
0000
0000
0000
0000
,
1000
0000
0000
0000
,
0001
0000
0000
0000
,
1000
0000
0000
0000
,
1001
0000
0000
0000
;

//--------------- dance-single - aboutblank ----------------
#NOTES:
     dance-single:
     aboutblank:
     Easy:
     8:
     0,0,0,0,0:
0000
0000
0000
0000
,
0000
0000
0000
0000
,
0000
0000
0000
0000
,
0000
0000
0000
0000
,
0000
0000
0000
0000
,
0000
0000
0000
0000
,
1000
1000
0000
1000
,
0000
0001
0000
0001
,
0000
0100
0000
0100
,
0010
1000
0001
0000
,
1000
0100
1000
0000
,
0001
0010
0001
0000
,
1000
0010
1000
0000
,
0001
0100
0010
1000
,
0001
0000
0001
0000
,
1000
0000
1000
0000
,
0010
0000
0010
0000
,
0100
0100
0100
0100
,
0001
1000
0100
0010
,
0001
0100
0010
0010
,
1000
0010
0100
0001
,
0010
0100
1000
1000
,
0001
1000
0100
0010
,
0001
1000
0010
0010
,
0100
0001
0100
0010
,
1000
0100
0010
0001
,
1000
0010
1000
0001
,
0020
0100
0130
0000
,
1000
0100
0001
0100
,
1000
0100
0010
0000
,
0001
1000
0010
0100
,
0002
1000
1003
0000
,
0001
1000
0100
0010
,
0001
0000
0000
0000
,
0100
0010
0100
0010
,
1000
0010
1000
0000
,
0001
0100
0001
0100
,
0010
1000
0010
0000
,
1000
0100
0010
0001
,
1000
0100
1000
0000
,
0001
0100
0010
1000
,
0001
0100
0001
0000
,
1000
0000
1000
0000
,
0010
0000
0010
0000
,
0100
0000
0100
0000
,
0001
0000
0001
0000
,
1000
0000
0100
0000
,
0001
0000
0010
0000
,
1000
0000
0100
0000
,
0001
0000
0010
0000
,
1001
0000
0000
0000
,
1000
0000
1000
0000
,
0010
0000
0000
0000
,
0001
0000
0001
0000
,
0100
0000
0000
0000
,
1000
0000
1000
0000
,
0001
0000
0000
0000
,
0100
0000
0100
0000
,
0010
1000
0001
0000
,
0010
0001
1000
0000
,
0100
0010
0001
0000
,
1000
0010
0100
0001
,
1000
0100
0010
0000
,
0001
0010
0100
0000
,
1000
0100
0010
0000
,
0001
0000
0000
0000
,
1000
0100
0010
0001
,
0100
0001
0100
0001
,
1000
0010
0100
0001
,
0010
0001
0010
0001
,
1000
0001
0100
0010
,
1000
0001
1000
0001
,
0010
0100
1000
0010
,
0100
0001
1000
1000
,
0010
0100
0001
0000
,
1000
0100
0010
0000
,
0001
1000
0010
0100
,
0001
0000
1001
0000
,
0001
1000
0100
0000
,
0010
0100
1000
0000
,
0010
0100
0001
0000
,
1001
0000
0000
0000
,
0001
0100
0001
0100
,
0010
1000
0010
1000
,
0001
0010
0001
0010
,
0100
1000
0010
1000
,
0001
0010
0100
1000
,
0001
0100
0010
1000
,
0001
1000
0100
1000
,
0001
1000
0010
1000
,
0002
0000
0000
0000
,
0000
0000
0000
0000
,
2003
0000
0000
0000
,
0000
0000
0000
0000
,
3020
0000
0000
0000
,
0000
0000
0000
0000
,
0230
0000
0000
0000
,
0300
0000
0000
0000
,
1001
0000
0000
0000
;

//--------------- dance-single - aboutblank ----------------
#NOTES:
     dance-single:
     aboutblank:
     Medium:
     12:
     0,0,0,0,0:
0000
0000
0000
0000
,
0000
0000
0000
0000
,
0000
0000
0000
0000
,
0000
0000
0000
0000
,
0000
0000
0000
0000
,
0000
0000
0000
0000
,
1000
0000
0010
0000
0000
1000
0010
0000
,
0100
0000
0001
0000
0000
0100
0001
0000
,
1000
0000
0001
0000
0000
1000
0001
0000
,
0100
0100
0010
0010
,
1000
0000
0010
0000
0100
0010
0100
0000
,
0001
0000
1000
0000
0001
1000
0001
0000
,
0100
0000
0001
0000
0100
0010
0100
0000
,
0002
0023
0230
2300
,
3000
0000
0000
0000
,
0000
0000
0000
0000
,
0000
0000
0000
0000
,
0001
1000
0001
1000
0001
1000
0001
0000
,
1100
0000
0001
0000
1000
0100
0001
0000
,
0100
0000
0010
0001
0000
0010
0001
0000
,
1000
0000
0110
0000
0001
0100
0010
0000
,
1000
0000
0010
0100
0000
0010
1000
0000
,
0001
0000
0010
0000
1000
0010
0001
0000
,
0100
0000
0010
1000
0000
0001
1000
0000
,
0100
0000
0010
0000
0001
1000
0010
0000
,
0100
0000
0001
0010
0000
0100
0010
0001
,
1000
0010
0100
0000
0001
1000
0010
0100
,
0002
0000
0000
2003
0000
3010
0100
0000
,
0001
1000
0001
0000
0100
0001
0100
0000
,
0010
1000
0010
0000
1010
0000
0101
0000
,
0001
0010
0100
0000
0010
0100
1000
0000
,
0002
0000
0000
0203
0000
0301
1000
0000
,
0100
0010
0001
0000
0100
0010
1000
0000
,
0000
0000
0000
0000
,
1000
0100
0010
0000
0001
1000
0010
0000
,
0100
0001
0010
0000
0100
0010
0001
0000
,
1000
0010
0100
0000
0001
0010
0100
0000
,
1000
0100
0010
0000
0110
0000
1001
0000
,
0001
1000
0010
0000
0100
0001
1000
0000
,
1000
0100
0010
0000
0100
1000
0001
0000
,
1000
0100
0001
0000
0001
0100
1000
0000
,
0001
0100
0010
0000
1010
0000
0101
0000
,
1000
1000
0000
0001
0001
0000
1000
0100
,
0000
0100
0010
0000
0001
0100
0001
0000
,
1000
0001
0100
0000
0010
1000
0000
0001
,
0000
0001
1000
0000
0010
1000
0100
0000
,
0020
0000
0000
0032
0000
0000
0203
0000
,
0000
2300
0000
0000
3010
0000
0010
0000
,
0200
0000
0000
0302
0000
0000
0023
0000
,
0000
2030
0000
0000
3001
0000
0000
0000
,
1001
0000
0000
0000
0000
0000
0000
1000
,
0000
0000
1000
0000
0010
1000
0000
0000
,
0001
0000
0001
0000
0000
1000
0000
0020
,
0000
0030
0010
0000
0100
0001
0100
0000
,
0001
0000
0010
0000
0100
0010
0000
0001
,
0000
0001
1000
0000
0010
0100
0010
0000
,
1000
0010
0100
0000
0001
1000
0000
0010
,
0000
0100
0001
0000
1000
0100
1000
0000
,
2000
0010
0010
3010
,
0002
1000
1000
1003
,
0020
0100
0100
0130
,
0101
1100
0011
1010
,
0002
0000
0013
0000
0001
0010
0001
0000
,
2000
0000
3100
0000
1000
0100
1000
0000
,
0002
0000
1003
0000
0001
1000
0001
0000
,
0100
0000
0000
0010
0000
0000
0100
0000
0000
0000
1001
0000
0000
0000
0000
0000
,
0001
0000
1000
0000
0100
0001
0100
0000
,
0010
0000
0001
0000
0100
0010
0100
0000
,
1000
0000
0100
0000
0010
1000
0010
0000
,
0100
0000
0001
0000
0010
0010
0001
0000
,
1000
0000
0001
0000
0100
0010
0100
0000
,
0001
0010
0100
0000
1000
0001
1000
0000
,
0100
0000
0010
0000
0001
0100
0001
0000
,
0100
0000
1000
0000
0100
0000
0000
0000
0010
0000
0000
0010
0000
0000
1000
0000
,
0001
0000
1000
0000
0100
0010
0100
0000
,
0010
0000
0001
0100
0000
1000
0100
0000
,
0001
0010
0001
0000
1000
0100
1000
0000
,
0001
0100
0001
0000
1010
0000
0101
0000
,
1000
0000
0001
0000
0010
0100
0010
0001
,
2000
0000
0010
0020
0000
3030
1010
0000
,
0001
1000
0010
0000
0100
0001
1000
0000
,
0200
0000
0000
0000
0010
0000
0000
0000
0010
0000
0000
0010
0000
0000
0310
0000
,
0001
0100
0001
0100
0010
1000
0010
1000
,
0100
0010
0001
1000
0010
0100
0001
1000
,
0100
0010
0100
0000
1000
0010
1000
0000
,
0001
0100
0001
0000
0110
0000
1010
0000
,
0010
0100
0010
0100
0001
1000
0100
0010
,
0001
0010
0001
0010
0100
1000
0010
1000
,
0001
1000
0100
0010
0001
1000
0100
0010
,
0001
1000
0010
0100
0001
1000
0001
0000
,
1100
0000
0001
0000
0000
1000
0010
0000
,
0101
0000
0010
0000
0000
0001
1000
0000
,
0110
0000
0001
0000
0000
1000
0001
0000
,
0011
0000
1000
0000
0000
0001
0100
0000
,
0010
1000
0001
0000
0000
1000
0100
0000
,
0010
0100
1000
0000
0000
0010
0100
0000
,
0001
0100
1000
0000
0000
0100
0001
0000
,
1000
0000
0000
0100
0000
0000
0010
0000
0000
0000
0001
0000
0000
1000
0000
0000
,
1001
0000
0000
0000
;

//--------------- dance-single - aboutblank ----------------
#NOTES:
     dance-single:
     aboutblank:
     Hard:
     14:
     0,0,0,0,0:
0000
0000
0000
0000
,
0000
0000
0000
0000
,
0000
0000
0000
0000
,
0000
0000
0000
0000
,
0000
0000
0000
0000
,
0000
0000
0000
0000
,
2000
0000
3010
0000
0001
0010
0100
0010
,
0000
1000
0100
0000
0010
0001
1000
0001
,
0100
0000
0001
0000
1000
0010
0000
0100
,
0001
0101
1001
0011
,
0001
0000
0000
0000
1000
0000
0000
0010
0100
0000
1000
0000
0100
0000
0001
0000
,
0000
0000
1000
0000
0001
0000
0000
0010
0001
0000
0100
0000
0100
0000
0010
0000
,
1000
0000
0000
0000
0001
0000
0000
1000
0100
0000
0010
0000
0001
0000
0100
0000
,
0101
1010
0011
1100
,
0002
0000
1003
0000
0001
1000
0000
1000
,
0020
0000
1030
0000
0010
1000
0010
1000
,
0200
0000
1300
0000
1000
0100
0010
0001
,
1000
0001
1000
0001
1000
0001
1000
0001
,
0200
0000
0000
0000
0301
0000
1000
0000
0010
0100
0010
0000
1000
0000
0100
0000
,
0100
0010
0001
1000
0000
0001
0010
1000
,
0002
0000
0000
0000
0103
0000
0010
0000
0001
1000
0001
0000
0100
0000
0001
0000
,
1000
0010
0100
0001
0000
1000
0010
0010
,
0200
0000
0000
0000
1300
0000
0100
0000
0010
1000
0010
0000
0100
0000
0001
0000
,
1000
0010
1000
0001
0000
0100
0010
0100
,
0002
0000
0000
0000
1003
0000
0100
0000
0010
0100
0010
0000
0001
0000
1000
0000
,
1010
0010
0100
0101
0000
1000
0100
0010
,
0001
0010
1000
0010
0002
0000
1003
0010
,
1010
0000
0100
0101
0000
1000
0001
1000
,
0100
0002
0000
1003
0020
0000
0031
2000
,
0000
3100
0002
0000
0103
0010
0110
0000
,
0001
0010
0100
1000
0200
0000
0310
0001
,
1200
0000
0310
0011
0000
0001
1000
0001
,
0100
2000
0000
3001
0020
0000
1030
0200
,
0010
0000
0000
0310
0000
0001
1000
0001
,
0010
1000
0010
0001
0100
1000
0100
0010
,
1000
0100
0010
1000
0010
0001
0100
1000
,
0001
0010
0100
0010
1000
0100
0010
0001
,
1000
0100
0001
0100
0010
0010
0010
0000
,
0001
0100
0001
1000
0100
0010
1000
0001
,
0100
0010
0100
1000
0001
1000
0100
0010
,
0001
0010
1000
0010
0001
1000
0100
0001
,
0100
1000
0010
0100
0001
0001
0001
0000
,
2000
0000
3010
0200
0000
0310
1000
0001
,
0000
0100
0001
0000
1000
0100
0100
0000
,
0010
0001
0100
0000
1000
0000
0100
0010
,
0000
0010
0001
0000
1000
0100
0001
0000
,
2200
0000
3300
0022
0000
0033
2020
0000
,
3030
0202
0000
0303
1000
0100
0001
0000
,
1000
0000
1000
0010
0000
0010
0100
0000
,
0100
0001
0000
0001
0020
0000
0000
0000
,
0130
0000
0000
0000
0000
0000
1000
0100
,
0000
1000
0100
0000
1000
0001
0000
0000
,
0010
0000
0000
0000
0000
0000
0001
0100
,
0000
0001
0100
0000
0001
1000
0000
0000
,
0010
0000
0010
0000
1000
0000
0100
0010
,
0000
0100
0010
0000
0001
1000
0000
0000
,
0001
0000
0001
0000
0010
0000
0100
1000
,
0000
0100
1000
0000
0001
0010
0100
0000
,
0010
0000
0001
1000
0001
0000
0100
0010
,
0000
0010
1000
0000
0001
0010
0100
0000
,
0010
0000
0001
0010
0001
0000
1000
0100
,
0010
0011
0100
1100
,
0001
0000
1000
0010
0100
0000
1000
0100
,
0000
0001
0010
0000
0100
0010
0001
0000
,
1000
0000
0001
1000
0100
0000
0100
0010
,
0001
0000
0000
1000
0000
0000
0001
0000
0000
0000
1001
0000
0000
0000
0000
0000
,
1000
0000
0000
0000
0100
0000
0010
0000
0001
0100
0001
0000
1000
0000
0010
0000
,
0100
0000
0000
0000
0001
0000
1000
0000
0100
0010
0100
0000
0010
0000
0001
0000
,
1000
0000
0000
0000
0010
0000
0100
0000
1000
0100
1000
0000
0100
0000
0001
0000
,
0010
0000
0010
0000
0000
0000
0100
0000
0010
0001
0010
0001
0010
0000
0001
0000
,
1000
0000
0000
0000
0001
0000
1000
0000
0010
1000
0010
0000
0100
0000
0001
0000
,
1000
0000
0000
0000
0001
0000
0010
0000
0100
1000
0100
0000
0010
0000
0100
0000
,
1000
0000
0000
0000
0010
0000
0100
0000
0010
1000
0010
0000
0100
0000
0001
0000
,
1000
0000
1000
0000
0000
0000
0001
0000
1000
0000
0010
0100
0000
0010
0100
0000
,
0001
0000
1000
0000
0100
1000
0100
0000
0020
0000
0000
0000
0031
0000
1000
0000
,
1010
0000
0100
0101
0000
0001
1000
0100
,
0010
0100
0010
0000
0001
0000
0100
0000
0010
0000
1000
0000
0001
1000
0001
0000
,
1000
0100
0010
0000
1100
0000
0011
0000
,
0010
0000
0001
0000
1000
0000
0010
0000
0100
0010
0100
0000
0001
0000
1000
0000
,
1010
0000
0001
0011
0000
0001
1000
0001
,
0010
0000
0100
0000
1000
0001
1000
0000
0100
0000
0010
0000
0001
0010
0001
0000
,
2000
0000
0000
0000
3001
0000
0000
0000
0001
0000
0000
1000
0000
0000
0001
0000
,
0100
0000
0001
0000
1000
0100
1000
0000
0100
0010
0100
0000
0010
0000
0001
0000
,
0100
0000
0001
0000
0010
0100
0010
0000
0100
1000
0100
0000
0010
0000
0001
0000
,
1000
0000
0010
0000
0100
0001
0100
0000
0010
1000
0010
0000
0100
0000
0001
0000
,
0010
0000
0100
0000
1000
0100
1000
0000
0001
0010
0001
0000
1001
0000
0000
0000
,
1000
0000
0001
0000
1000
0010
1000
0000
0001
0100
0001
0000
1000
0000
0100
0000
,
0010
0000
0100
0000
0010
0001
0010
0000
0100
1000
0100
0000
0010
0000
0001
0000
,
1000
0000
0010
0000
0100
0010
0100
0000
0001
1000
0001
0000
0010
0000
0001
0000
,
0100
0000
0010
0000
1000
0010
1000
0000
0001
0000
0010
0100
0000
1000
0001
0000
,
0020
0000
0000
0000
,
0230
0000
0000
0000
,
2300
0000
0000
0000
,
3020
0000
0000
0000
0000
0100
0000
0000
,
0230
0000
0001
0000
0000
0001
0000
0000
,
0302
0000
1000
0000
0000
1000
0000
0000
,
2003
0000
0010
0000
0000
0010
0000
0000
,
3010
0000
0000
0100
0000
0000
0001
0000
0000
0000
2000
0000
0000
0001
0000
0000
,
3001
0000
0000
0000
;

//--------------- dance-single - aboutblank ----------------
#NOTES:
     dance-single:
     aboutblank:
     Challenge:
     16:
     0,0,0,0,0:
0000
0000
0000
0000
,
0000
0000
0000
0000
,
0000
0000
0000
0000
,
0000
0000
0000
0000
,
0000
0000
0000
0000
,
0000
0000
0000
0000
,
1000
0000
0001
0000
0000
0100
0001
0000
,
0001
0000
0010
0000
0000
0010
0100
0000
,
0010
0000
0001
0000
0000
0100
0001
0000
,
1010
0101
1100
0011
,
1001
0000
0000
0000
0001
0000
0000
0100
0001
0000
1000
0000
0010
0000
0100
0000
,
0000
0000
0100
0000
0001
0000
1000
0000
0010
0100
0010
0000
1000
0000
0001
0000
,
0010
0000
0000
0000
0110
0000
0000
1000
0001
0000
0100
0000
0010
0000
0010
0000
,
2000
3002
0023
0230
,
2300
0000
0000
0000
0000
0001
0000
3002
,
0000
0000
1000
1000
,
0023
0000
0000
0000
,
0100
0100
0100
0100
0100
0100
0100
0130
,
1001
0000
0001
0000
1000
0000
0100
0010
0100
1000
0100
0000
0010
0000
0001
0100
,
0010
1000
0010
0101
0000
0001
1000
0100
,
0001
0000
0100
0000
0010
0000
0001
1000
0001
0100
0001
0000
0010
0000
0100
0010
,
0001
0100
0010
1010
0000
0001
0010
0010
,
0100
0000
1000
0000
0001
0000
0100
0010
1000
0010
0100
0000
0001
0000
0100
0010
,
1000
0000
0001
0000
0010
0000
0011
0000
0000
0000
0001
0000
0010
0100
0010
0000
,
0001
0000
1000
0000
0010
0000
0100
0001
0100
0010
0100
0000
0001
0000
0010
0001
,
0100
0001
1000
1010
0000
0101
0010
1000
,
0001
0000
0010
0000
1000
0000
0010
0100
0010
0100
1000
0000
0001
0000
0001
0100
,
0020
0000
0000
0000
1000
0000
2030
0000
0000
0000
3001
0000
0100
0001
0100
0000
,
0010
0000
1000
0000
0001
0010
0100
0000
0010
0000
0001
0000
0100
0010
1000
0000
,
0200
0000
0000
0000
0310
0000
0020
0000
0000
0000
0031
0000
0001
1000
0001
0000
,
0100
0000
0001
0000
1000
0100
1000
0000
0001
0000
1000
0000
0100
0010
0100
0000
,
0020
0000
0000
0000
0031
0000
0102
0000
0000
0000
1003
0000
0001
0010
1000
0000
,
0010
0000
0001
0000
0100
0001
0100
0000
0010
0000
1000
0000
0100
0010
0001
0000
,
0010
0000
0010
0010
0000
0001
1000
0001
,
0100
0000
0001
0010
0100
0000
0010
0000
0001
1000
0100
0010
0100
0000
1000
0000
,
0100
0010
0001
0100
1000
0100
0001
0010
,
0001
0000
1000
0001
0100
0000
0010
0000
1000
0000
0010
0100
0001
0000
0010
0000
,
1000
0010
0100
1000
0100
0001
0101
0000
,
1000
0000
0010
0100
0001
0000
1000
0000
0100
0010
0001
0100
0010
0000
1000
0000
,
0001
0100
0010
0100
0001
1000
0010
0001
,
0010
0000
1000
0100
1000
0000
0001
0000
1000
0000
0100
0010
0100
0000
0010
0000
,
0001
1000
0001
0100
0010
1000
1010
0000
,
0102
0000
1003
0100
0010
0000
0002
0000
1003
0100
0010
0000
0101
0000
0020
0000
,
0000
0000
1030
0000
0100
0010
0100
0000
1000
0000
0001
0000
0100
0000
0010
0000
,
1000
0001
0010
0010
1000
0010
0001
2000
,
0000
3010
0100
0010
1000
0010
0100
0001
,
2020
3030
0100
0202
0303
1000
2200
3300
,
0010
0022
0033
1000
2020
3030
0000
0000
,
2000
0100
3100
0002
0010
0013
2000
0000
,
3010
0000
0000
0010
0000
0000
0010
0000
0000
0000
1010
0000
0000
0000
0000
0000
,
0202
0000
0000
0000
0303
0000
0001
1000
,
0000
0001
1000
0000
0010
0200
0000
0000
,
0301
1000
0001
0000
0100
0001
0000
0020
,
0000
0130
2000
0000
3001
1000
0100
1000
,
0001
0000
0101
0000
0010
1000
0001
0020
,
0000
0130
0200
0000
1300
0010
0100
0001
,
1000
0000
1100
0000
0001
1000
0100
2000
,
0000
3100
0020
0000
0130
1000
0010
0100
,
0001
0000
1001
0000
0100
0100
0010
1000
,
0000
0001
0010
0010
0100
0010
0001
1000
,
1010
0000
0101
0000
0001
0001
0010
0100
,
0020
0032
0203
0320
,
1030
0000
1001
0000
1000
1000
0010
0100
,
1000
0100
0001
0010
0001
1000
0100
0010
,
0001
0100
0001
1000
0010
0100
0001
0010
,
0100
0000
0000
0100
0000
0000
0100
0000
0000
0000
1001
0000
0000
0000
0000
0000
,
0001
0000
0100
0010
0100
0000
0001
0000
0010
0100
0010
0001
1000
0000
0010
0000
,
0100
0000
0001
0010
0100
0000
0010
0001
0010
0001
0100
0000
0001
0000
1000
0000
,
0100
0000
0010
0100
0010
0000
0001
0000
0100
0001
0100
0010
1000
0000
0001
0000
,
1000
0000
0100
0010
0100
0000
0010
0001
0100
1000
0100
0001
0010
0000
0100
0000
,
1001
0000
0001
1000
0100
0000
0010
0000
0001
0100
0010
1000
0010
0000
0100
0000
,
0001
0000
1000
0100
1000
0000
1000
0001
1000
0100
1000
0001
1000
0000
0001
0000
,
0100
0000
0001
0010
0001
0000
1000
0000
0100
0010
0001
0010
0100
0000
0010
0000
,
0001
0000
0001
0000
0100
0000
0001
0000
1000
0000
0100
0010
0000
0100
0010
0000
,
0001
0100
0020
1000
1030
0100
0020
0100
,
0130
0000
1000
0100
0001
0000
0200
0000
0000
0000
0310
0000
0001
1000
0100
0000
,
0010
0000
0100
0000
1000
0010
1000
0000
0001
0000
0100
0000
0010
1000
0010
0000
,
0100
0000
0001
0010
0100
0000
0010
0000
0011
0000
0000
0000
1100
0000
0000
0000
,
0001
0000
1000
0000
0010
0100
0010
0000
0001
0000
1000
0000
0100
0010
0100
0000
,
0101
0000
0000
0000
0010
0000
1010
0000
0000
0000
0001
0000
0010
0100
1000
0000
,
0001
0000
1000
0000
0100
1000
0010
0000
0100
0000
0001
0000
0010
0100
1000
0000
,
2001
0000
0000
0000
3100
0000
0000
0000
1000
0000
0000
0100
0000
0000
0010
0000
,
0001
0000
0100
0010
0100
0000
0001
0010
0100
0000
0010
0001
0000
0010
0100
0000
,
1000
0000
0010
1000
0001
0000
0100
0001
0100
0000
0010
1000
0000
0001
0010
0000
,
0100
0000
1000
0100
0010
0000
0001
1000
0010
0000
0100
0001
0000
0100
0010
0000
,
1000
0000
0010
0100
0001
0000
1000
0001
0100
0000
0001
0010
0000
0001
0010
0000
,
0100
0000
1000
0100
0010
0000
0100
0010
0001
0010
0000
0010
0100
0000
1000
0000
,
0010
0000
0100
0001
1000
0000
0010
0100
0001
1000
0000
1000
0100
0000
0010
0000
,
0001
0000
0100
0010
1000
0000
0001
0010
0100
0010
0000
0010
0001
0000
1000
0010
,
0100
0000
0001
0000
0010
0100
0000
0010
0001
0000
1000
0001
0000
0100
0001
0000
,
2000
0000
0000
3001
0000
0100
0010
0000
,
2000
0001
0001
3001
,
0002
1000
1000
1003
,
0020
0100
0100
0130
,
0002
0000
0013
0000
0100
0010
0001
0200
,
0000
0000
0310
0000
1000
0001
0100
0000
,
2000
0000
3100
0000
0010
1000
0100
0010
,
0001
0000
0000
1000
0000
0000
0001
0000
0000
0000
0110
0000
0000
0000
0000
0000
,
1001
0000
0000
0000
;
