#TITLE:Terror From Above;
#SUBTITLE:;
#ARTIST:Iceburgers;
#TITLETRANSLIT:;
#SUBTITLETRANSLIT:;
#ARTISTTRANSLIT:;
#GENRE:;
#CREDIT:;
#MUSIC:Terror From Above.mp3;
#BANNER:;
#BACKGROUND:;
#CDTITLE:;
#SAMPLESTART:16.009;
#SAMPLELENGTH:15.000;
#SELECTABLE:YES;
#OFFSET:0.866;
#BPMS:0.000=128.000;
#STOPS:;
#BGCHANGES:;
#FGCHANGES:;

//--------------- dance-single - aboutblank ----------------
#NOTES:
     dance-single:
     aboutblank:
     Beginner:
     3:
     0,0,0,0,0:
0000
0000
0000
0000
,
0000
0000
0000
0000
,
0000
0000
0000
0000
,
0000
0000
0000
0000
,
0000
0000
0000
0000
,
1000
0000
1000
0000
,
0100
0000
0000
0000
,
0001
0000
0001
0000
,
0100
0000
0000
0000
,
0010
0000
0000
0000
,
1001
0000
0000
0001
,
1000
0000
1000
0000
,
0010
0000
0010
0000
,
0110
0000
0000
0001
,
1000
0000
0000
1000
,
0001
0000
0001
0000
,
0100
0000
0100
0000
,
0010
0010
0010
0000
,
0010
0010
0010
0000
,
1000
1000
1000
0000
,
1000
1000
1000
0000
,
0001
0001
0001
0000
,
0001
0001
0001
0000
,
0100
0100
0100
0000
,
0100
0100
0100
0000
,
0001
0000
1000
0000
,
0001
0010
0000
0100
,
1000
0000
1000
0000
,
0010
0100
0000
0100
,
0001
0000
0001
0000
,
1000
0100
0000
0010
,
0001
0000
0001
0000
,
1000
0001
0000
0100
,
0010
0000
0010
0000
,
1001
0000
0000
1000
,
0001
0000
0001
0000
,
0100
0000
0100
0000
,
0110
0000
0000
1000
,
0001
0000
0000
0100
,
0010
0000
0010
0000
,
1000
0000
1000
0000
,
0010
0010
0010
0000
,
0100
0100
0100
0000
,
0001
0001
0001
0000
,
1000
1000
1000
0000
,
0100
0100
0100
0000
,
0010
0010
0010
0000
,
0001
1000
0100
0000
,
0010
0001
1000
0000
,
1001
0000
0000
0000
;

//--------------- dance-single - aboutblank ----------------
#NOTES:
     dance-single:
     aboutblank:
     Easy:
     8:
     0,0,0,0,0:
0000
0000
0000
0000
,
0000
0000
0000
0000
,
0000
0000
0000
0000
,
0000
0000
0000
0000
,
0000
0000
0000
0000
,
1000
1000
0001
0001
,
0100
0100
0000
0010
,
1000
1000
0001
0001
,
0100
0010
1000
0001
,
0020
0000
0130
0000
0010
0000
0001
0100
,
1000
0000
0100
0000
0010
1000
0100
0000
,
0010
0000
0010
0000
0001
1000
0001
0000
,
0100
0000
0100
0000
0010
1000
0010
0000
,
0200
0000
0301
0000
1000
0000
0001
0100
,
1000
0000
0100
0000
0010
1000
0100
0000
,
0010
0000
0010
0000
0100
1000
0100
0000
,
1000
0000
1000
0000
0010
0100
0010
0000
,
1000
0100
0010
0001
,
1000
0100
1000
0000
0001
0010
0001
0000
,
1000
1000
0001
0001
,
0100
0010
0100
0000
0001
0010
0001
0000
,
1000
1000
0100
0100
,
0010
0001
0010
0000
0100
1000
0100
0000
,
1000
1000
0001
0001
,
0100
0010
0100
0010
1000
0001
1000
0000
,
0001
0000
0001
0000
0010
0100
1000
0000
,
0001
1000
0100
0000
0100
0000
0011
0000
,
1000
0001
0100
0000
0010
0000
0010
0000
,
1001
0000
1000
0000
0001
1000
0100
0000
,
0010
0000
0001
0100
0001
0100
0001
0000
,
1000
0000
1010
0000
0010
1000
0001
0000
,
1000
0000
0100
0000
0001
0100
1000
0000
,
0010
0100
0010
0000
1000
0001
1000
0000
,
0200
0000
0310
0000
0010
0000
0001
0010
,
1000
0000
0010
0000
0001
1000
0001
0000
,
0100
0000
0100
0000
0001
1000
0001
0000
,
0010
0000
0010
0000
0100
1000
0100
0010
,
0001
0000
0001
0000
1000
0000
0010
1000
,
0001
0000
0001
0000
0100
1000
0100
0001
,
0010
0000
0010
0000
0100
1000
0001
0000
,
0010
0000
0010
0000
0100
1000
0100
1000
,
0001
0001
1000
1000
,
0010
0100
0010
0000
1000
0010
1000
0000
,
0001
0001
0100
0100
,
0010
1000
0010
1000
0100
1000
0100
1000
,
0001
0001
1000
1000
,
0100
0010
0100
0000
0010
0001
0010
0000
,
0001
0001
1000
1000
,
1000
0100
0010
0000
0001
0100
0010
0000
,
1001
0000
0000
0000
;

//--------------- dance-single - aboutblank ----------------
#NOTES:
     dance-single:
     aboutblank:
     Medium:
     11:
     0,0,0,0,0:
0000
0000
0000
0000
,
0000
0000
0000
0000
,
0000
0000
0000
0000
,
0000
0000
0000
0000
,
0000
0000
0000
0000
,
2000
0000
3010
0000
0100
0001
0100
0000
,
0001
1000
0100
0000
0100
1000
0001
0000
,
0002
0000
0013
0000
0100
1000
0100
0000
,
0010
0010
0001
0001
1000
0010
0110
0000
,
0002
0000
1003
0000
1000
0100
0001
0100
,
2000
0000
3010
0000
0100
0010
0100
0000
,
0101
0000
1100
0000
0001
1000
0100
0000
,
1010
0000
0011
0000
1000
0001
0010
0000
,
0021
0000
0130
0000
1000
0100
0010
0010
,
0002
0000
0103
0000
1000
0010
0100
0000
,
0101
0000
0110
0000
0001
0100
0010
0000
,
1100
0000
0110
0000
1000
0100
0001
0000
,
1100
0011
1010
0101
,
1000
0100
0001
0100
1000
0010
0001
0010
,
1000
0101
0001
1010
,
0001
0100
1000
0100
0001
0010
1000
0010
,
0001
0110
1000
0110
,
0001
1000
0010
0100
0001
1000
0100
0010
,
0001
1100
0010
0101
,
1000
0010
0100
0010
0001
0010
1000
0100
,
0001
0110
1000
0110
,
0001
1000
0100
0000
0100
0010
0001
0000
,
0001
0010
0100
0010
1000
0010
0001
0000
,
1001
0000
0100
0000
0001
0010
0100
0000
,
0010
0001
0100
0010
0100
0010
1000
0000
,
0001
1000
0100
0000
0001
0100
1000
0000
,
0010
0100
1000
0100
1000
0100
0010
0000
,
1010
0000
0101
0000
1000
0100
0010
0001
,
2000
0000
3010
0000
0100
0001
0010
1000
,
0020
0000
0031
0000
1000
0001
1000
0000
,
0201
0000
1300
0000
0001
0010
1000
0000
,
1200
0000
0301
0000
1000
0010
0001
0000
,
0200
0000
0301
0000
1000
0100
0010
0100
,
2000
0000
3010
0000
1000
0100
0010
0001
,
0100
0000
1001
0000
1000
0100
0001
0000
,
0110
0000
1001
0000
0001
0010
1000
0000
,
0010
0100
0010
0100
1000
0100
1000
0100
,
0010
0001
1000
0010
0100
0001
0010
0100
,
1000
0001
1000
0001
0100
0001
0100
0001
,
1000
0100
0010
0001
0100
0001
1000
0000
,
0001
0100
0001
0100
1000
0100
1000
0100
,
0001
0010
0100
1000
0001
1000
0100
0010
,
0100
1000
0100
1000
0100
0010
0100
0010
,
1000
0010
0001
1000
0010
0100
0001
0100
,
0110
0000
0000
0000
;

//--------------- dance-single - aboutblank ----------------
#NOTES:
     dance-single:
     aboutblank:
     Hard:
     13:
     0,0,0,0,0:
0000
0000
0000
0000
,
0000
0000
0000
0000
,
0000
0000
0000
0000
,
0000
0000
0000
0000
,
0000
0000
0000
0000
,
1000
0100
0110
0000
0001
0100
0110
0000
,
1000
0100
0110
0000
0001
0010
0100
0010
,
0001
1000
0020
0130
0001
0100
0020
0130
,
0001
0010
0001
0010
0001
0000
1000
0100
0010
0000
0001
0000
0110
0000
1000
0000
,
0201
0000
0000
0000
0310
0000
0000
0010
1000
0000
0001
0000
0100
0001
0100
0001
,
0200
0000
0000
0000
0301
0000
0000
0001
0010
0100
0000
0010
0001
0000
1000
0000
,
0020
0000
0000
0000
1030
0000
0000
0100
0000
0000
0100
0000
0001
0000
0000
0000
,
0020
0000
0000
0000
0031
0000
0000
0100
0000
0000
0100
0000
1000
0000
0000
0000
,
2001
0000
0000
0000
3100
0000
0000
0001
1000
0000
0001
0000
0100
0010
0100
0010
,
0100
0000
0000
0001
0010
0000
0000
0100
1000
0001
0000
1000
0001
0000
0100
0000
,
1020
0000
0000
0000
0130
0000
0000
0001
0000
0000
1000
0000
0100
0000
0000
0000
,
0021
0000
0000
0000
0130
0000
0000
1000
0000
0001
0010
0000
2000
0000
0000
0000
,
3010
0000
0000
0010
0001
0000
0000
0000
0100
0000
0000
0100
1000
0000
0000
0000
,
0001
0010
0001
0000
0010
1000
0010
0000
1000
0100
0000
0100
0020
0000
0031
0000
,
2000
3100
0002
0013
,
0010
0001
1000
0000
0100
0000
0100
0000
0010
0001
0000
0000
1001
0000
0000
0000
,
0101
0000
0001
0100
0010
0000
1000
0000
0200
0000
0000
0000
0320
0000
0000
0000
,
0031
0000
0010
0001
1000
0000
0010
1000
0001
0000
0010
0000
0200
0000
1300
0000
,
0002
0000
1003
1000
0100
0100
0010
0010
,
0100
0000
1000
0100
0010
0000
1000
0010
0100
0010
0001
0000
1001
0000
0100
0000
,
0101
0000
0000
1000
0100
0000
0001
0000
0100
0010
0100
0000
0010
0000
0001
0000
,
1010
0000
0100
0000
0101
0000
1000
0000
0001
0000
0010
0100
1000
0000
0010
0000
,
0010
0000
0100
0001
0100
0000
0010
0000
1000
0010
0100
0000
0001
0000
1000
0000
,
0010
0100
0000
0000
0110
0000
0000
0000
0001
0000
1000
0000
0101
0000
0010
0000
,
1000
0001
0010
0000
0100
0000
0010
0000
0001
0010
0001
0010
0001
0000
0000
0000
,
0001
0000
1000
0010
0100
0000
0001
0000
1000
0100
0010
0100
1000
0000
0000
0000
,
0001
0000
0100
0010
0100
0000
0001
0000
0010
0000
1000
0000
0010
0000
0001
0000
,
1000
0010
0000
0000
1010
0000
0000
0000
0001
0000
1000
0100
0001
0000
0100
0000
,
1200
0000
0000
0000
0310
0000
0000
0001
0010
0000
0100
0000
0010
0001
0010
0001
,
0020
0000
0000
0000
0031
0000
0000
0001
1000
0001
1000
0000
0010
0000
0100
0000
,
1020
0000
0000
0000
0130
0000
0000
0021
0000
0000
0100
0000
0130
0000
0000
0000
,
2001
0000
0000
0000
3100
0000
0000
1002
0000
0000
0100
0000
0103
0000
0000
0000
,
0011
0000
0000
1000
0010
0000
0000
0001
0010
0000
1000
0000
0100
0010
0100
0010
,
0100
0000
0000
1000
0100
0000
0000
0001
0100
0010
0001
1000
0010
0000
0100
0000
,
0201
0000
0000
0000
0310
0000
0000
1200
0000
0000
0010
0000
0310
0000
0000
0000
,
0210
0000
0000
0000
0301
0000
0000
0120
0000
0000
1000
0000
1030
0000
0000
0000
,
0001
0100
0001
0000
1000
0100
1000
0000
0001
0000
1000
0000
0010
0000
0100
0000
,
0001
0010
0001
0000
1000
0010
1000
0000
0001
0000
0010
0000
0110
0000
1000
0000
,
0001
1000
0001
0000
1000
0100
1000
0000
0010
0000
0100
0000
0001
0000
0010
0000
,
0001
1000
0001
0000
0100
0001
0100
0000
0010
0000
1000
0000
0101
0000
0001
0000
,
0010
0100
0010
0000
0001
0010
0001
0000
1000
0100
1000
0000
0100
0010
0100
0000
,
0010
0000
0001
1000
0001
0000
0100
0010
0100
0000
0001
0000
0011
0000
1000
0000
,
0001
0100
0001
0000
1000
0100
1000
0000
0001
0010
0001
0000
1000
0010
1000
0000
,
0001
0100
0010
0000
1000
0100
0010
0000
0001
0010
0100
1000
0001
0100
0010
1000
,
0002
0000
0000
0000
,
0000
0000
0000
0003
;
