#TITLE:Tactical;
#SUBTITLE:;
#ARTIST:Drew Campbell;
#TITLETRANSLIT:;
#SUBTITLETRANSLIT:;
#ARTISTTRANSLIT:;
#GENRE:;
#CREDIT:;
#MUSIC:Tactical.ogg;
#BANNER:Tactical.png;
#BACKGROUND:Tactical-bg.png;
#CDTITLE:./CDTITLES/Dance Dance Revolution UNIVERSE 2.png;
#SAMPLESTART:19.084;
#SAMPLELENGTH:17.004;
#SELECTABLE:YES;
#OFFSET:1.545;
#BPMS:0.000=151.065;
#STOPS:;
#DISPLAYBPM:151.000;
#BGCHANGES:;
#FGCHANGES:;

//--------------- dance-single - KONAMI ----------------
#NOTES:
     dance-single:
     KONAMI:
     Beginner:
     3:
     0.149,0,0.037,0.019,0:
0000
0000
0000
0000
,
0000
0000
0000
0000
,
0000
0000
0000
0000
,
0000
0000
0000
0000
,
0000
0000
0000
0000
,
1000
0000
0000
0000
,
1000
0000
0000
0000
,
0001
0000
0000
0000
,
0001
0000
0000
0000
,
0100
0100
0000
0000
,
0010
0010
0000
0000
,
1000
1000
0000
0000
,
1001
0000
0000
0000
,
0010
0000
0010
0000
,
0010
0000
0000
0000
,
0100
0000
0100
0000
,
0100
0000
0000
0000
,
0001
0000
0001
0000
,
0001
0000
0000
0000
,
1000
0000
1000
0000
,
1000
0000
0000
0000
,
0010
0010
0000
0010
,
0000
0010
0000
1000
,
0000
1000
0000
1000
,
0000
0100
0000
0100
,
0100
0000
0000
0000
,
0001
0000
0000
0000
,
1000
0000
0000
0000
,
1001
0000
0000
0000
,
0100
0000
0010
0000
,
0100
0000
0000
0000
,
1000
0000
0001
0000
,
1000
0000
0000
0000
,
0100
0000
0010
0000
,
0100
0000
0000
0000
,
1000
0000
0001
0000
,
1000
0000
0000
0000
,
0010
0000
0100
0000
,
0010
0000
0000
0000
,
0001
0000
0001
0000
,
0001
0000
0000
0000
,
0100
0000
0100
0000
,
0100
0000
0000
0000
,
1000
0000
1000
0000
,
1001
0000
0000
0000
,
0010
0000
0010
0000
,
0010
0000
0010
0000
,
1000
0000
1000
0000
,
1000
0000
0000
0000
,
0001
0000
0001
0000
,
0001
0000
0001
0000
,
0100
0000
0100
0000
,
0200
0000
0000
0300
,
0100
0100
0100
0000
,
0010
0000
0010
0000
,
1000
1000
1000
0000
,
0001
0000
0001
0000
,
0010
0010
0000
0010
,
0000
0100
0000
0100
,
0000
1000
0000
1000
,
2000
0000
0000
3000
,
1000
1000
0000
0001
,
0000
0001
0000
0100
,
0000
0100
0000
0010
,
0000
0010
0010
0000
,
1000
0000
1000
0000
,
0001
0000
0001
0000
,
0100
0000
0000
0000
,
0110
0000
0000
0000
;

//--------------- dance-single - KONAMI ----------------
#NOTES:
     dance-single:
     KONAMI:
     Easy:
     5:
     0.229,0,0.037,0.102,0:
0000
0000
0000
0000
,
0000
0000
0000
0000
,
0000
0000
0000
0000
,
0000
0000
0000
0000
,
0000
0000
0000
0000
,
1000
0000
0001
0000
,
1000
0000
0100
0000
,
0010
0000
0001
0000
,
0100
0000
0010
0000
,
1000
1000
0001
0100
,
0010
0000
0010
0000
,
0100
0001
1000
0100
,
0010
0000
0000
0000
,
0010
0010
1000
0000
,
0001
0000
1000
0000
,
0010
0000
0001
0000
,
1000
0100
0100
0000
,
0010
0010
0001
0000
,
1000
0000
0100
0000
,
0001
0000
0100
0000
,
1000
0001
1001
0000
,
1000
0100
0010
0000
,
1000
0100
0010
0000
,
0001
0000
0100
0000
,
0010
0000
1000
0000
,
0001
0100
0010
0000
,
0001
0100
0010
0000
,
2000
0000
0000
3000
,
0002
0000
0000
0003
,
1000
0000
0001
0000
,
0100
0000
0001
0000
,
1000
0000
0010
0000
,
0100
0000
0001
0000
,
0100
0100
0010
0000
,
1000
1000
0100
0000
,
0010
0010
0001
0000
,
1000
1000
0001
0000
,
0100
0010
0100
0001
,
1000
0100
1000
0000
,
0010
0100
0010
1000
,
0001
0100
0001
0000
,
1000
0100
0010
0001
,
1000
0000
1000
0000
,
0001
0100
0010
1000
,
0001
0000
0001
0000
,
0200
0000
0000
0300
,
0020
0000
0000
0030
,
2000
0000
0000
3000
,
0002
0000
0000
0003
,
0020
0000
0030
0100
,
0200
0000
0300
1000
,
2000
0000
3000
0000
,
0220
0000
0000
0330
,
0010
0010
0100
0000
,
0100
1000
0001
0100
,
0010
0000
1000
0000
,
0001
0001
0100
0000
,
0010
1000
0001
0100
,
0010
0000
0010
0000
,
1000
1000
0100
0000
,
1000
0000
0001
0000
,
0010
0010
0100
0010
,
0001
1000
0100
0000
,
1000
0000
0010
0000
,
0100
0000
0001
0000
,
0100
0010
0100
0001
,
1000
0001
1000
0010
,
0110
0000
1000
0000
,
1001
0000
0000
0000
;

//--------------- dance-single - KONAMI ----------------
#NOTES:
     dance-single:
     KONAMI:
     Medium:
     7:
     0.331,0,0.204,0.139,0:
0000
0000
0000
0000
,
0000
0000
0000
0000
,
0000
0000
0000
0000
,
0000
0000
0000
0000
,
0000
0000
0000
0000
,
0020
0000
0000
1030
0000
0000
0000
0000
,
0002
0000
0000
1003
0000
0000
0000
0000
,
0020
0000
0000
0130
0000
0000
0000
0000
,
2000
0000
0000
3100
0000
0000
0000
0000
,
0002
0000
0000
0103
0000
0000
0010
0000
,
2000
0000
0000
3001
0000
0000
1000
0000
,
0002
0000
0000
0103
0000
0000
0010
0000
,
1001
0000
0000
0000
,
0010
1000
0010
0000
0001
0000
0010
0000
,
0100
1000
0001
0100
,
0001
0010
0001
0000
1000
0000
0100
0000
,
0010
1000
0100
1001
,
0100
1000
0100
0000
0010
0000
0010
0000
,
0001
0010
1000
0010
,
0001
0100
0001
0000
0100
0000
0001
0000
,
1000
0010
1000
0100
,
1001
0000
0000
0110
0000
0000
0010
0000
,
1000
0000
0000
0001
0000
0000
0001
0000
,
1000
0000
0000
0010
0000
0000
0100
0000
,
1001
0000
0000
0100
0000
0000
1001
0000
,
0110
0000
0000
0010
0000
0000
1000
0000
,
0100
0000
0000
0010
0000
0000
0001
0000
,
2002
0000
0000
3003
,
0220
0000
0000
0330
,
0010
0000
0001
0010
0000
0000
0100
0000
,
0110
0000
0000
0110
0000
0000
1000
0000
,
0010
0000
0000
0100
0000
0000
0010
0000
,
1001
0000
0000
1001
0000
0000
0110
0000
,
1000
0000
0000
0100
0000
0000
0001
0000
,
0001
0000
0000
0100
0000
0000
1000
0000
,
1001
0000
0010
0000
0000
1000
0000
0000
,
0100
0000
0000
0110
0000
0000
0010
0000
,
0001
0000
0000
0010
0000
0000
1000
0000
,
0010
0000
0000
0001
0000
0000
1000
0000
,
0100
0000
0000
1000
0000
0000
0100
0000
,
0010
0000
0000
0001
0000
0000
1000
0000
,
0001
0001
0100
0010
,
1000
1000
0010
0100
,
0001
0100
0001
0100
,
2020
0000
0000
3030
,
0100
0000
0000
0100
0000
0000
0100
0000
,
0010
0000
0000
0010
0000
0000
0010
0000
,
0001
0000
0000
0001
0000
0000
0001
0000
,
1000
0000
0000
1000
0000
0000
1000
0000
,
0110
0000
0000
0010
0000
0000
0100
0000
,
0110
0000
0000
1000
0000
0000
0001
0000
,
1001
0000
0000
0010
0000
0000
1000
0000
,
2002
0000
0000
3003
,
1000
0100
0010
0001
,
0010
1000
0001
0100
,
1000
0010
0100
0001
,
0100
0100
0010
0010
,
1000
0001
0100
0001
,
0010
0100
0010
0001
,
0100
0010
1000
0010
,
0100
1000
0001
1000
,
0010
0010
0100
0000
0001
0000
1000
0000
,
0100
0010
0100
1000
,
0001
0001
0010
0000
0001
0000
0100
0000
,
0010
1000
0100
1000
,
0010
0100
0010
0000
0100
0010
0100
0000
,
1000
0001
1000
0000
0001
1000
0001
0000
,
1000
0100
0010
0001
,
0110
0000
0000
0000
;

//--------------- dance-single - KONAMI ----------------
#NOTES:
     dance-single:
     KONAMI:
     Hard:
     11:
     0.479,0,0.268,0.111,0.065:
0000
0000
0000
0000
,
0000
0000
0000
0000
,
0000
0000
0000
0000
,
0000
0000
0000
0000
,
0000
0000
0000
0000
,
1001
0000
0000
0010
0000
0000
1000
0000
,
0100
0000
0000
1000
0000
0000
0001
0000
,
0010
0000
0000
0100
0000
0000
0001
0000
,
0010
0000
0000
1000
0000
0000
0100
0000
,
1000
0000
0000
0001
0000
0000
0010
0000
,
0001
0000
0000
0100
0000
0000
0010
0000
,
1000
0000
0000
1000
0000
0000
1000
0000
,
0110
0000
0000
0000
,
1000
0001
0100
0010
1000
0100
0001
0000
,
0100
1000
0010
0001
0010
0100
0001
0000
,
1000
0010
0100
1000
0100
0001
0010
0000
,
0001
0010
0100
1000
0100
0010
0001
0000
,
1000
0100
0010
0000
1000
0100
0010
0000
,
0001
0100
0010
0000
0001
0100
0010
0000
,
0010
1000
0001
0000
0010
1000
0001
0000
,
0100
0000
1000
0000
0100
0001
1000
0000
,
0010
0000
1000
0010
0000
0100
0010
0000
,
0100
0000
0001
0010
0000
0100
0010
0000
,
0001
0000
1000
0100
0000
0010
0001
0000
,
1000
0000
0100
1000
0000
0001
0100
0000
,
1100
0000
0000
0011
0000
0000
0100
0000
,
1010
0000
0000
0101
0000
0000
1000
0000
,
0200
0000
0000
0010
0000
0000
0001
0000
,
0020
0000
0000
0330
,
1001
0000
0000
0101
0000
0000
0010
1000
,
0100
0000
0000
1000
0000
0000
0010
0010
,
0100
0000
0000
0001
0000
0000
1000
0000
,
1001
0000
0000
0011
0000
0000
1100
0000
,
0101
0000
0010
1000
0000
1000
0100
0000
,
0010
0000
0001
0100
0000
0100
0001
0000
,
0010
0000
0100
1000
0000
1000
0100
0000
,
1000
0000
0001
0100
0000
0100
0001
0000
,
1001
0000
0001
0100
1000
0001
0100
0000
,
1010
0000
0001
0010
0000
0010
0100
0000
,
1100
0000
1000
0001
0100
0010
0001
0000
,
0110
0000
0010
1000
0010
0100
0001
0000
,
1001
0000
1000
0100
0000
0001
0010
0001
,
1000
0000
0001
0100
0000
1000
0010
1000
,
0001
0000
0100
0001
0000
1000
0100
0000
,
0021
0000
0000
0100
0000
0000
1030
0000
,
0210
0000
0000
1000
0000
0000
0302
0000
,
0010
0000
0000
2003
0000
0000
3002
0000
,
0010
0000
0000
0203
0000
0000
1000
0000
,
0302
0000
0000
1000
0000
0000
0013
0000
,
1100
0000
0000
0102
0000
0000
0000
0010
,
0013
0000
0000
2010
0000
0000
0000
0100
,
3100
0000
0000
0201
0000
0000
0310
0000
,
0010
1000
0010
0000
1000
0100
1000
0000
,
0100
0000
0010
0000
0001
0010
0000
0010
0001
0000
0100
0000
0010
0000
1000
0000
,
0001
1000
0100
0010
0001
0100
0010
0000
,
1000
0000
0001
0000
0100
0010
0000
0010
0100
0000
0001
0000
1000
0000
0000
0000
,
0100
0000
0010
0000
0001
1000
0000
1000
0001
0000
0100
0000
0010
0000
0000
0000
,
1000
0001
0100
0001
0001
1000
0100
0100
,
0010
0001
0100
0010
1000
1000
0100
0100
,
1000
0010
0100
0001
0010
0100
1000
0100
,
0001
0010
0001
0100
0001
1000
0100
0000
,
1000
0000
0100
0000
0010
0001
0000
0010
0100
0000
1000
0000
0010
0000
0000
0000
,
0100
0000
0001
0000
1000
0010
0000
0100
0001
0000
0010
0000
0100
0000
0000
0000
,
1000
0000
0001
0000
0010
0001
0000
0001
0010
0000
0100
0000
1000
0000
0010
0000
,
0100
0000
0001
0000
0001
0100
0000
0100
0010
0000
1000
0000
0100
0000
0000
0000
,
0011
0000
1000
1010
0000
0001
0100
0010
,
0110
0000
1000
1100
0000
0001
1000
0100
,
0110
0000
0001
0100
0000
0010
1000
0000
,
0110
0000
0000
0000
;

//--------------- dance-single - forcednature ----------------
#NOTES:
     dance-single:
     forcednature:
     Challenge:
     14:
     0,0,0,0,0:
0000
0000
0000
0000
,
0000
0000
0000
0000
,
0000
0000
0000
0000
,
0000
0000
0000
0000
,
0000
0000
0000
0000
,
1002
0000
0000
0100
0000
0000
1000
0000
,
0023
0000
0000
1000
0000
0000
0001
0000
,
0230
0000
0000
1000
0000
0000
0001
0000
,
2300
0000
0000
0010
0000
0000
0001
0000
,
3100
0000
0000
1000
0000
0000
0010
0000
,
0100
0000
0000
0001
0000
0000
0010
0000
,
0100
0000
0000
0000
,
2002
0000
3003
0000
,
0001
0000
0100
0000
0010
1000
0001
1000
0100
0000
0010
0000
0001
0000
0000
0000
,
1000
0000
0010
0000
1000
0100
1000
0010
0100
0000
0001
0000
0010
0000
0000
0000
,
0100
0000
0010
0000
0001
0100
0010
1000
0001
0000
1000
0000
0100
0000
0000
0000
,
0010
0000
0001
0000
0000
0100
0000
0010
1000
0000
0001
0000
1000
0100
0000
0000
,
0010
0000
0001
0000
1000
0010
0100
0001
1000
0000
0100
0000
0001
0000
0000
0000
,
0100
0000
0010
0000
0001
1000
0010
0100
0001
0000
1000
0000
0010
0000
0000
0000
,
0001
0000
0010
0000
0100
0001
1000
0100
0010
0000
0100
0000
1000
0000
0000
0000
,
0010
0000
0100
0000
0000
0001
0000
0010
0100
0000
1000
0000
0010
0000
0000
0000
,
0100
0000
0001
0000
1000
0010
1000
0100
0010
0000
0001
0000
0100
0000
1000
0000
,
0100
0000
0010
0000
1000
0100
0010
0001
0100
0000
0010
0000
0001
0000
0010
0000
,
1000
0000
0100
0000
0010
0001
1000
0010
1000
0000
0100
0000
0001
0000
0100
0000
,
0010
0000
0001
0000
0000
1000
0000
0010
0100
0000
0001
0000
1000
0000
0000
0000
,
0100
0000
1000
0000
0010
0100
0010
0100
0010
0000
1000
0000
0001
0000
0000
0000
,
0010
0000
0100
0000
1000
0001
1000
0001
1000
0000
0010
0000
0100
0000
0000
0000
,
2002
0000
3003
0000
,
0110
0000
0000
0000
1000
0000
0001
0000
0000
0000
0100
0000
0010
0100
0000
0000
,
0101
0000
1000
0010
0000
1000
0100
0001
,
0100
0000
0010
0001
0000
1000
0010
0001
,
0010
0000
0100
0001
0000
1000
0010
1000
,
0100
0000
0010
1000
0000
0010
0001
1000
,
0001
0000
0100
1000
0000
0100
0010
1000
,
0001
0000
1000
0100
0000
1000
0010
0001
,
0010
0000
0100
0001
0000
0010
1000
0010
,
0001
0000
1000
0010
0000
0100
0001
0000
,
1000
0010
1000
0100
1000
0010
0001
0000
,
0010
0100
0001
0010
1000
0010
0100
0000
,
1000
0001
0100
1000
0100
0001
0010
0000
,
0100
0001
0100
1000
0010
1000
0001
0000
,
1000
0010
0001
0010
0100
1000
0100
0000
,
0001
1000
0100
0010
0001
0100
0010
0000
,
1000
0000
1000
0001
0000
0001
0010
0000
,
0100
0000
0000
0100
0000
0000
0010
0000
,
2002
0000
0000
3000
,
0200
0000
0000
0003
,
0020
0000
0000
0300
,
2000
0000
0000
3030
,
2002
0000
0000
3003
,
0220
0000
0000
0330
,
2002
0000
0000
3003
,
0110
0000
0001
1000
0000
1000
0001
0000
,
1000
0000
0100
0000
0010
0001
0100
0010
1000
0000
0001
0000
0100
0001
0000
1000
,
0010
0000
0100
0000
0001
0010
0100
1000
0010
0000
1000
0000
0001
0010
0000
0001
,
0100
0000
0010
0000
1000
0001
1000
0100
1000
0000
0010
0000
0100
0001
0000
0010
,
0100
0000
1000
0000
0000
0010
0000
0100
0001
0000
0010
0000
0100
1000
0000
0000
,
0001
0000
0100
0000
0010
1000
0001
0010
0001
0000
0100
0000
0010
1000
0000
0100
,
0010
0000
0001
0000
0100
0001
1000
0010
1000
0000
0100
0000
0010
0001
0000
0010
,
0100
0000
1000
0000
0001
0100
0001
1000
0010
0000
1000
0000
0001
1000
0000
0100
,
0010
0000
0001
0000
0000
0100
0000
0010
1000
0000
0001
0000
1000
0100
0000
0000
,
0010
0001
0010
0000
0100
1000
0001
1000
0010
0000
0100
0000
0001
1000
0000
0010
,
1000
0001
0100
0000
0010
1000
0100
0010
0100
0000
1000
0000
0001
0100
0000
0001
,
1000
0100
0010
0000
0100
1000
0001
0010
0001
0000
0100
0000
0001
1000
0000
0010
,
1000
0000
0001
0000
0000
0010
0000
0100
1000
0000
0010
0000
0100
0001
0000
0000
,
0100
0010
1000
0000
0100
0010
0001
1000
0010
0000
0100
0000
0001
0010
0000
0100
,
1000
0010
0100
0000
0001
1000
0100
1000
0001
0000
0100
0000
0010
1000
0000
0001
,
0010
0000
0000
0100
0000
0000
1000
0000
,
2002
0000
3003
0000
;

//--------------- dance-double - KONAMI ----------------
#NOTES:
     dance-double:
     KONAMI:
     Easy:
     5:
     0.229,0,0.037,0.102,0:
00000000
00000000
00000000
00000000
,
00000000
00000000
00000000
00000000
,
00000000
00000000
00000000
00000000
,
00000000
00000000
00000000
00000000
,
00000000
00000000
00000000
00000000
,
00000001
00000000
00000100
00000000
,
00001000
00000000
00010000
00000000
,
01000000
00000000
10000000
00000000
,
01000000
00000000
00100000
00000000
,
00001000
00001000
00010000
00010000
,
00001000
00000000
00000100
00000000
,
00000001
00000010
00000100
00001000
,
00000001
00000000
00000000
00000000
,
00000010
00000100
00010000
00000000
,
00001000
00000000
00100000
00000000
,
01000000
00000000
00100000
00000000
,
00010000
01000000
01000000
00000000
,
00100000
00100000
10000000
00000000
,
01000000
00000000
00100000
00000000
,
00001000
00000000
00010000
00000000
,
00000100
00000010
00000110
00000000
,
00000001
00001000
00000001
00000000
,
00000010
00001000
00010000
00000000
,
00100000
00000000
10000000
00000000
,
01000000
00000000
10000000
00000000
,
00100000
01000000
00100000
00000000
,
00010000
10000000
00010000
00000000
,
20000000
00000000
00000000
30000000
,
02000000
00000000
00000000
03000000
,
00010000
00000000
00010000
00000000
,
00001000
00000000
00001000
00000000
,
00000100
00000000
00000001
00000000
,
00000010
00000000
00001000
00000000
,
00010000
00010000
00001000
00000000
,
00001000
00001000
00010000
00000000
,
00100000
00100000
10000000
00000000
,
01000000
01000000
00010000
00000000
,
01000000
10000000
01000000
10000000
,
00100000
00010000
00001000
00000000
,
00000010
00000001
00000010
00000001
,
00000100
00001000
00010000
00000000
,
00001000
00010000
00001000
00010000
,
00000100
00000000
00000010
00000000
,
00000100
00001000
00000001
00000100
,
00000010
00000000
00010000
00000000
,
00002000
00000000
00000000
00003000
,
00020000
00000000
00000000
00030000
,
02000000
00000000
00000000
03000000
,
00200000
00000000
00000000
00300000
,
00020000
00000000
00030000
10000000
,
02000000
00000000
03000000
00100000
,
00020000
00000000
00030000
00000000
,
02200000
00000000
00000000
03300000
,
10000000
10000000
01000000
00000000
,
01000000
00010000
00001000
00010000
,
00000100
00000000
00000010
00000000
,
00000001
00000100
00000010
00000000
,
00010000
00001000
00010000
00001000
,
00100000
00000000
01000000
00000000
,
10000000
00010000
01000000
00000000
,
10000000
00000000
00010000
00000000
,
10000000
00100000
01000000
00100000
,
10000000
00010000
01000000
00000000
,
00001000
00000000
00010000
00000000
,
00000010
00000000
00000100
00000000
,
00000001
00000010
00000100
00000010
,
00000001
00000010
00001000
00010000
,
00011000
00000000
00001000
00000000
,
00011000
00000000
00000000
00000000
;

//--------------- dance-double - KONAMI ----------------
#NOTES:
     dance-double:
     KONAMI:
     Medium:
     7:
     0.331,0,0.204,0.139,0:
00000000
00000000
00000000
00000000
,
00000000
00000000
00000000
00000000
,
00000000
00000000
00000000
00000000
,
00000000
00000000
00000000
00000000
,
00000000
00000000
00000000
00000000
,
00000002
00000000
00000000
00000103
00000000
00000000
00000000
00000000
,
00000200
00000000
00000000
00001300
00000000
00000000
00000000
00000000
,
00020000
00000000
00000000
00031000
00000000
00000000
00000000
00000000
,
00002000
00000000
00000000
00013000
00000000
00000000
00000000
00000000
,
00200000
00000000
00000000
01300000
00000000
00000000
00100000
00000000
,
20000000
00000000
00000000
31000000
00000000
00000000
00010000
00000000
,
00002000
00000000
00000000
00013000
00000000
00000000
00000100
00000000
,
00000110
00000000
00000000
00000000
,
00000001
00000010
00000001
00000000
00000100
00000000
00001000
00000000
,
00010000
01000000
00100000
00010000
,
10000000
01000000
10000000
00000000
00010000
00000000
00100000
00000000
,
00001000
00000000
00000000
00000000
00010000
00000000
00000000
00000000
00001000
00000000
00000000
00001000
00011000
00000000
00000000
00000000
,
00000010
00001000
00000010
00000000
00000100
00000000
00000100
00000000
,
00000001
00000010
00001000
00000010
,
00000100
00001000
00000100
00000000
00010000
00000000
00001000
00000000
,
00100000
00010000
01000000
00100000
,
10010000
00000000
00000000
01100000
00000000
00000000
10000000
00000000
,
01000000
00000000
00000000
00010000
00000000
00000000
00001000
00000000
,
00100000
00000000
00000000
00010000
00000000
00000000
01000000
00000000
,
01010000
00000000
00000000
00001000
00000000
00000000
00011000
00000000
,
00011000
00000000
00000000
00000100
00000000
00000000
00001000
00000000
,
00000010
00000000
00000000
00001000
00000000
00000000
00000001
00000000
,
00000220
00000000
00000000
00000330
,
00002002
00000000
00000000
00003003
,
00000100
00000000
00001000
00010000
00000000
00000000
00001000
00000000
,
00011000
00000000
00000000
00011000
00000000
00000000
00100000
00000000
,
01000000
00000000
00000000
10000000
00000000
00000000
00010000
00000000
,
01100000
00000000
00000000
01100000
00000000
00000000
10010000
00000000
,
01000000
00000000
00000000
00010000
00000000
00000000
00001000
00000000
,
00001000
00000000
00000000
00000100
00000000
00000000
00000010
00000000
,
00000110
00000000
00000001
00000000
00000000
00000100
00000000
00000000
,
00001000
00000000
00000000
00011000
00000000
00000000
00100000
00000000
,
00001000
00000000
00000000
00010000
00000000
00000000
01000000
00000000
,
10000000
00000000
00000000
00100000
00000000
00000000
00010000
00000000
,
00001000
00000000
00000000
00010000
00000000
00000000
00000100
00000000
,
00000010
00000000
00000000
00000100
00000000
00000000
00001000
00000000
,
00000001
00000001
00000100
00001000
,
00010000
00010000
00001000
00100000
,
00010000
01000000
00100000
01000000
,
20200000
00000000
00000000
30300000
,
01000000
00000000
00000000
01000000
00000000
00000000
01000000
00000000
,
00010000
00000000
00000000
00010000
00000000
00000000
00010000
00000000
,
00001000
00000000
00000000
00001000
00000000
00000000
00001000
00000000
,
00000010
00000000
00000000
00000010
00000000
00000000
00000010
00000000
,
00001001
00000000
00000000
00000100
00000000
00000000
00001000
00000000
,
00011000
00000000
00000000
00001000
00000000
00000000
00010000
00000000
,
00011000
00000000
00000000
00100000
00000000
00000000
01000000
00000000
,
20020000
00000000
00000000
30030000
,
10000000
01000000
00010000
00001000
,
00010000
00001000
00000100
00000010
,
00001000
00000001
00000100
00001000
,
00010000
00010000
00001000
00001000
,
00100000
00010000
01000000
00010000
,
10000000
01000000
00100000
00010000
,
01000000
00001000
00010000
00001000
,
00000100
00000010
00001000
00000100
,
00000010
00000010
00000001
00000000
00000100
00000000
00001000
00000000
,
00010000
01000000
10000000
00010000
,
00100000
00100000
00010000
00000000
10000000
00000000
01000000
00000000
,
00010000
00001000
00010000
00000010
,
00001000
00000010
00001000
00000000
00000010
00001000
00000010
00000000
,
00000100
00000001
00000100
00000000
00000001
00000100
00000001
00000000
,
00001000
00000100
00010000
00001000
,
00011000
00000000
00000000
00000000
;

//--------------- dance-double - KONAMI ----------------
#NOTES:
     dance-double:
     KONAMI:
     Hard:
     11:
     0.446,0,0.268,0.111,0:
00000000
00000000
00000000
00000000
,
00000000
00000000
00000000
00000000
,
00000000
00000000
00000000
00000000
,
00000000
00000000
00000000
00000000
,
00000000
00000000
00000000
00000000
,
10010000
00000000
00000000
00100000
00000000
00000000
10000000
00000000
,
01000000
00000000
00000000
00010000
00000000
00000000
00001000
00000000
,
00000100
00000000
00000000
00000001
00000000
00000000
00001000
00000000
,
00000010
00000000
00000000
00010000
00000000
00000000
00001000
00000000
,
00010000
00000000
00000000
01000000
00000000
00000000
10000000
00000000
,
00100000
00000000
00000000
00010000
00000000
00000000
00001000
00000000
,
00010000
00000000
00000000
00000000
,
00000110
00000000
00000000
00000000
,
00001000
00000001
00000100
00000010
00001000
00000100
00010000
00000000
,
00001000
00100000
00010000
01000000
00100000
10000000
01000000
00000000
,
00010000
01000000
10000000
00100000
00010000
00001000
00000100
00000000
,
00000001
00000010
00000100
00001000
00000100
00000010
00000001
00000000
,
00000100
00001000
00000010
00000000
00000100
00000001
00001000
00000000
,
00000100
00010000
00001000
00000000
00100000
00010000
01000000
00000000
,
00100000
10000000
00010000
00000000
01000000
00100000
10000000
00000000
,
01000000
00010000
00001000
00000000
00000100
00000001
00001000
00000000
,
00000010
00000000
00001000
00000001
00000000
00000100
00001000
00000000
,
00010000
00000000
00001000
00100000
00000000
00010000
01000000
00000000
,
00100000
00000000
10000000
01000000
00000000
00100000
00010000
00000000
,
10000000
00000000
01000000
00010000
00000000
00001000
00000100
00000000
,
00000010
00000000
00000000
00001001
00000000
00000000
00000010
00000000
,
00001000
00000000
00000000
00011000
00000000
00000000
00010000
00000000
,
00200000
00000000
00000000
00000000
,
02000000
00000000
00000000
03300000
,
10010000
00000000
00000000
01000000
00000000
00000000
00100000
00010000
,
01000000
00000000
00000000
00001000
00000000
00000000
00010000
00010000
,
00000100
00000000
00000000
00001000
00000000
00000000
00000010
00000000
,
00000110
00000000
00000000
00001100
00000000
00000000
00000011
00000000
,
00000101
00000000
00000100
00001000
00000000
00001000
00010000
00000000
,
00001000
00000000
00100000
00010000
00000000
00010000
01000000
00000000
,
11000000
00000000
00010000
10000000
00000000
10000000
01000000
00000000
,
00010000
00000000
00001000
00000100
00000000
00000100
00000010
00000000
,
00001010
00000000
00000010
00000100
00000001
00001000
00000100
00000000
,
00001100
00000000
00000100
00010000
00000000
00010000
00001000
00000000
,
00101000
00000000
00100000
00010000
01000000
00001000
00010000
00000000
,
00101000
00000000
00100000
00010000
00000000
10000000
01000000
00000000
,
10100000
00000000
00010000
01000000
00000000
00001000
00010000
00001000
,
00000010
00000000
00000001
00001000
00000000
00000010
00000100
00000010
,
00001000
00000000
00000010
00010000
00000000
00001000
01000000
00000000
,
01200000
00000000
00000000
10000000
00000000
00000000
01300000
00000000
,
20010000
00000000
00000000
01000000
00000000
00000000
30020000
00000000
,
00100000
00000000
00000000
02030000
00000000
00000000
03002000
00000000
,
00010000
00000000
00000000
00003020
00000000
00000000
00000100
00000000
,
00002030
00000000
00000000
00000001
00000000
00000000
00003100
00000000
,
00000110
00000000
00000000
00001002
00000000
00000000
00000000
00000100
,
00000103
00000000
00000000
00002000
00000000
00000000
00000000
00010000
,
00013000
00000000
00000000
00020000
00000000
00000000
00000000
00000000
,
00031000
00100000
00001000
00000000
00100000
00010000
00100000
00000000
,
01000000
10000000
00100000
00010000
00100000
10000000
01000000
00010000
,
00001000
00010000
00000010
00001000
00000100
00010000
00000010
00000100
,
00000001
00000100
00001000
00000000
00010000
01000000
10000000
00000000
,
00100000
00010000
00001000
00000000
00000010
00001000
00010000
00000000
,
00011000
00000000
00001000
00101000
00000000
00100000
01000000
00000000
,
10010000
00000000
10000000
00100000
00000000
01000000
00010000
00000000
,
01010000
00000000
00001000
00010000
00000000
00010000
00001000
00000000
,
00001010
00000000
00000010
00000100
00000000
00000100
00000110
00000000
,
00000001
00000010
00001000
00010000
00100000
10000000
10000000
00000000
,
01000000
00010000
00001000
00000100
00000010
00001000
00001000
00000000
,
00000110
00001000
00000001
00000100
00001000
00010000
00001000
00000000
,
00011000
00010000
01000000
00100000
00010000
10000000
01000000
00000000
,
00110000
00000000
10000000
00100000
00000000
00010000
00001000
00000010
,
00000100
00000000
00001000
00000001
00000000
00000100
00001000
00010000
,
00100000
00000000
10000000
01000000
00000000
00010000
00001000
00000000
,
00011000
00000000
00000000
00000000
;

//--------------- dance-double - forcednature ----------------
#NOTES:
     dance-double:
     forcednature:
     Challenge:
     14:
     0,0,0,0,0:
00000000
00000000
00000000
00000000
,
00000000
00000000
00000000
00000000
,
00000000
00000000
00000000
00000000
,
00000000
00000000
00000000
00000000
,
00000000
00000000
00000000
00000000
,
00021000
00000000
00000000
00000000
,
02030000
00000000
00000000
00000000
,
03200000
00000000
00000000
00000000
,
00302000
00000000
00000000
00000000
,
00003020
00000000
00000000
00000000
,
00000032
00000000
00000000
00000000
,
00000103
00000000
00000000
00000000
,
00022000
00000000
00033000
00000000
,
00001000
00100000
01000000
00010000
00001000
00000100
00000010
00010000
,
00100000
00010000
00001000
00000010
00000001
00000100
00010000
00001000
,
00000010
00010000
00001000
00000010
00001000
00100000
00010000
01000000
,
00100000
00010000
00001000
00000010
00000100
00010000
00000010
00000000
,
00000100
00001000
00010000
01000000
00100000
00001000
00100000
10000000
,
00010000
01000000
00100000
00001000
00000100
00001000
00010000
00000010
,
00000001
00001000
00000100
00000010
00001000
00000001
00000010
00010000
,
00100000
00010000
01000000
00100000
00001000
00100000
10000000
00000000
,
01000000
00010000
00001000
01000000
00010000
00001000
00000010
00000100
,
00010000
00001000
00000010
00010000
00001000
00000010
00000100
00010000
,
00100000
01000000
00001000
00000010
00000001
00001000
00000010
00010000
,
01000000
00100000
00010000
10000000
00100000
01000000
00001000
00000000
,
00010000
01000000
00100000
00001000
00010000
00000010
00000100
00001000
,
00000001
00000010
00001000
00000100
00000010
00010000
00100000
00010000
,
01000000
00001000
00010000
00100000
10000000
00010000
00100000
00000000
,
00022000
00000000
00033000
00000000
,
00010000
00000000
00000000
01000000
00000000
00000000
10000000
00000000
,
00010000
00000000
00000000
01000000
00000000
00000000
00100000
00000000
,
00001000
00000000
00000000
00000010
00000000
00000000
00010000
00000000
,
00001000
00000000
00000000
00000010
00000000
00000000
00000001
00000000
,
00001000
00000000
00000000
00000010
00000000
00000000
00000100
00000000
,
00001000
00000000
00000000
00010000
00000000
00000000
00100000
00000000
,
01000000
00000000
00000000
00010000
00000000
00000000
10000000
00000000
,
01000000
00000000
00000000
00010000
00000000
00000000
00001000
00000000
,
00000010
00000000
00000000
00000001
00000000
00000000
00001000
00000000
,
00010000
00000000
00000000
01000000
00000000
00000000
00100000
00000000
,
10000000
00000000
00000000
00010000
00000000
00000000
00001000
00000000
,
00000010
00000000
00000000
00010000
00000000
00000000
00000100
00000000
,
00000010
00000000
00000000
00000001
00000000
00000000
00000100
00000000
,
00001000
00000000
00000000
01000000
00000000
00000000
00010000
00000000
,
00100000
00000000
00000000
00001000
00000000
00000000
00000010
00000000
,
00022000
00000000
00000000
00033000
,
20000000
00000000
30000000
00000000
,
02000000
00000000
03000000
00000000
,
00002000
00000000
00003000
00000000
,
00000020
00000000
00000030
00000000
,
00000202
00000303
00000000
00000000
,
00022000
00033000
00000000
00000000
,
22000000
33000000
00000000
00000000
,
00022000
00000000
00033000
00000000
,
01000000
00010000
00100000
10000000
00100000
01000000
00010000
00001000
,
00000100
00000010
00001000
00000001
00000010
00010000
00100000
00010000
,
00000100
00001000
00010000
00000100
00000010
00000001
00000100
00010000
,
01000000
00100000
10000000
00010000
00100000
00001000
00000010
00000000
,
00000100
00001000
00000001
00000100
00010000
00001000
00000010
00010000
,
01000000
00100000
00010000
10000000
00100000
10000000
01000000
00001000
,
00010000
00000010
00001000
00000010
00000001
00000100
00001000
00010000
,
01000000
00100000
00001000
00010000
00100000
00001000
00000010
00000000
,
00010000
01000000
00100000
10000000
00100000
00001000
00010000
01000000
,
00001000
00000100
00001000
00000001
00000100
00001000
01000000
00010000
,
00100000
01000000
00010000
00001000
01000000
00001000
00000100
00001000
,
00010000
00000100
00000010
00000001
00000100
00001000
00010000
00000000
,
00100000
10000000
00100000
00001000
00010000
00000100
00000010
00001000
,
00000100
00000010
00001000
00010000
00100000
01000000
00001000
00100000
,
10000000
00000000
00000000
00010000
00000000
00000000
00001000
00000000
,
00000002
00000000
00000003
00000000
;
