#TITLE:TRUE♥LOVE (Clubstar's True Club Mix);
#SUBTITLE:;
#ARTIST:jun feat. Schanita;
#TITLETRANSLIT:;
#SUBTITLETRANSLIT:;
#ARTISTTRANSLIT:;
#GENRE:;
#CREDIT:;
#MUSIC:TRUE LOVE (Clubstar's True Club Mix).ogg;
#BANNER:TRUE LOVE (Clubstar's True Club Mix).png;
#BACKGROUND:TRUE LOVE (Clubstar's True Club Mix)-bg.png;
#CDTITLE:./CDTITLES/DanceDanceRevolution HOTTEST PARTY.png;
#SAMPLESTART:46.245;
#SAMPLELENGTH:15.000;
#SELECTABLE:YES;
#OFFSET:0.000;
#BPMS:0.000=135.000;
#STOPS:;
#BGCHANGES:;
#FGCHANGES:;

//--------------- dance-single - Nezemarth ----------------
#NOTES:
     dance-single:
     Nezemarth:
     Beginner:
     3:
     0.133,0.159,0.03,0,0:
0000
0000
0000
0000
,
0000
0000
0000
0000
,
0000
0000
0000
0000
,
0000
0000
0000
0000
,
0000
0000
0000
0000
,
0000
0000
0000
0000
,
1000
0000
0000
0000
,
0100
0000
0000
0000
,
0010
0000
0000
0000
,
0001
0000
0001
0000
,
1001
0000
0000
0000
,
1000
0000
0000
0000
,
0001
0000
0000
0000
,
0100
0000
0100
0000
,
0001
0000
0000
0000
,
0010
0000
0000
0000
,
1000
0000
0000
0000
,
0010
0000
0000
0000
,
0100
0000
0100
0000
,
0010
0000
0010
0000
,
0001
0000
0001
0000
,
1000
0000
1000
0000
,
0010
0000
0100
0000
,
0010
0000
0100
0000
,
0001
0000
0001
0000
,
0000
0000
0000
0000
,
1000
1000
1000
0000
,
0100
0000
0010
0000
,
0100
0000
0100
0000
,
1000
0000
0001
0000
,
0001
0001
0001
0000
,
0100
0000
0010
0000
,
0100
0000
0001
0000
,
1000
0000
1000
0000
,
0100
0100
0100
0000
,
0010
0000
0100
0000
,
0010
0000
0001
0000
,
1000
0000
1000
0000
,
0010
0010
0010
0000
,
0100
0000
0010
0000
,
1000
0000
0001
0000
,
0010
0000
0100
0000
,
1100
0000
1000
0000
,
0001
0000
0001
0000
,
0100
0000
0100
0000
,
0010
0010
0010
0000
,
1000
0000
1000
0000
,
0001
0000
0001
0000
,
0010
0000
0010
0000
,
0100
0000
0100
0100
,
0100
0000
1000
0000
,
0010
0000
0100
0000
,
0001
0000
1000
0000
,
0100
0000
1000
1001
;

//--------------- dance-single - Nezemarth ----------------
#NOTES:
     dance-single:
     Nezemarth:
     Easy:
     6:
     0.269,0.292,0.109,0.069,0.01:
0000
0000
0000
0000
,
0000
0000
0000
0000
,
0000
0000
0000
0000
,
0000
0000
0000
0000
,
0000
0000
0000
0000
,
0000
0000
0000
0000
,
1000
0000
0000
0100
,
0010
0000
0000
0001
,
0100
0000
0000
0010
,
1000
0000
0100
0000
,
0010
0001
0200
0300
,
0010
1000
0200
0300
,
0010
0001
0100
0100
,
1000
0100
0001
0000
,
1000
0100
0020
0030
,
0001
0100
0020
0030
,
0001
0010
1000
1000
,
0001
0010
0200
0300
,
1000
1100
0001
0101
,
1000
0010
0100
0100
,
0001
0011
1000
1010
,
0010
0100
0002
0003
,
0001
0011
1000
1010
,
0010
0100
0001
1000
,
0100
0000
0200
0000
,
0010
0000
0001
0301
,
0100
1000
0010
0100
,
1000
0100
0001
0001
,
1000
0100
0010
0100
,
1000
0001
0100
0000
,
0010
1000
0001
0010
,
1000
0010
0100
1000
,
0010
0100
1000
0100
,
0001
0000
0000
0001
0000
0000
1000
0000
0100
0000
0000
0000
1001
0000
0000
0000
,
1000
1000
0100
0010
,
1000
0001
0100
1000
,
0010
0100
1000
0100
,
0001
0001
1000
0000
,
0001
0001
0010
1000
,
0001
0100
0010
0001
,
1000
0010
0100
1000
,
0100
0000
0000
0100
0000
0000
0001
0000
1000
0000
0000
0000
0000
0000
0000
0000
,
1100
1000
0010
0100
,
0001
0010
0100
1000
,
0010
0100
0001
0010
,
1000
0010
0001
1000
,
0001
0100
0010
1000
,
0001
0010
0100
1000
,
0001
0100
0010
1000
,
0001
0100
1000
0100
,
0101
0100
0010
1000
,
1100
0100
0010
0001
,
1000
0010
0100
0001
,
1000
0100
0010
1001
;

//--------------- dance-single - Nezemarth ----------------
#NOTES:
     dance-single:
     Nezemarth:
     Medium:
     10:
     0.409,0.477,0.128,0.01,0.039:
0000
0000
0000
0000
,
0000
0000
0000
0000
,
0000
0000
0000
0000
,
0000
0000
0000
0000
,
0000
0000
0000
0000
,
0000
0000
0000
0000
,
1000
0000
0000
1000
0000
0000
1000
0000
0000
0000
0100
0000
0000
0000
0010
0000
,
0001
0000
0000
0001
0000
0000
0001
0000
0000
0000
0100
0000
0000
0000
0010
0000
,
1000
0000
0000
1000
0000
0000
1000
0000
0000
0000
0100
0000
0000
0000
0010
0000
,
0001
0000
0000
0001
0000
0000
0100
0000
1000
0000
0000
1000
0000
0000
0100
0000
,
0001
0000
0001
1000
0000
0100
1000
0000
,
0001
0000
0100
0010
0000
0001
0010
0000
,
1000
0000
0001
0010
0000
0100
0000
1000
,
0100
1000
0100
0010
0000
0000
0001
0000
,
1000
0010
1000
0001
0000
0010
0000
0000
,
0010
0001
0010
0100
0000
1000
0000
0000
,
0010
1000
0010
0100
0000
0001
0000
0010
,
0100
1000
0000
0100
0000
0010
0000
0000
,
0001
0000
0011
0000
1000
0000
1000
0100
,
0000
0100
0000
0010
1000
0000
0010
0000
,
0001
0000
0011
0000
1000
0000
0010
0100
,
0000
0100
1000
0100
0000
0010
1000
0000
,
0100
0000
0110
0000
0001
0000
1000
0010
,
0000
0010
0000
0010
0100
0001
1000
0001
,
0010
0000
0010
0100
1000
0000
0100
0000
,
0010
0010
1000
0000
0010
0100
1000
0000
,
0010
0000
1001
0000
1000
0100
0010
0001
,
0000
0001
0100
1000
0000
0200
0000
0000
,
0301
0001
1000
0100
0000
0010
0000
0010
,
0100
1000
0001
0100
0010
0000
0110
0000
,
1000
0000
1001
0000
0001
0010
0100
1000
,
0000
1000
0100
0010
0001
1000
0100
0001
,
0000
0001
0100
1000
0000
0001
0100
1000
,
0100
0000
0000
0100
0000
0000
0010
0000
1000
0000
0000
0000
1001
0000
0000
0000
,
0011
0000
1100
0000
1000
1000
0010
0001
,
0000
0001
0010
0100
0000
0100
0001
0000
,
0010
0010
0100
0001
0000
0001
0100
1000
,
0001
0000
0100
0000
0010
0000
0100
0000
0001
0000
0000
0001
0000
0000
0001
0000
,
1000
0000
1100
0000
1000
0100
0010
1000
,
0000
1000
0010
0001
0000
0001
0100
0000
,
1000
0100
0010
1000
0000
1000
0100
0010
,
0100
0000
0000
0100
0000
0000
1000
0000
0001
0000
0000
0000
0001
0000
0000
0000
,
1001
0001
0100
0010
0000
0010
1000
0100
,
0000
0100
0010
0001
0000
0001
1000
0010
,
0000
0010
0100
0001
0000
0001
0010
1000
,
0001
1000
0010
0100
0000
0100
0010
0000
,
0001
0100
0010
1000
0000
1000
0100
0010
,
0000
0010
0001
1000
0000
1000
0010
0100
,
0000
0100
0001
0010
0000
0010
1000
0001
,
0100
1000
0001
0100
0000
1000
0100
0000
,
0110
0010
1000
0001
1000
0100
1000
0001
,
0010
0001
1000
0001
0100
0001
1000
0001
,
0010
0100
0010
1000
0010
0100
0010
0001
,
0100
0000
1000
0100
0001
1000
1001
0000
;

//--------------- dance-single - Nezemarth ----------------
#NOTES:
     dance-single:
     Nezemarth:
     Hard:
     12:
     0.54,0.583,0.434,0.01,0.257:
0000
0000
0000
0000
,
0000
0000
0000
0000
,
0000
0000
0000
0000
,
0000
0000
0000
0000
,
0000
0000
0000
0000
,
0000
0000
0000
0000
,
0001
0000
0000
0001
0000
0000
0001
0000
0000
0000
0100
0000
0000
0000
0010
0000
,
1000
0000
0000
1000
0000
0000
1000
0000
0000
0000
0100
0000
0000
0000
0010
0000
,
0001
0100
0000
0010
0000
0000
0010
0000
0000
0000
0010
0000
0000
0000
1000
0000
,
0001
0000
0000
0001
0000
0000
0001
0000
0010
0100
0000
1000
0000
0000
1000
0000
,
0010
0100
1000
0100
0000
0001
0011
0000
,
0010
0100
0001
0100
0000
1000
1010
0000
,
0010
0100
1000
0100
0000
0001
1001
1000
,
0100
0010
0100
1000
0010
0100
0101
0000
,
0001
0010
1000
0010
0100
1000
1010
0000
,
1000
0010
0001
0010
0100
0001
0011
0000
,
0010
0100
1000
0010
0100
0001
0101
0001
,
1000
0100
0000
0100
0000
0000
0010
0000
0000
0000
0001
0000
0100
0000
0000
0000
,
0010
1000
1100
0000
0010
0001
0100
0010
,
0000
0010
0000
1000
0100
0000
1100
0000
,
0010
0001
0101
0000
0010
1000
0100
0010
,
0000
0010
0001
0100
0000
0010
0110
0000
,
0010
1000
1100
0000
0010
0001
0100
0010
,
0000
0010
0000
0100
1000
0100
0001
1000
,
0200
0001
0010
1000
,
0310
0001
0000
1000
0000
0010
0100
0001
1000
0000
1000
0000
0100
0010
0100
0010
,
0001
0000
0101
0000
0100
0010
1000
1010
,
0000
1000
0100
1100
0000
0100
0010
0000
,
0010
0001
1000
1010
0000
0110
0000
0100
,
0001
0000
1000
0000
0100
0000
0010
0000
0100
1000
0000
0001
0100
0000
0010
0000
,
0110
0000
1010
0000
1000
0100
0010
0011
,
0000
0001
0100
0010
1010
0001
0010
0011
,
0000
0001
1000
1010
0000
0010
0100
0001
,
1000
0000
0000
1000
0000
0000
0100
0000
0010
0000
0000
0000
1001
0000
0000
0000
,
1001
0000
0000
1000
0010
0000
0000
0010
0100
0000
0001
0000
1000
0000
0100
0000
,
0010
1000
0010
0100
1000
0001
0101
0000
,
0100
0010
1000
1010
0000
1000
0100
0010
,
1000
0010
0000
0010
0000
0001
0000
0100
0010
0000
1000
0000
1100
0000
0000
0000
,
1001
0000
0000
0001
0100
0000
0000
0100
0010
0000
1000
0000
0100
0000
0010
0000
,
1000
0010
0001
1000
0010
0100
0001
0000
,
1000
0100
0010
0110
0000
0100
1000
0001
,
0101
0000
0000
0100
0000
0000
0010
0000
1000
0100
1000
0100
0010
0001
0010
0001
,
1000
0010
0100
0110
0000
0001
0010
0110
,
0000
1000
0001
0101
0000
0001
1000
1100
,
0000
1000
0100
0110
0000
0001
0100
0110
,
0010
1000
0000
1000
0000
0001
0000
0010
0100
0000
1000
0000
1001
0000
0000
0000
,
0001
0100
0010
0110
0000
1000
0100
0110
,
0000
0001
1000
1010
0000
1000
0001
0011
,
0000
1000
0010
0110
0000
0001
0010
0110
,
0100
1000
0000
1000
0000
0001
0000
0100
0010
1000
0010
1000
0001
0010
0001
0010
,
0100
1000
0100
0000
0010
0100
0010
0000
0001
0010
0001
0000
1000
0000
0000
0000
,
0010
1000
0010
0000
0100
0010
0100
0000
0001
0100
0001
0000
1000
0000
0000
0000
,
0001
0010
1000
0010
0100
1000
0010
0100
,
1000
0000
0000
0100
0001
0000
1000
0000
0100
0010
0001
1000
0010
0000
0000
0000
;
