#TITLE:Trinity Arrow;
#SUBTITLE:;
#ARTIST:TAG;
#TITLETRANSLIT:;
#SUBTITLETRANSLIT:;
#ARTISTTRANSLIT:;
#GENRE:;
#CREDIT:;
#MUSIC:Trinity Arrow.ogg;
#BANNER:;
#BACKGROUND:;
#CDTITLE:;
#SAMPLESTART:1.031;
#SAMPLELENGTH:12.000;
#SELECTABLE:YES;
#OFFSET:-0.348;
#BPMS:0.000=222.000
,338.000=170.000
,342.000=160.000
,343.000=155.000
,344.000=150.000
,345.000=145.000
,346.000=140.000
,347.000=120.000
,348.000=90.123
,348.500=54.778
,349.000=55.000
;
#STOPS:;
#BGCHANGES:;
#FGCHANGES:;

//--------------- dance-single - Nezemarth ----------------
#NOTES:
     dance-single:
     Nezemarth:
     Beginner:
     4:
     0.17,0.327,0.028,0.046,0:
0000
0000
0000
0000
,
0000
0000
0000
0000
,
0000
0000
0000
0000
,
0000
0000
0000
0000
,
0000
0000
0000
0000
0000
0000
0000
1000
,
0000
0000
0000
0000
,
1000
0000
0000
0000
,
0100
0000
0000
0000
,
0010
0000
0010
0000
,
0100
0000
0000
0000
,
1000
0000
0000
0000
,
1000
0000
1000
0000
,
0000
0000
0000
0000
,
0010
0000
0000
0000
,
0010
0000
0000
0000
,
0100
0000
0000
0000
,
0001
0000
0001
0000
,
1000
0000
0000
0000
,
0000
0000
0000
0000
,
0000
0000
0000
0000
,
1000
0000
0000
0000
,
1000
0000
1000
0000
,
0100
0000
0100
0000
,
0010
0000
0001
0000
,
1000
0000
0000
0000
,
0010
0000
0010
0000
,
0100
0000
0100
0000
,
0001
0000
0001
0000
,
1001
0000
0000
0000
,
1000
0000
0000
0000
,
0100
0000
0100
0000
,
0010
0000
0000
0000
,
0001
0000
0001
0000
,
1000
0000
0000
0000
,
0000
0000
0000
0000
,
0010
0000
0000
0000
,
0100
0000
0000
0000
,
0001
0000
0001
0000
,
1000
0000
0000
0000
,
1000
0000
1000
0000
,
0100
0000
0010
0000
,
0010
0000
0000
0000
,
0001
0000
0000
0000
,
1000
0000
0000
0000
,
0010
0000
0000
0000
,
0100
0000
0001
0000
,
0100
0000
0000
0000
,
0010
0000
1000
0000
,
0100
0000
0000
0000
0010
0000
0000
0010
,
0000
0000
0000
0000
,
0100
0000
0000
0000
,
1000
0000
0000
0000
,
0001
0000
0000
0000
,
1000
0000
0000
0000
,
0010
0000
0000
0000
,
0100
0000
0100
0000
,
0100
0000
0100
0000
,
0001
0000
0000
0000
,
1000
0000
0100
0000
,
0010
0000
0000
0000
,
0001
0000
0100
0000
,
0010
0000
0000
0000
,
0010
0000
0000
0000
,
0100
0000
0000
0000
,
0001
0000
1000
0000
,
1100
0000
0000
0000
,
0001
0000
0100
0000
,
0010
0000
0200
0000
,
0300
0000
0001
0000
,
0001
0000
0010
0000
,
1000
0000
0010
0000
,
0200
0000
0000
0000
,
1300
0000
1000
0000
,
0100
0000
0020
0000
,
0000
0000
0000
0000
,
0000
0000
0000
0000
,
0030
0000
0000
0000
,
0011
0000
0001
0000
,
1000
0000
0010
0000
,
0100
0000
0001
0000
,
1000
1000
1000
0000
,
0001
0000
0010
0000
,
1000
0000
0010
0000
,
0001
0000
0100
0000
,
1000
0000
0002
0000
,
1003
1000
1000
0100
,
0100
0100
0010
0010
,
0010
0002
0000
0000
,
0000
0003
0000
0000
0000
0000
0000
0000
;

//--------------- dance-single - Nezemarth ----------------
#NOTES:
     dance-single:
     Nezemarth:
     Easy:
     8:
     0.375,0.49,0.204,0.167,0.009:
0000
0000
0000
0000
,
0000
0000
0000
0000
,
0000
0000
0000
0000
,
0000
0000
0000
0000
,
0000
0000
0000
0000
0000
0000
0000
1001
,
0000
1000
0100
0000
,
0010
0100
1000
0000
,
0001
0000
0100
0000
,
0010
0100
0001
0010
,
0022
0000
0033
0010
,
0100
1000
0001
0100
,
0020
0000
2030
0000
,
3000
0000
0100
0010
,
0010
0100
1000
0000
,
0001
1000
0100
0200
,
0000
0000
0010
0000
0000
0010
0000
0301
,
0000
0100
0000
1000
0000
0100
0000
0000
,
0001
0000
0011
0000
,
1000
0010
1010
0000
,
0001
0000
0101
0000
,
1000
0100
1100
0000
,
1000
0000
0000
0100
0000
0000
0001
0000
,
0000
0100
0000
0000
0010
0000
0000
0001
,
0200
0000
1000
0000
,
0310
1000
0100
0010
,
0001
0000
1000
0000
0000
0100
0000
0000
,
0010
0000
0000
1000
0000
0000
0010
0000
,
0000
0100
0000
0000
1000
0000
0000
1001
,
0000
0000
0000
0001
0000
0000
0000
0000
,
0101
0100
0010
1000
,
0100
0000
0100
0000
,
0010
0100
1000
0010
,
0100
0000
0001
0000
,
1000
2000
0000
0000
,
0000
0000
3100
0010
,
0100
0000
0000
2000
0000
0000
0000
0000
,
3001
0000
0000
0200
0000
0000
0310
0000
,
1000
0100
1000
0001
,
1000
0010
1000
0100
,
0000
0010
0001
1000
,
0001
0100
0010
0000
,
1010
1000
0100
0000
,
0011
0001
0100
0010
,
1000
0000
0100
0000
0020
0000
0000
0130
,
0000
0000
0000
0000
,
1000
0000
0000
0010
0000
0000
1000
0000
,
0100
0000
0010
0010
,
0001
1000
0010
0100
,
0001
0000
0010
0000
0100
0000
0000
1100
,
0000
1000
0000
0010
,
0000
0100
0000
0010
,
0000
1000
0000
0100
,
0000
0010
0000
0001
,
1001
1000
0000
0010
,
0000
0100
0000
0001
,
2000
0000
0100
0000
,
0001
0000
0000
0000
3010
0000
0000
1010
,
0000
0000
0000
1000
,
0100
0001
0100
0010
,
0002
0000
0003
0100
,
1000
0100
0010
1000
,
1000
0100
0100
0000
,
0001
0100
0100
1000
,
0001
0100
0010
0100
,
0001
1000
0100
0010
,
0002
0000
0003
1000
,
0010
1000
0100
0010
,
0002
0000
0203
0000
,
0000
1300
0100
0010
,
1000
0100
0001
0000
,
0001
0100
1000
0001
,
0200
0000
0000
0000
0000
0310
0000
1000
,
0000
0001
0000
0010
0000
0100
0000
0000
,
1000
0100
0110
0000
,
0010
0001
1000
0000
,
1000
0010
0110
0000
,
0100
0001
1000
0000
,
1000
0100
0110
0000
,
0010
0001
1000
0000
,
1000
0010
0110
0000
,
0101
0001
1000
1000
,
0100
0000
0000
0010
0000
0000
1000
0000
,
0000
0010
0000
0000
0100
0000
0000
0000
,
1000
0010
0100
0000
,
0001
0000
0000
0010
0000
0000
0001
0000
1000
0000
0001
0000
,
1001
1000
0010
0110
,
0100
0001
1001
1000
,
0100
0220
0000
0000
,
0000
0330
0000
0000
0000
0000
0000
0000
;

//--------------- dance-single - Nezemarth ----------------
#NOTES:
     dance-single:
     Nezemarth:
     Medium:
     11:
     0.51,0.531,0.324,0.213,0.037:
0000
0000
0000
0000
,
0000
0000
0000
0000
,
0000
0000
0000
0000
,
0000
0000
0000
0000
,
0000
0000
0000
0000
0000
0000
0000
1001
,
0000
0000
1000
0000
0100
0010
0000
0001
,
0000
0001
0010
0000
0100
0000
1000
0002
,
0000
0000
0103
0010
0000
0100
0000
1000
,
0100
0000
0100
0001
0000
1000
0100
0020
,
0000
0000
0031
0000
0000
0000
0001
1000
,
0000
0010
0000
0100
0000
0001
1000
0200
,
0000
0000
0320
0000
,
0000
0000
0031
0100
0000
0010
0000
0010
,
0000
0000
1000
0000
0100
0010
0000
0001
,
0000
0000
0100
0000
0010
0000
1000
0200
,
0000
0000
0010
0000
0000
0310
0001
1000
,
0000
0010
0000
1000
0000
0100
0000
0000
,
0020
0000
1000
0000
,
0100
0000
0031
0000
,
0200
0000
1000
0000
,
0010
0000
0301
0000
,
0010
0000
0010
0100
0000
0100
1000
0000
,
1000
0010
0000
0010
0100
0000
0100
0001
,
0020
0000
0230
0000
,
1300
0010
1000
0002
0000
0000
0103
0000
,
1000
0100
0000
0100
0010
0000
0010
1000
,
0000
1000
0001
0000
0001
0010
0000
0010
,
0100
0000
0100
1000
0000
1000
0010
0000
,
0010
0100
0001
0000
0000
0000
0000
0000
,
0011
0010
0100
1000
,
0001
0100
0000
1000
0000
0100
0000
0000
,
0000
0010
1000
0001
,
0020
0000
0000
0030
0100
0000
0000
1001
,
0000
0001
0100
0000
1000
0000
0100
0000
,
0010
1000
0100
0010
,
0001
0000
0000
0001
0000
0000
0100
0000
,
0010
0100
0001
1000
,
0100
0110
0100
1100
,
1000
1001
0001
0101
,
0100
1001
0010
1001
,
0001
0110
1000
0110
,
0101
1000
0100
0000
,
0110
0100
1000
0000
,
1010
0001
0100
0000
,
1010
1000
0200
0000
,
0310
0000
0000
0001
0100
0000
0010
0000
,
0100
0100
0101
0000
,
1000
0100
0010
0100
,
2000
0000
3010
0000
1000
0001
0000
1001
,
0000
1000
0100
0010
,
0100
0001
0100
1000
,
0010
0100
0010
0001
,
0010
0100
0010
1000
,
0001
0011
1000
1010
,
0001
0101
1000
1100
,
0001
0000
1000
0000
0001
0000
0100
0000
0001
0000
1000
0000
,
0001
0000
0000
0000
0100
0000
0000
0000
0001
0000
0000
0000
1000
0000
0000
0100
0000
0000
0000
0000
0000
0220
0000
0000
,
0000
0000
0000
0330
0000
0000
0100
1000
,
0000
0010
0000
0100
0000
0001
0000
0020
,
0000
1000
0000
0031
,
0100
0000
1000
0100
0000
0010
0000
1010
,
0000
1000
0100
0000
0010
0000
0000
0001
,
0000
0001
0100
0000
0010
0000
0100
0002
,
0000
0000
0013
0100
0000
0001
0000
0100
,
1000
0000
0001
0100
0000
0110
0000
2010
,
0000
0000
0000
0000
0000
0000
3001
0010
,
0000
1000
0000
0010
0000
0100
1000
0002
,
0000
0000
0203
0000
,
0000
0000
0300
1000
0100
0000
0010
0000
,
1010
0000
1000
0100
0000
0010
0000
0000
,
0001
0000
0001
0100
0000
0010
0000
0100
,
0002
0000
0000
0000
0003
1000
0000
1010
,
0000
1001
0000
1100
0000
1000
0000
0000
,
0001
0100
0010
0100
,
0001
0000
1000
0000
0100
0010
0000
0000
,
1000
0010
0100
1000
,
0001
0000
0100
0000
0010
0100
0000
0001
,
1000
0100
0010
1000
,
0010
0000
0100
0000
1000
0001
0000
0000
,
0100
1000
0100
0010
,
1010
1000
1001
0001
,
0010
0000
0010
0100
0000
0100
1000
0000
,
1000
0010
0000
0010
0100
0000
0000
1000
,
0100
0001
0100
0001
1000
0000
1000
0100
,
0000
0000
0000
0010
0000
0000
0100
0000
0000
0000
0000
0000
1000
0000
0000
0000
0010
0000
0000
0000
0100
0000
0000
0000
,
0101
0000
0001
0010
0100
0000
1100
0000
,
1000
0010
0100
0000
0101
0000
0001
0010
,
0100
1000
2002
0000
0000
0000
0000
0000
,
0000
3003
0000
0000
0000
0000
0000
0000
;

//--------------- dance-single - Nezemarth ----------------
#NOTES:
     dance-single:
     Nezemarth:
     Hard:
     13:
     0.64,0.735,0.222,0.028,0.037:
0000
0000
0000
0000
,
0000
0000
0000
0000
,
0000
0000
0000
0000
,
0000
0000
0000
0000
,
0000
0000
0000
0000
0000
0000
0000
1010
,
0000
1000
1000
0100
0010
0100
0000
1000
,
0000
0001
0001
0100
0010
0010
0100
0001
,
0000
1000
0100
1000
0000
0001
0000
0100
,
0010
1000
0001
0010
0000
0100
1000
0001
,
0000
0001
0100
0000
0100
0010
0100
0001
,
0000
0010
0000
0100
0000
1000
0010
0100
,
0000
0100
0001
0000
1000
0100
0010
0000
,
0100
0000
1000
0010
0000
0100
0000
0101
,
0000
0001
0001
1000
0100
0010
0000
0001
,
0000
1000
1000
0010
0100
0100
0001
1000
,
0000
0100
0010
0000
0100
1000
0001
0100
,
0000
0110
0000
1010
0000
1001
0000
0000
,
0011
0000
0000
0010
0100
0000
0100
1000
,
0001
0001
0101
0000
,
0110
0000
0000
0010
0100
0000
0100
0001
,
1000
1000
1100
0000
,
0010
1000
0001
0010
0100
1000
0001
0100
,
0010
1000
0001
0010
0100
1000
0001
0100
,
0010
0001
0011
0000
,
0010
1000
0001
0010
0000
0100
0010
0000
,
0001
0100
0010
1000
0100
0010
0001
0100
,
0010
1000
0100
0010
0001
1000
0010
0100
,
0001
0010
0100
1000
0010
0100
0001
1001
,
0000
0001
1000
0100
0000
0100
0010
0110
,
0000
0010
0001
0100
,
0010
1000
0000
0100
0000
0010
0100
0010
,
0000
0100
1000
0010
,
0100
0000
0000
0000
0010
1000
0001
1000
,
0000
1000
0100
0000
0010
0000
0001
0000
,
0100
1000
0100
0001
,
1000
0100
0010
1000
,
0010
0001
1000
0010
,
1000
0010
1000
0000
0001
1000
0001
0000
,
0010
0001
0010
0100
0000
1000
0100
0000
,
0010
0001
0010
0000
0001
1000
0001
0000
,
1000
0010
1000
0001
0000
0001
0100
0000
,
0101
0000
0100
0010
0000
0010
1000
0000
,
1100
0000
0100
0010
0000
0010
0001
0000
,
1000
0010
1000
0001
0000
0001
0010
0110
,
0000
0100
1000
0000
0020
0000
0000
0000
,
0130
0000
0001
1000
0100
0000
0010
0000
,
0100
0000
1000
0000
0001
0100
0010
0000
,
1000
0100
0110
0100
,
1000
0000
0001
0100
0000
0100
0000
0110
,
0000
0100
0001
0000
1000
0100
1000
0000
,
1000
0001
1000
0000
1000
0010
1000
0000
,
0001
0000
1000
0000
0001
0100
0001
0000
,
0001
1000
0001
0000
0001
0010
0001
0000
,
1001
0000
1000
0000
0010
0100
0001
1000
,
0000
1000
0100
0000
0100
1000
0001
0000
,
0100
0000
0010
0000
1000
0000
0100
0000
0010
0000
0001
0000
,
0100
0000
0000
0000
1000
0000
0000
0000
0100
0000
0000
0000
0010
0000
0000
1000
0000
0000
0001
0000
0000
0010
0000
0000
,
0000
0010
0100
0000
0100
1000
0010
1000
,
0000
0100
0000
0010
0000
0001
1000
0010
,
0000
0010
1000
0000
0001
0010
0001
0000
,
1000
0000
0010
0100
0000
0001
0000
0011
,
0000
0010
0010
0100
1000
0001
0000
1000
,
0000
0010
0010
0100
0001
0001
1000
0200
,
0000
0000
0310
0100
0000
1000
0000
0001
,
0100
0010
0100
0001
0000
1000
0100
0010
,
0000
0010
0100
0000
1000
0000
0010
0100
,
0000
0001
0000
0010
0000
0100
1000
0001
,
0000
0001
0100
0000
0010
0000
0100
0000
,
0001
0000
0010
0100
0000
1000
0000
1100
,
0000
0100
0100
0010
0100
1000
0000
0010
,
0000
0100
0100
1000
0100
0100
0001
1000
,
0000
0100
0010
0000
0100
1000
0010
0100
,
0000
0001
0000
0100
0000
1000
0000
0100
,
0001
0000
1000
0000
0100
0010
0000
0001
,
0000
0010
0100
0000
1000
0001
0000
0000
,
0100
0000
0010
0000
1000
0100
0000
0010
,
0000
0100
1000
0000
0001
0100
0001
0100
,
0010
0000
0100
0000
0001
1000
0000
0100
,
0000
0010
0100
0000
1000
0001
0000
0000
,
0100
0000
0010
0000
1000
0000
0000
0001
,
0000
0001
0010
0000
1000
0010
0100
1000
,
0001
0100
0010
0001
0010
0100
0001
0010
,
0100
1000
0100
0010
1000
0010
0100
1000
,
0001
0100
0010
0100
0001
0010
1000
0010
,
0000
0000
0000
0001
0000
0000
1000
0000
0000
0000
0000
0000
1010
0000
0000
0000
1001
0000
0000
0000
0011
0000
0000
0000
,
0110
0100
1000
0010
0001
1000
0001
0010
,
1000
0100
0001
1000
0001
0100
1000
0010
,
0100
1000
0200
0000
0000
0000
0000
0000
,
0000
0300
0000
0000
0000
0000
0000
0000
;
