#TITLE:TIME IN MOTION;
#SUBTITLE:;
#ARTIST:lim's Sculpture;
#TITLETRANSLIT:;
#SUBTITLETRANSLIT:;
#ARTISTTRANSLIT:;
#GENRE:;
#CREDIT:;
#MUSIC:TIME IN MOTION.mp3;
#BANNER:;
#BACKGROUND:;
#CDTITLE:;
#SAMPLESTART:72.959;
#SAMPLELENGTH:14.222;
#SELECTABLE:YES;
#OFFSET:-0.070;
#BPMS:0.000=135.000;
#STOPS:;
#BGCHANGES:;
#FGCHANGES:;

//--------------- dance-single - eataninja ----------------
#NOTES:
     dance-single:
     eataninja:
     Beginner:
     3:
     0,0,0,0,0:
0000
0000
0000
0000
,
0000
0000
0000
0000
,
0000
0000
0000
0000
,
0000
0000
0000
0000
,
1000
0000
1000
0000
,
0001
0000
0001
0000
,
0100
0100
0100
0000
,
0100
0100
0100
0000
,
0000
0001
0000
1000
,
0000
0100
0000
1000
,
0000
0010
0000
0100
,
0000
0001
0000
1000
,
0000
0001
0000
0010
,
0000
0100
0000
0010
,
0000
0001
0000
1000
,
0000
0010
0000
0100
,
0000
1001
0000
0001
,
0000
0010
0000
0100
,
0000
1001
0000
1000
,
0000
0010
0000
0100
,
0000
1001
0000
0010
,
0000
0100
0000
1000
,
0000
1001
0000
0100
,
0000
0010
0000
1000
,
1000
0000
0000
0000
,
0010
0000
0000
0000
,
0001
0000
0000
0000
,
0010
0000
0000
0000
,
1000
1000
1000
0000
,
0001
0001
0001
0000
,
0010
0010
0010
0000
,
0100
0100
0100
0000
,
2000
0000
3000
0000
,
0100
0100
0100
0000
,
0002
0000
0003
0000
,
0100
0100
0100
0000
,
2000
0000
3000
0000
,
0001
0001
0001
0000
,
0200
0000
0300
0000
,
0010
0010
0010
0010
,
0000
0000
0000
0000
,
0000
1000
0000
0100
,
0000
0010
0000
0001
,
0000
0100
0000
0010
,
0000
0100
0000
0001
,
0000
1000
0000
0010
,
0000
0100
0000
0001
,
1001
0000
0110
0000
,
1000
1000
0001
0001
,
2002
0000
0000
0000
,
0000
0000
0000
0000
,
3003
0000
0000
0000
;

//--------------- dance-single - eataninja ----------------
#NOTES:
     dance-single:
     eataninja:
     Easy:
     5:
     0,0,0,0,0:
0000
0000
0000
0000
,
0000
0000
0000
0000
,
0000
0000
0000
0000
,
0000
0000
0000
0000
,
2000
3002
2003
3002
,
0203
0302
0203
0302
,
0010
0010
0010
0010
,
0010
0010
0010
0013
,
1001
0100
1000
0000
,
0010
0100
0001
0000
,
1000
0100
0010
0000
,
0001
1000
0010
0000
,
0100
0001
1000
0000
,
0100
0010
0001
0000
,
1000
0001
0100
0000
,
0010
0010
0100
0100
,
0001
1001
1000
0000
,
0100
1100
1000
0000
,
1000
1001
0001
0000
,
0100
0101
0001
0000
,
0010
0110
0100
0000
,
1000
1001
0001
0000
,
0100
0110
0010
0000
,
0100
0100
0001
0001
,
1000
0010
0100
0010
,
1000
0100
0001
0100
,
1000
0010
0100
0010
,
1000
0100
0001
0100
,
1000
0001
0010
0001
,
1000
0010
0001
0010
,
1000
0001
0010
0001
,
0100
0100
0010
0010
,
0200
0000
0302
0000
,
0023
0000
0130
0000
,
0200
0000
0302
0000
,
0203
0000
1300
0000
,
2000
0000
3002
0000
,
0203
0000
0310
0000
,
0020
0000
0032
0000
,
0023
0000
1030
0000
,
0000
0000
0000
0000
,
1000
0010
0001
0000
,
0010
0100
0001
0000
,
1000
0100
0001
0000
,
0100
0010
0001
0000
,
1000
0010
0001
0010
,
0100
0001
1000
0000
,
1001
0100
0110
0001
,
0101
0101
1100
1100
,
2002
0000
0000
0000
,
0000
0000
0000
0000
,
3003
0000
0000
0000
;

//--------------- dance-single - eataninja ----------------
#NOTES:
     dance-single:
     eataninja:
     Medium:
     8:
     0,0,0,0,0:
0000
0000
0000
0000
,
0000
0000
0000
0000
,
0000
0000
0000
0000
,
0000
0000
0000
0000
,
2000
3020
2030
3020
,
0032
0023
0032
0023
,
0230
2300
3200
2300
,
3200
0302
0203
0302
,
1003
0000
0010
0000
0100
0001
1000
0000
,
0100
0000
0010
0000
0001
1000
0100
0000
,
0010
0000
0100
0000
1000
0001
0100
0000
,
0010
0000
0100
0000
0001
1000
0010
0000
,
0100
0000
0001
0000
0010
0100
1000
0000
,
0100
0000
0010
0000
0001
0100
0010
0000
,
1000
0000
0001
0000
0100
0010
1000
0000
,
0001
0010
0010
0000
0001
1000
1000
0000
,
0010
0000
0110
0000
0001
1000
0001
0000
,
1000
0100
0010
0000
0001
1000
0100
0000
,
0010
0000
0110
0000
1000
0001
1000
0000
,
0010
0100
0001
0000
1000
0001
0100
0000
,
0001
0000
0011
0000
0100
1000
0001
0000
,
1000
0010
1000
0000
0001
0100
0010
0000
,
1000
0000
1010
0000
0100
0001
1000
0000
,
0100
0010
0010
0000
0100
1000
1000
0000
,
0000
0001
0000
0100
0000
0001
0000
0100
,
0000
0010
0100
0001
0000
0010
0100
1000
,
0000
0001
0000
0010
0000
0001
0000
0010
,
0000
0100
1000
0001
0000
1000
0010
0100
,
0000
1000
0000
0100
0000
0001
0000
1000
,
0000
0001
0010
0100
0000
1000
0001
1000
,
0000
0010
0000
0001
0000
0010
0000
1000
,
0000
0001
1000
0000
0100
0010
0001
0000
,
2000
3020
2030
3020
,
0032
2003
3200
0301
,
2000
3200
2300
3200
,
0302
2003
3020
0031
,
2000
3020
0032
2003
,
3002
0023
2030
3001
,
1001
0100
1001
0100
,
1000
0001
1000
0001
0100
0010
1000
0000
,
0000
0000
0000
0000
,
0001
0100
0010
0000
0010
0100
0001
0000
,
1000
0100
1000
0000
0100
0010
0001
0000
,
1000
0010
0100
0000
0100
0010
1000
0000
,
0001
0010
0001
0000
0010
0100
1000
0000
,
0001
0010
1000
0000
0010
0100
1000
0000
,
1000
0010
0001
0000
0010
0100
0001
0000
,
1001
0001
0100
0000
1001
1000
0100
0000
,
1100
0101
0011
1010
,
2002
0000
0000
0000
,
0000
0000
0000
0000
,
3003
0000
0000
0000
;

//--------------- dance-single - eataninja ----------------
#NOTES:
     dance-single:
     eataninja:
     Hard:
     12:
     0,0,0,0,0:
0000
0000
0000
0000
,
0000
0000
0000
0000
,
0000
0000
0000
0000
,
0000
0000
0000
0000
,
2000
3020
2030
3020
,
0032
2003
3002
2003
,
3100
0001
0100
0001
1000
0100
1000
0100
,
0001
1000
0001
1000
0010
0001
0010
0001
,
1000
0000
0010
0000
0000
0100
0000
0001
0000
0000
0010
0000
0000
0100
0000
1000
,
0000
0000
0010
0000
0000
0100
0000
0001
0000
0000
1000
0000
0000
0100
0000
0010
,
0000
0000
0100
0000
0000
1000
0000
0010
0000
0000
0100
0000
0000
0001
0000
0010
,
0000
0000
0100
0000
0000
1000
0000
0010
0000
0000
1000
0000
0000
0001
0000
0010
,
0000
0000
0001
0000
0000
1000
0000
0010
0000
0000
1000
0000
0000
0001
0000
0010
,
0000
0000
0001
0000
0000
1000
0000
0010
0000
0000
0100
0000
0000
0001
0000
0010
,
0000
0000
0001
0000
0000
1000
0000
0100
0000
0000
1000
0000
0000
0001
0000
0100
,
0000
0000
0001
0000
1000
0100
0000
0010
0000
0010
0001
0000
1000
0000
0010
0000
,
0100
0000
0001
0000
0101
0000
0000
0010
0000
0000
1000
0000
1100
0000
0000
0010
,
0000
0000
0001
0000
0101
0000
0000
0010
0000
0000
1000
0000
0001
0010
0000
0100
,
0000
0000
1000
0000
1001
0000
0000
0100
0000
0000
0001
0000
1001
0000
0000
0100
,
0000
0000
1000
0000
1001
0000
0000
0100
0000
0000
0001
0000
0010
0100
0000
1000
,
0000
0000
0001
0000
0011
0000
0000
0100
0000
0000
1000
0000
1010
0000
0000
0100
,
0000
0000
0001
0000
0011
0000
0000
0100
0000
0000
1000
0000
0001
0100
0000
0010
,
0000
0000
1000
0000
1001
0000
0000
0010
0000
0000
0001
0000
1001
0000
0000
0010
,
0000
0000
0100
0000
1000
0001
0000
0100
0000
0100
0001
0000
0010
0000
0100
0000
,
2000
0100
0100
3100
,
0002
0013
2000
3010
,
0002
0100
0100
0103
,
2000
0010
3010
0000
0002
0010
0013
0000
,
1000
0000
0001
0000
1000
0010
1000
0000
0001
0000
1000
0000
0001
0010
0001
0000
,
1000
0100
0001
0100
1000
0010
0001
0010
,
1000
0000
0001
0000
1000
0100
1000
0000
0001
0000
1000
0000
0001
0100
0001
0000
,
1000
0000
0010
0000
0100
0001
0000
0010
0000
0100
1000
0000
0001
0100
0001
0000
,
2000
0000
0010
0000
0000
0010
0000
0000
0001
0000
0000
0001
0000
0000
3002
0000
,
0000
0000
0010
0000
0000
0010
0000
0000
1000
0000
0003
1000
0000
0000
0001
0000
,
2000
0000
0100
0000
0000
0100
0000
0000
0001
0000
0000
0001
0000
0000
3002
0000
,
0000
0000
0100
0000
0000
0100
0000
0000
1000
0000
0000
1003
0000
0000
1000
0000
,
0020
0000
0001
0000
0000
0001
0000
0000
0100
0000
0000
0100
0000
0000
0230
0000
,
0000
0000
1000
0000
0000
1000
0000
0000
0010
0000
0000
0310
0000
0000
1000
0000
,
1001
0010
0100
0000
0100
1000
0001
0000
,
0100
0010
0100
0000
0010
1000
0000
0001
0010
0001
0000
1000
0000
0000
0000
0000
,
0000
0000
0000
0000
,
0010
0000
0100
0000
0001
1000
0000
1000
0100
0000
0010
0000
0001
1000
0000
1000
,
0010
0000
0100
0000
0001
1000
0000
1000
0100
0000
0001
0000
0000
0100
0000
1000
,
0001
0000
1000
0000
0010
0100
0000
0100
0001
0000
0010
0000
0100
1000
0000
1000
,
0001
0000
0100
0000
0010
1000
0000
1000
0001
0000
0010
0000
0000
1000
0000
0010
,
0100
0000
1000
0000
0001
1000
0000
1000
0010
0000
0100
0000
0001
1000
0000
1000
,
0100
0000
0010
0000
0001
1000
0000
1000
0010
0000
0001
0000
0000
0010
0000
0100
,
0001
0001
1000
1000
0100
0100
0010
0010
,
0001
1000
0001
0000
0100
0010
0100
0000
0001
1000
0001
0000
0010
0100
0010
0000
,
2002
0000
0000
0000
,
0000
0000
0000
0000
,
3003
0000
0000
0000
;
