#TITLE:THREE WORMS;
#SUBTITLE:;
#ARTIST:Jimmy Weckl;
#TITLETRANSLIT:;
#SUBTITLETRANSLIT:;
#ARTISTTRANSLIT:;
#GENRE:;
#CREDIT:;
#MUSIC:THREE WORMS.ogg;
#BANNER:;
#BACKGROUND:;
#CDTITLE:;
#SAMPLESTART:71.955;
#SAMPLELENGTH:13.714;
#SELECTABLE:YES;
#OFFSET:1.331;
#BPMS:0.000=140.000;
#STOPS:;
#BGCHANGES:;
#FGCHANGES:;

//--------------- dance-single - aboutblank ----------------
#NOTES:
     dance-single:
     aboutblank:
     Beginner:
     4:
     0,0,0,0,0:
0000
0000
0000
0000
,
0000
0000
0000
0000
,
0000
0000
0000
0000
,
0000
0000
0000
0000
,
0000
0000
0000
0000
,
0000
0000
0000
0000
,
0000
0000
0000
0000
,
0010
0010
0000
0000
,
0001
0000
1000
0000
,
0100
0100
0000
0000
,
1001
0100
0100
0000
,
0001
0000
0001
0000
,
0001
0000
0001
0000
,
1000
0000
1000
0000
,
1000
0000
1000
0000
,
0010
0000
0010
0000
,
0010
0000
0010
0000
,
0100
0000
0100
0000
,
0100
0000
0100
0001
,
0001
0001
0000
0001
,
0001
0001
0000
1000
,
1000
1000
0000
1000
,
1000
1000
0000
0100
,
0100
0100
0000
0100
,
0100
0100
0000
0010
,
0010
0010
0000
0010
,
0010
0010
0000
1001
,
0000
1000
0001
1000
,
0000
1000
0001
1000
,
0000
1000
0001
1000
,
0000
0110
0000
0001
,
1000
0001
0000
0001
,
0010
0001
0000
0001
,
1000
0001
0000
0001
,
0010
0001
0000
1000
,
0000
0001
0000
0100
,
0010
0100
0000
0001
,
0000
1000
0000
0010
,
0100
0010
0000
1001
,
0000
0000
1001
0000
,
0000
0110
0000
0000
,
0220
0000
0000
0000
,
0000
0000
0330
0000
,
1000
0000
0001
0000
,
0100
0000
0100
0000
,
0001
0000
1000
0000
,
0010
0000
0010
0000
,
1000
0000
0100
0000
,
1000
0000
1000
0000
,
0001
0000
0100
0000
,
0001
0000
0001
0000
,
0000
0000
0000
0000
,
0000
0000
0000
0000
0000
0000
0000
0000
0000
0000
0000
1000
0000
0000
0000
0000
;

//--------------- dance-single - aboutblank ----------------
#NOTES:
     dance-single:
     aboutblank:
     Easy:
     5:
     0,0,0,0,0:
0000
0000
0000
0000
,
0000
0000
0000
0000
,
0000
0000
0000
0000
,
1000
0000
0000
0000
0000
0001
0000
0000
,
1000
0000
1000
0000
,
0010
0000
0000
0000
0000
0000
0000
0100
,
0000
0001
0001
0000
,
1000
0000
0000
0000
0000
0100
0000
0000
,
0100
0010
0010
0001
,
1000
0000
0000
0000
0000
0010
0000
0000
,
0110
0100
0001
1000
,
0100
0010
0000
0001
,
1000
0010
0100
0001
,
0000
0001
0001
1000
,
0000
1000
1000
0010
,
0100
1000
0001
0010
,
0000
1000
0100
0001
,
0000
0100
0010
0001
,
1000
0010
0010
0100
,
0000
0100
1000
0100
,
0000
0100
0001
0100
,
0000
0001
0010
0001
,
0000
1000
0010
1000
,
0100
0010
0000
0001
,
0100
0010
0000
1000
,
0010
0100
0001
0010
,
0100
1000
0001
0101
,
0000
1000
0001
0011
,
0000
0001
1000
1100
,
0000
0001
1000
1010
,
0000
0010
0000
0010
0000
0000
1100
0000
,
0000
0001
1000
0100
,
0000
0100
0010
0001
,
0000
0001
0010
0100
,
1000
0010
0100
1001
,
0000
1000
0001
0100
,
0000
1000
0001
0010
,
1000
0100
0010
0001
,
1000
0001
0100
0010
,
0000
1000
0000
0000
0100
0000
0000
0001
,
0000
0000
0010
0000
0000
1000
0000
0000
,
0001
0000
0000
0110
,
0000
0000
0000
1001
,
0000
1000
0001
0100
,
0100
0010
1000
0001
,
0000
0010
0100
1000
,
0000
0010
0100
0001
,
1000
0100
0010
0001
,
0000
0100
0001
1000
,
0000
0010
1000
0001
,
0000
1001
0000
1000
,
0100
0010
0001
0010
,
0100
1000
0000
1001
;

//--------------- dance-single - aboutblank ----------------
#NOTES:
     dance-single:
     aboutblank:
     Medium:
     8:
     0,0,0,0,0:
0000
0000
0000
0000
,
0000
0000
0000
0000
,
0000
0000
0000
0000
,
1001
0000
0000
0001
0100
0010
0000
0000
,
0100
0000
0010
1000
0100
0000
1000
0000
,
1001
0000
0000
1000
0100
0010
0000
0100
,
0000
2000
3002
0103
,
0101
0000
0001
0010
0100
0010
0000
0000
,
0001
2000
3020
0130
,
1001
0000
0001
1000
0100
0001
0000
0000
,
0110
0000
0001
1000
0001
0000
0100
0000
,
0100
0000
0010
1000
0100
0000
0010
0000
,
0100
1000
0010
0100
,
0100
0000
0001
1000
0001
0000
0010
0000
,
0010
0000
0001
1000
0001
0000
0101
0000
,
1000
0010
0100
1000
,
0100
0001
0010
0100
,
0100
0000
1000
0001
1000
0000
0010
0000
,
0010
0000
1000
0001
1000
0000
0100
0000
,
0010
0001
1000
0010
,
0001
0010
1000
0100
,
0010
0001
1000
0010
,
0100
0001
1000
0001
,
0010
0100
1000
0001
,
0100
0010
1000
0010
,
0100
1000
0100
0001
,
0010
0100
0010
1001
,
0000
0000
0001
0100
1000
0000
1001
0000
,
0000
0000
1000
0100
0001
0000
1001
0000
,
0000
0000
0001
0010
1000
0000
1001
0000
,
0000
0110
0000
0110
0000
0000
1001
0000
,
0000
0000
1000
0100
0010
0000
0101
0000
,
0000
0000
0001
0100
0010
0000
1100
0000
,
0000
0000
1000
0010
0100
0000
0101
0000
,
0000
0000
0001
1000
0001
0000
0100
0000
,
0100
0000
0010
1000
0001
0000
0010
0000
,
0010
0000
0001
1000
0010
0000
0100
0001
,
1000
0000
1000
0100
0010
0000
0001
0000
,
0010
1000
0100
0101
,
0000
1100
0000
0000
0011
0000
0000
1010
,
0000
0000
0101
0000
0000
1001
0000
0000
,
0010
0000
0000
0000
0000
0000
0000
0000
0000
0000
0000
1001
0000
0000
0000
0000
,
0000
0000
0001
0010
0100
1000
0001
0000
,
0100
0001
0100
0000
0010
0000
1000
0000
,
0001
0010
0100
1000
,
0100
0000
0010
0001
0010
0000
0001
0000
,
0100
0000
0010
1000
0010
0000
0100
0000
,
0100
0000
0001
1000
0001
0000
0010
0000
,
1000
0010
0001
0100
,
1000
0000
0100
0010
0100
0000
0010
0000
,
1000
0000
0100
0010
0100
0000
0010
0001
,
0010
0001
1000
0100
1000
0100
0010
0000
,
0001
1000
0110
1001
;

//--------------- dance-single - aboutblank ----------------
#NOTES:
     dance-single:
     aboutblank:
     Hard:
     13:
     0,0,0,0,0:
0000
0000
0000
0000
,
0000
0000
0000
0000
,
0000
0000
0000
0000
,
1000
0000
0000
1000
0010
0000
0001
0000
0010
0000
1000
0000
0000
0000
0001
0000
,
0010
0200
2300
3010
,
0110
0000
0000
0100
0001
0000
1000
0000
0100
0000
0010
0000
0000
0000
0011
0000
,
0000
0002
2003
3010
,
0110
0000
0000
0001
0100
0000
1000
0000
0100
0000
0001
0000
0000
0000
1000
0000
,
0010
0200
0320
1030
,
1001
0000
0001
1000
0010
0000
0100
0000
0001
0000
0010
0000
0000
0000
0000
0000
,
1001
0000
0000
0000
0001
0100
0001
0000
1000
0100
1000
0000
0001
0000
0000
0000
,
0000
1000
0100
0010
0001
0000
0100
0010
0000
0000
1000
0100
1000
0000
0001
0100
,
0001
0000
1000
0000
0010
0000
0100
0000
0001
0000
0000
1010
0000
0000
0010
0000
,
1000
0000
0000
1000
0100
0000
0010
0000
0001
0000
0000
0011
0000
0000
0000
0000
,
0001
1000
0001
0000
0100
0000
0100
0000
0010
1000
0000
0000
0101
0000
0000
0000
,
0000
1000
0001
1000
0001
0000
0100
0010
0000
0000
1000
0100
1000
0000
0100
0010
,
0100
0000
0010
0001
0010
0000
0001
0000
1000
0000
0000
0011
0000
0000
0001
0000
,
1000
0000
0000
0000
0010
1000
0000
0010
1000
0000
0001
0100
0000
0000
0001
0000
,
0000
0011
0000
0000
1000
0000
0100
0010
0001
0000
1000
0000
0001
0000
0100
0000
,
1000
0100
0001
0100
1000
0100
0001
0010
,
1000
0010
0001
0010
1000
0010
0001
0100
,
0010
0001
1000
0100
0010
1000
0001
0010
,
0100
1000
1000
0100
0010
0001
1000
0001
,
0100
0010
0100
0001
1000
0010
1000
0001
,
0010
0100
1000
0010
0100
0001
1000
0000
,
0001
0000
1000
0000
0100
0000
0000
0100
0010
0000
0001
0000
0100
0000
0001
0000
,
0010
0001
1000
0001
0010
0001
0200
0000
,
0310
0000
1000
0000
0000
0100
0000
0000
0001
0000
0100
0000
0020
0000
0000
0000
,
0031
0000
0100
0000
0000
1000
0000
0000
0100
0000
0001
0000
2000
0000
0000
0000
,
3100
0000
0001
0000
0000
0100
0000
0000
1000
0000
0010
0000
0200
0000
0000
0000
,
0301
0011
0000
1010
0000
0000
0002
0000
,
0103
0000
0001
0000
0000
0001
0000
0000
1000
0000
0010
0000
0200
0000
0000
0000
,
0301
0000
1000
0000
0000
1000
0000
0000
0010
0000
1000
0000
0200
0000
0000
0000
,
0310
0000
0001
0000
1000
0001
0000
0000
0100
0000
0010
0000
2000
0000
0000
0000
,
3100
0000
0001
0000
1000
0010
0000
0000
0001
1000
0001
0000
0100
0000
0020
0000
,
0000
0000
1030
0000
0010
0100
0010
0000
1000
0010
2000
0000
0000
0000
0000
0000
,
0000
0000
3001
0000
1000
0100
0010
0000
0001
0100
0010
0000
0000
0000
1000
0000
,
0100
0000
0001
0000
1000
0000
0010
0000
0001
0000
1000
0000
0010
0000
0010
0100
,
0000
0100
0001
0000
1000
0100
0000
0000
1000
0100
0010
0001
1000
0000
0000
0000
,
1000
1001
0000
0001
0101
0000
0100
0110
,
0000
0010
1010
0000
1000
1100
0000
0100
,
0120
0000
0000
0000
0000
0000
0000
0000
0000
0001
0000
0031
0000
0000
0000
0000
,
1000
0000
0001
0100
0000
0010
1000
0000
0000
0100
0000
0000
0110
0000
0000
0000
,
0000
0000
0001
1000
0001
0000
0000
0100
0000
0000
0010
0000
1000
0000
0010
0000
,
0001
0000
0010
0000
1000
0000
0100
0000
0001
0000
0000
0110
0000
0000
0001
0000
,
1000
0000
0000
0000
0001
0000
0100
0000
1000
0000
0000
0110
0000
0000
1000
0000
,
0001
0000
0000
0000
1000
0100
1000
0000
0001
0100
0001
0000
1001
0000
0000
0000
,
1000
0000
0010
0000
0001
0000
0000
0010
0000
0000
1000
0000
0100
0000
0001
0000
,
0100
0000
1000
0000
0010
0000
0100
0000
0001
0000
0000
0101
0000
0000
0001
0000
,
1000
0000
0000
0100
0010
0000
0001
0000
0010
0000
0100
1000
0000
0000
0001
0000
,
1000
0100
0000
0000
0010
0000
0000
0010
0000
0001
0000
0000
0000
0100
0001
0000
,
1000
0010
1000
0000
0001
1000
0001
0000
1000
0100
1000
0000
0001
0000
1000
0000
,
0100
0010
0000
0010
0000
0000
0001
0000
1100
0000
0000
0011
0000
0000
0000
0000
;

//--------------- dance-single - aboutblank ----------------
#NOTES:
     dance-single:
     aboutblank:
     Challenge:
     16:
     0,0,0,0,0:
0000
0000
0000
0000
,
0000
0000
0000
0000
,
0000
0000
0000
0000
,
1100
0000
0000
1000
0001
0000
0100
0000
0010
0000
1010
0000
0000
0000
0001
0000
,
0011
1000
0020
0000
0230
0000
0301
0000
,
0011
0000
0000
0001
1000
0000
0100
0000
0010
0000
1001
0000
0000
0000
2200
0000
,
3300
0001
0020
0000
0230
0000
1300
0001
,
0010
0000
0010
0001
0100
0000
0010
0000
1000
0000
1001
0000
0000
0000
0001
0000
,
0100
0001
0100
0000
0020
0000
0000
0000
2030
0000
0000
0000
3001
0000
1000
0000
,
1100
0000
0100
0010
0001
0000
1000
0000
0010
0000
0110
0000
0000
0000
0000
0000
,
0200
0000
0000
0000
0301
1000
0001
1000
0010
0100
0010
0100
0001
0000
1000
0000
,
0000
1000
0100
0010
0001
0000
0100
0001
0000
0010
0001
1000
0010
0000
0100
0010
,
0100
0000
0001
0100
0001
1000
0100
0000
0010
0000
0000
1001
0000
0000
0001
0000
,
0100
0000
0000
0100
1000
0000
0100
0000
0010
0000
1000
0001
0000
0000
0010
0000
,
0001
1000
0002
0000
0103
0000
0100
0000
1000
0100
0001
0000
1020
0000
0000
0000
,
0130
0000
0100
0001
1000
0000
0100
0010
0000
0000
0001
0010
0002
0000
0013
0100
,
0020
0000
0130
1000
0100
0010
0001
1000
0010
0000
0000
0110
0000
0000
0001
0000
,
1000
0000
0000
1000
0100
0010
0100
1000
0010
0000
0100
0001
0000
0000
1000
0000
,
1001
0000
0202
0303
2020
3030
0001
1000
,
0001
0010
0000
0010
0001
0000
1000
0000
0100
0000
0001
0000
0200
0000
0310
0000
,
0001
1000
0000
0001
1000
0000
0010
0000
0110
0000
0000
0000
1000
0000
0100
0000
,
0010
0001
0000
0200
0000
0320
0000
2030
0000
3002
0000
0023
0000
0230
0000
2300
,
0001
3000
0001
0000
1000
0100
0000
1000
0020
0000
0130
0000
1001
0000
0000
0000
,
0011
0000
0000
1000
0001
0000
0100
0000
0010
1000
0010
0000
0000
0100
0001
0000
,
1000
0000
0001
0000
0010
0001
0100
0000
1001
0000
0000
0000
1000
0001
0010
0000
,
1100
0000
0000
0001
0100
0000
0010
0000
0100
0000
0001
0000
0010
0000
0001
0000
,
1001
0000
1000
0000
0110
0000
0001
0000
1000
0100
0010
0001
0200
0000
0000
0000
,
0301
0000
0001
0000
1000
0001
0000
0100
1000
0000
0100
0000
0020
0000
0000
0000
,
1030
0000
1000
0000
0100
0001
0000
0100
1000
0000
0200
0000
0000
0000
0310
0000
,
0010
0000
0001
0000
0010
1000
0000
0010
0001
0000
0200
0000
0000
0000
0301
0000
,
1000
0010
1000
0000
0001
0100
0001
0000
0000
0000
0000
0000
1001
0000
2000
0000
,
0000
0000
3100
0000
0010
0001
0010
0001
1000
0000
0010
0000
0200
0000
0000
0000
,
0301
0000
1000
0000
0001
0010
0001
0010
0001
0000
0100
0000
0002
0000
0000
0000
,
0013
0000
0110
0000
0100
1000
0000
0001
0010
0000
0110
0000
2000
0000
3000
0000
,
0000
0000
0101
0000
1000
0010
0000
0010
0001
0000
0010
0000
2000
0000
0001
0000
,
0000
0000
3001
0000
1000
0100
0010
0001
1000
0000
0110
0000
0002
0000
0000
0000
,
1003
0000
0010
0000
0001
0010
0100
0010
1000
0000
0100
0000
0000
0010
0001
0000
,
0100
0001
0000
1000
0010
0100
0010
1000
0100
0010
0001
1000
0020
0000
0130
0002
,
0000
1003
0200
0000
0310
0001
0010
1000
0010
0001
0100
0010
1000
0000
0000
0001
,
0100
0000
0101
0000
0000
0010
1000
0000
1010
0000
0000
1000
0100
0000
1100
0000
,
0000
0010
0001
0000
0011
0000
0000
1000
0010
0000
0101
0000
0000
1000
0100
0000
,
0022
0000
0000
0000
0033
0000
1000
0000
0001
0100
0000
0202
0000
0303
0000
0000
,
0001
1000
0001
1000
0100
1000
0100
1000
0010
0100
0000
0100
0002
0000
0000
0000
,
1003
0100
0010
0001
1000
0000
1000
0001
0000
0100
0001
1000
0200
0000
0310
0001
,
2000
0000
3010
0100
0010
1000
0010
0100
0001
1000
0000
0220
0000
0330
0001
0000
,
0010
0000
0010
1000
0000
0000
0010
0000
0001
0000
1000
0200
0000
0000
0310
0000
,
0001
0010
0000
0000
0001
0100
0000
0100
0001
1000
0010
1000
0001
0000
0000
0000
,
0100
0001
0100
0010
1000
0000
0001
0010
0000
0000
0100
1000
0020
0000
0130
0001
,
2000
0000
3100
0010
0001
1000
0100
0001
0100
1000
0000
0011
0000
0000
1000
0000
,
0010
0000
0010
0100
0001
0000
1000
0000
0100
0000
0010
0200
0000
0000
1300
0000
,
0001
1000
0000
0000
0100
0010
0100
0010
0001
1000
0000
0000
0001
0100
0010
1000
,
0001
0010
0001
0010
0100
1000
0010
0100
0001
0010
0100
0010
0100
1000
0100
0010
,
0001
0100
0000
0100
0000
0001
1000
0000
0110
0000
0000
2002
0000
0000
0000
0000
,
3003
0000
0000
0000
;
