#TITLE:THE BIG VOYAGER -INFINITE PRAYER REINTERPRETATION-;
#SUBTITLE:;
#ARTIST:L.E.D.;
#TITLETRANSLIT:;
#SUBTITLETRANSLIT:;
#ARTISTTRANSLIT:;
#GENRE:;
#CREDIT:;
#MUSIC:THE BIG VOYAGER -INFINITE PRAYER REINTERPRETATION-.ogg;
#BANNER:THE BIG VOYAGER -INFINITE PRAYER REINTERPRETATION-.png;
#BACKGROUND:;
#CDTITLE:;
#SAMPLESTART:57.499;
#SAMPLELENGTH:15.000;
#SELECTABLE:YES;
#OFFSET:1.251;
#BPMS:0.000=147.000;
#STOPS:;
#BGCHANGES:7.000=THE BIG VOYAGER -INFINITE PRAYER REINTERPRETATION-.avi=1.000=1=0=0=StretchNoLoop==CrossFade==,
272.750=THE BIG VOYAGER -INFINITE PRAYER REINTERPRETATION--bg.png=1.000=0=0=1
;
#FGCHANGES:;

//--------------- dance-single - KONAMI ----------------
#NOTES:
     dance-single:
     KONAMI:
     Beginner:
     3:
     0,0,0,0,0:
0000
0000
0000
0000
,
0000
0000
0000
0000
,
0000
0000
0000
0000
,
0001
0000
0000
0000
,
0010
0000
0000
0000
,
0100
0000
0000
0000
,
1000
0000
0000
0000
,
0001
0000
0010
0000
,
0100
0000
1000
0000
,
0010
0000
0010
0000
,
0100
0000
0000
0000
,
1001
0000
0000
0000
,
1000
0000
1000
0000
,
0010
0000
0001
0000
,
0001
0000
0001
0000
,
0010
0000
1000
0000
,
1000
0000
1000
0000
,
0100
0000
0010
0000
,
0001
0000
0001
0000
,
0100
0000
0010
0000
,
1000
0000
0001
0000
,
1000
0000
0100
0000
,
0001
0000
1000
0000
,
0001
0000
0100
0000
,
1000
0000
0100
0000
,
0010
0000
0001
0000
,
0001
0000
0100
0000
,
0010
0000
1000
0000
,
1000
0000
1000
0000
,
0010
0010
0010
0000
,
0100
0000
0100
0000
,
0001
0001
0001
0000
,
0001
0000
0001
0000
,
0010
0010
0010
0000
,
0100
0000
0100
0000
,
1000
1000
1000
0000
,
0010
0000
1000
0000
,
0001
0001
0001
0000
,
0010
0000
0001
0000
,
1000
1000
1000
0000
,
0100
0000
0001
0000
,
0010
0010
0010
0000
,
0100
0000
1000
0000
,
0010
0010
0010
0010
,
0010
0000
0000
0000
,
0000
0000
0000
0000
,
0100
0000
0000
0000
,
0000
0000
0000
0000
,
0001
0000
0001
0000
,
1000
0000
1000
0000
,
0010
0000
0010
0000
,
0110
0000
0000
0010
,
0010
0000
0000
0000
,
0100
0000
0000
0000
,
0001
0000
0000
0000
,
1000
1000
1000
1000
,
1000
0000
0001
0000
,
1000
0000
0100
0000
,
0001
0000
0010
0000
,
1001
0000
0000
0000
,
0010
0000
1000
0000
,
0100
0100
0100
0000
,
0001
0000
0010
0000
,
1000
1000
1000
0000
,
0100
0000
1000
0000
,
0010
0010
0010
0000
,
0001
0000
0100
0000
,
1000
1000
1000
1000
;

//--------------- dance-single - KONAMI ----------------
#NOTES:
     dance-single:
     KONAMI:
     Easy:
     7:
     0,0,0,0,0:
0000
0000
0000
0000
,
0000
0000
0000
0000
,
0000
0000
0000
0000
,
2002
0000
0000
3003
,
0020
0000
0000
0030
,
0200
0000
0310
0000
,
0100
0001
0010
0100
,
1000
1000
0001
0001
,
1000
1000
0001
0001
,
0110
0110
1001
1001
,
0200
0000
0000
0300
,
1001
0000
0000
0000
,
0001
0001
0100
1000
,
0100
0001
0100
1000
,
1000
0001
0001
1001
,
1000
1000
0001
0001
,
0101
0010
0001
1000
,
0011
0010
0001
1000
,
1000
1000
0100
0100
,
1001
0001
0001
0100
,
0100
1000
0001
1001
,
0100
0010
0100
1001
,
0010
0010
0110
0110
,
0001
0001
0011
0011
,
0100
0100
0001
0011
,
0010
0010
0001
0101
,
0100
1000
0101
1010
,
0100
0001
1100
0011
,
0001
0100
0001
0001
,
1000
0100
1000
1000
,
0100
0010
0100
0100
,
1000
0001
0010
0010
,
0012
0000
1000
1003
,
2100
0000
0100
3100
,
0120
0000
1000
0030
,
2002
0000
0000
3003
,
0110
0010
0010
0010
,
1001
0100
0100
0100
,
0101
1000
1000
1000
,
0110
0001
0001
0001
,
0100
0010
0100
0010
,
0001
0100
0001
0100
,
1000
0001
1000
0001
,
1000
0100
1000
0100
,
2002
0000
0000
0000
,
0000
0000
0000
0000
3003
0000
0000
0100
,
0020
0000
0000
0000
,
0000
0000
0000
0030
,
0001
1000
0010
0100
,
0001
0010
0100
1000
,
0001
0100
0010
1000
,
0101
1100
0101
1100
,
0200
0000
0000
0300
,
0020
0000
0000
0030
,
0002
0000
0000
0003
,
0001
0101
0001
1100
,
0010
0011
0010
1000
,
0010
1010
0010
0001
,
1000
1001
0010
0100
,
2000
0000
0000
3000
,
0001
0010
1000
0100
,
1000
0010
0001
0010
,
1000
0100
0001
0001
,
0100
0010
1000
1000
,
0001
0100
0010
1000
,
1000
0010
0100
0001
,
0010
1000
0010
0001
,
1000
0001
1000
0100
,
1001
0000
0000
0000
;

//--------------- dance-single - KONAMI ----------------
#NOTES:
     dance-single:
     KONAMI:
     Medium:
     9:
     0,0,0,0,0:
0000
0000
0000
0000
,
0000
0000
0000
0000
,
0000
0000
0000
0000
,
0220
0000
0330
0001
,
2002
0000
0000
0000
3003
0000
0000
0010
,
0200
0000
0310
0000
,
0100
0001
0010
0100
,
1000
0001
1000
0100
,
1000
0110
0001
0010
,
0101
1010
1100
0011
,
0200
0000
0000
0300
,
1010
0000
0000
0000
0000
0000
0001
0001
,
0100
0000
0001
0000
0100
0000
1000
1000
,
0100
0000
1000
0000
0100
0000
1000
0001
,
1000
0000
0001
1000
0001
0000
1100
0000
,
0001
1000
0001
0000
1000
0001
1000
0000
,
0101
0000
0010
0000
1000
0100
0001
0000
,
1100
0000
0010
0000
0001
0100
1000
0000
,
1000
0001
1000
0000
0100
0010
0100
0000
,
1001
0000
0001
1000
0001
0000
0100
0010
,
0100
1000
0001
0101
,
0100
0001
1000
1100
,
0001
0010
0001
0000
0011
0000
0011
0000
,
0010
1000
0010
0000
1010
0000
1010
0000
,
0100
0010
0100
0000
0001
0000
0011
0000
,
0100
0010
0100
0000
1000
0000
1010
0000
,
0010
0001
1010
0101
,
0010
1000
0011
1100
,
0001
0020
0000
0000
0031
0000
0001
0000
,
1000
0020
0000
0000
1030
0000
1000
0000
,
0100
0020
0000
0000
0130
0000
0100
0000
,
0010
0002
0000
0000
0013
0000
0010
0000
,
0010
2000
0000
0000
0010
0000
3010
0000
,
0100
2000
0000
0000
0100
0000
3100
0000
,
0100
0020
0000
0000
0100
0000
0130
0000
,
0010
0002
0000
0000
0010
0000
0013
0000
,
0210
0010
0010
0310
,
1020
1000
1000
1030
,
0102
0100
0100
0103
,
2100
0100
0100
3100
,
0110
0110
0110
0110
,
0101
0101
0101
0101
,
1001
1001
1001
1001
,
1100
1100
1100
1100
,
2002
0000
0000
0000
,
0000
0000
0000
0000
3003
0000
0000
0100
,
0020
0000
0000
0000
,
0000
0000
0000
0030
,
0001
0001
1000
0000
0010
0010
0100
0000
,
0001
0001
0010
0000
0100
0100
1000
0000
,
0001
0001
0100
0000
0010
0010
1000
0000
,
0110
0000
0000
0110
0000
0000
0110
0000
0000
0110
0000
0000
0100
0000
0010
0000
,
0200
0000
0000
0000
0000
0000
0300
1000
,
0020
0000
0000
0000
0000
0000
0030
0100
,
0002
0000
0000
0000
0000
0000
0003
0100
,
0001
0101
1001
1100
,
0010
0000
0011
0000
1001
0000
0001
1000
,
0010
0000
1010
0000
1001
0000
0010
0001
,
1000
1000
0001
0001
0010
0010
0100
0100
,
2000
0000
0000
3000
,
0002
0010
1000
0013
,
2000
0010
0001
3010
,
0200
0001
0010
0301
,
0020
0100
1000
0130
,
2000
3020
0230
0302
,
0023
0000
0000
0000
0230
0000
0000
0300
2000
0000
0000
0000
3002
0000
0000
0000
,
0013
0001
1000
0000
0010
1000
0001
0000
,
1000
0100
1000
0010
1000
0000
1010
0000
,
0101
0000
0000
0000
;

//--------------- dance-single - KONAMI ----------------
#NOTES:
     dance-single:
     KONAMI:
     Hard:
     12:
     0,0,0,0,0:
0000
0000
0000
0000
,
0000
0000
0000
0000
,
0000
0000
0000
0000
,
1001
0000
0000
0000
0000
0000
0000
0000
0010
0000
0000
0100
0000
0000
1000
0000
,
0001
0000
0000
0000
0000
0000
0000
0000
0001
0000
0000
1000
0000
0000
0100
0000
,
0010
0000
0000
0000
0000
0000
0000
0000
0010
0000
0000
1000
0000
0000
0100
0000
,
1001
1010
0101
1001
,
1000
0000
0000
1000
0100
0000
0000
0100
0001
0000
0000
0001
0100
0000
1000
0000
,
0100
0000
0000
0010
0100
0000
0000
0100
0010
0000
0000
0010
0001
0000
0100
0000
,
1000
0000
0000
0100
0001
0000
0000
0001
0100
0000
0000
0100
1000
0000
0100
0000
,
2002
0000
0000
3003
,
0220
0000
0000
0330
,
0010
0100
1000
0100
0010
0000
1000
0000
,
0100
0000
0001
0000
0100
0000
0001
0000
1000
0000
0000
0000
0010
0000
0000
1000
,
0001
0100
0001
0100
1000
0000
0100
0000
,
0010
1000
0001
1000
0100
0000
1000
0100
,
0001
1100
0101
0100
,
0010
0000
1000
0000
0001
0000
0100
0000
0001
0000
0000
0000
1000
0000
0000
0010
,
1000
0100
1000
0010
0100
0000
0010
0000
,
1000
0010
1000
0100
0001
0000
0010
0001
,
1000
0110
1001
0100
,
1000
0000
0001
0000
1000
0000
0001
0000
0100
0000
0000
0000
0010
0000
0000
0001
,
0100
0001
0010
0001
0100
0000
0001
0000
,
0100
1000
0100
0001
0001
0000
1000
0010
,
0001
1010
0011
1000
,
1000
0001
0100
0010
0100
0000
0010
0000
,
0001
0100
1000
0100
0100
0000
0010
0100
,
1000
0000
0000
0000
1100
0000
0000
0000
0101
0000
0000
0000
0001
0000
0100
0010
,
0100
0000
0000
0001
0000
0000
1000
0000
0000
0100
0000
0000
1000
0000
0000
0000
,
0001
0100
0001
0100
0010
0100
1000
0000
,
0010
0000
0000
1000
0000
0000
0001
0000
0000
1000
0000
0000
0100
0000
0000
0000
,
0010
0001
0100
1000
0100
0001
0010
0000
,
0100
0000
0000
1000
0000
0000
0100
0000
0000
0010
0000
0000
0001
0000
0000
0000
,
0010
1000
0100
0001
0100
1000
0010
0000
,
0100
0000
0000
0010
0000
0000
1000
0000
0000
0001
0000
0000
1000
0000
0001
0000
,
1000
0100
0010
0001
1000
0100
1000
0000
,
0001
0000
0000
1000
0000
0000
0001
0000
0000
0100
0000
0000
0001
0000
0100
0000
,
0001
0100
0000
0010
0100
0000
0001
0100
0000
0010
0100
0000
0100
0000
0000
0000
,
0001
0000
0000
0010
0000
0000
0001
0000
0000
1000
0000
0000
0100
0000
1000
0000
,
1000
0100
0000
0100
1000
0000
0010
1000
0000
1000
0100
0000
0100
0000
0000
0000
,
0010
0000
0000
0100
0000
0000
0010
0000
0000
0001
0000
0000
1000
0000
0001
0000
,
1000
0100
0000
0001
0100
0000
0010
0001
0000
0010
0100
0000
1000
0000
0100
0000
,
1000
0000
0000
0100
0000
0000
0010
0000
0000
0001
0000
0000
0100
0000
0010
0000
,
0100
0001
0000
0100
0010
0000
0100
1000
0000
0100
0001
0000
0100
0000
1000
0000
,
0100
0000
0000
0000
,
0000
0000
0000
0000
0000
0000
0000
0100
,
2002
0000
0000
3003
,
0000
0000
0000
0000
,
1000
0001
0100
1000
0100
0000
0001
0000
,
0010
0001
0100
1000
0100
0000
0010
0001
,
1000
0001
0010
0100
1000
0000
0010
0001
,
0010
0000
0000
0100
0000
0000
1000
0000
0000
0100
0000
0000
0001
0000
0100
0000
,
0001
0000
0000
0000
0000
0000
0000
1000
,
2200
0000
0000
0000
0000
0000
3300
0001
,
0202
0000
0000
0000
0000
0000
0303
1000
,
0001
0000
0000
0000
1000
0000
0000
0000
0010
0000
0000
1000
0000
0000
0010
0000
,
1000
0000
0000
0010
0100
0000
0000
0100
1000
0000
0000
1000
0100
0000
0010
0000
,
1000
0000
0000
1000
0100
0000
0000
0100
0001
0000
0000
0001
0100
0000
0010
0000
,
0001
0000
0000
1000
0010
0000
0000
0010
0001
0000
0000
0010
1000
0000
0000
1000
,
0100
0000
0000
0000
0000
0000
0000
0000
0000
0000
0000
0000
1000
0000
0001
1000
,
0001
0000
0010
0000
1000
0000
0010
1000
,
0100
0010
0000
0010
0100
0000
0100
1000
0000
1000
0100
0000
0100
0000
0000
0000
,
0110
0000
1001
0000
1000
0000
0010
0001
,
0100
1000
0000
0100
0001
0000
0010
0001
0000
0100
1000
0000
0100
0000
1000
0000
,
0100
0000
1100
0000
0101
0000
1000
0001
,
0001
1000
0000
1000
0001
0000
0100
0010
0000
0010
0100
0000
0100
0000
0000
0000
,
0001
0100
1000
0100
0001
0100
0010
0100
,
0010
0000
0100
0000
1000
0000
0100
0000
0100
0010
0100
0000
0001
0100
0001
0100
;

//--------------- dance-single - forcednature ----------------
#NOTES:
     dance-single:
     forcednature:
     Challenge:
     15:
     0,0,0,0,0:
0000
0000
0000
0000
,
0000
0000
0000
0000
,
0000
0000
0000
0000
,
2002
0000
0000
0000
3003
0000
0000
0000
0100
0000
0000
0100
0000
0000
0100
0000
,
0100
0000
0000
0000
0000
0000
0000
0000
0100
0000
0000
0100
0000
0000
0110
0000
,
2002
0000
0000
0000
3003
0000
0000
0000
0100
0000
0000
0100
0000
0000
0100
0000
,
0100
0000
0000
0000
0100
0000
0000
0000
0100
0000
0000
0010
0100
0000
0100
0000
,
1001
0000
0000
1000
0100
0000
0000
0001
0100
0000
0000
1000
0100
0000
0100
0000
,
1001
0000
0000
0001
0100
0000
0000
1000
0100
0000
0000
0001
0100
0000
0100
0000
,
1001
0000
0000
1000
0010
0000
0000
0001
0010
0000
0000
1000
0010
0000
0110
0000
,
0002
0000
2003
3000
,
0220
0000
0000
0000
0000
0000
0000
0000
0000
0000
0000
0000
0330
0001
0100
0010
,
1000
0000
0000
0001
0000
0000
0010
0000
0100
1000
0100
0010
0001
0000
0001
0000
,
0100
0010
0000
0010
0000
0000
1000
0000
0001
0100
0001
0000
1000
0100
1000
0000
,
0010
0000
0000
1000
0000
0000
0001
0000
0010
0100
1000
0100
0010
0001
1000
0000
,
0001
0100
0000
0100
0000
0000
0010
1000
0001
1000
0100
0000
0010
0001
1000
0001
,
0100
0000
0000
0010
0000
0000
1000
0000
0100
0010
0001
1000
0001
0100
0010
0000
,
1000
0001
0000
0001
0000
0000
0010
0000
0100
1000
0001
0000
0100
0001
1000
0000
,
0010
0000
0000
0100
0000
0000
0001
0000
1000
0100
0010
0001
0100
0001
1000
0000
,
0010
1000
0000
1000
0000
0001
0010
0100
1000
0001
0100
0000
0010
1000
0010
1000
,
0001
0000
0010
0100
1000
0000
0001
1000
0010
0000
0100
0001
1000
0001
0010
0000
,
0100
1000
0000
0010
0100
0000
0001
0010
0100
0000
1000
0001
0100
0001
1000
0000
,
0010
1000
0001
0000
1000
0000
0100
0010
0001
0000
1000
0001
0100
0010
1000
0000
,
0001
0010
0100
1000
0010
0000
0100
0001
1000
0001
0010
0000
0100
0000
0100
0000
,
1001
0000
0001
1000
0010
0000
1000
0100
0010
0000
0100
1000
0001
0100
0010
0000
,
1000
0001
0000
0010
0100
0000
0010
0001
1000
0010
0100
0001
1000
0100
0010
0000
,
0001
0100
0001
0000
0010
0000
0100
1000
0010
0000
0100
0000
0001
0000
1001
0000
,
0000
1000
0100
1000
0100
0000
0010
0001
0000
1000
0001
0000
0101
0000
0000
0000
,
1010
0000
0001
0000
1000
0000
0100
0010
0001
1000
0001
0100
0010
1000
0001
0010
,
0000
0000
0100
1000
0000
0100
1000
0000
0001
0010
0000
0001
1000
0010
0000
0000
,
0101
0000
1000
0000
0100
0000
0010
0100
1000
0001
1000
0010
0100
0001
0010
0100
,
0000
0000
1000
0010
0000
0100
0001
0000
1000
0010
0000
0100
0001
0000
1000
0100
,
0010
0000
0010
0000
0001
1000
0001
0100
0010
1000
0001
1000
0100
0010
0001
1000
,
0000
0000
0001
0100
0000
0010
1000
0000
0001
0010
0000
0100
1000
0100
0000
0010
,
0001
0000
0001
1000
0000
0000
0010
0100
0000
0001
0010
0100
1000
0001
0100
0010
,
0000
0000
1000
0100
0000
1000
0001
0000
0100
0001
0000
1000
0001
0000
0010
0100
,
1000
0000
0010
0100
0001
0000
0010
0100
0010
0001
1000
0010
0100
0001
1000
0100
,
0000
0000
0010
0001
0100
0010
1000
0100
1000
0001
0100
0010
1000
0001
0000
0010
,
0100
1000
0001
0100
0000
0010
1000
0001
1000
0100
0010
0001
1000
0010
0100
0001
,
0000
0000
0010
0001
0100
0010
1000
0100
1000
0010
0100
0001
0010
0001
0100
0010
,
1000
0000
1000
0100
0010
0000
0001
0100
0010
1000
0001
1000
0100
0010
0001
0100
,
0010
0000
1000
0001
0010
0001
1000
0100
1000
0001
0100
0001
1000
0010
0000
0100
,
0001
0000
0001
0010
0100
0000
1000
0001
0100
0010
1000
0100
1000
0010
0100
0001
,
0000
0010
0100
0010
0001
0100
0010
0001
0010
0100
0001
1000
0100
0010
0001
1000
,
0020
0000
0000
0000
,
0000
0000
0000
0000
0000
0030
0000
0110
,
2002
0000
0000
0000
,
0000
0000
0000
0000
0000
0000
0000
0000
0000
0000
0000
0000
3003
0000
0000
1000
,
0100
0000
0010
0000
0011
0000
0000
0001
0100
0000
0010
0000
1010
0000
0000
1000
,
0001
0000
0010
0000
0110
0000
0000
0100
1000
0000
0001
0000
1001
0000
0000
0001
,
0100
0000
0010
1000
0000
0001
0000
1000
0100
0010
0001
0100
0000
0010
1000
0000
,
1001
0000
0000
1100
0000
0000
1001
0000
0000
0101
0000
0000
1001
0000
0110
0000
,
2002
0000
0000
0000
0000
3003
0000
1100
,
0022
0000
0000
0000
0000
0033
0000
0101
,
2020
0000
0000
0000
0000
3030
0000
0110
,
1001
0000
0000
0000
1001
0000
0000
0000
1001
0000
0000
0100
0010
0000
0100
0000
,
1001
0000
1000
0001
0100
0000
0001
1000
0100
0000
1000
0001
0100
0000
0100
0000
,
0110
0000
0001
1000
0010
0000
1000
0001
0010
0000
0001
1000
0010
0000
0010
0000
,
0100
0001
0000
1000
0100
0010
0000
0001
0100
0010
0000
1000
0100
0010
0000
0001
,
2000
0000
0000
0000
0000
0000
0000
0000
3002
0000
0000
0000
0103
0000
0100
0001
,
0100
0010
1000
0100
1000
0000
0010
0100
0001
0010
0100
0010
0001
1000
0010
0100
,
0000
0001
0010
0100
0010
0001
0100
0010
1000
0100
0010
0100
1000
0010
0000
0100
,
0001
0010
0100
1000
0001
0000
1000
0010
0100
1000
0100
0010
1000
0001
1000
0100
,
0000
0010
0001
0100
0010
1000
0001
0100
1000
0100
0010
1000
0001
1000
0100
0010
,
0001
0010
0100
1000
0001
0000
0001
1000
0010
0100
0001
1000
0100
0010
0001
0100
,
0010
1000
0001
0010
0100
0000
0100
1000
0001
1000
0010
0100
0001
0010
0100
0010
,
0001
0110
1000
0110
0100
1001
0010
1001
,
0001
0010
0100
1000
0010
0100
0001
0010
0100
1000
0010
0100
0001
1000
0001
1000
;

//--------------- dance-double - KONAMI ----------------
#NOTES:
     dance-double:
     KONAMI:
     Easy:
     6:
     0,0,0,0,0:
00000000
00000000
00000000
00000000
,
00000000
00000000
00000000
00000000
,
00000000
00000000
00000000
00000000
,
20020000
00000000
00000000
30030000
,
02000000
00000000
00000000
03000000
,
00200000
00000000
01300000
00000000
,
00100000
10000000
01000000
00100000
,
00100000
00000000
00100000
00000000
,
10000000
00000000
10000000
00000000
,
00010000
00000000
00010000
00000000
,
00011000
00000000
00000000
00000000
,
00011000
00000000
00000000
00000000
,
00010000
00010000
00000000
00000010
,
00001000
00001000
00000001
00000000
,
00000100
00000100
00000010
00001000
,
00000001
00000000
00000010
00000100
,
00000010
00000010
00000000
00000010
,
00000100
00000100
00001000
00000000
,
00000100
00000100
00010000
00001000
,
00010000
00000000
00000100
00001000
,
00000001
00000001
00001000
00000001
,
00000000
00001000
00000010
00000000
,
00010000
00001000
00010000
00000000
,
00001000
00000000
00100000
00000000
00010000
00000000
00010000
10000000
,
00010000
00010000
00100000
00010000
,
10000000
10000000
00010000
00000000
,
00010000
01000000
00001000
00000000
,
00011000
00000000
00000000
00011000
,
00010000
00001000
00100000
00000000
,
00000000
00000000
00100000
00000000
00100000
00000000
00000000
00010000
,
10000000
00000000
00010000
00010000
,
00010000
00000000
00000000
00000000
01000000
00000000
00000000
00010000
,
00001000
00000010
00001000
00000001
,
00000100
00000000
00001000
00000000
00001000
00000000
00000000
00000001
,
00000100
00000010
00000001
00000001
,
00000001
00001000
00000100
00000010
,
00000001
00000010
00000011
00000000
,
00000001
00001000
00001010
00000000
,
00001000
00000100
00001100
00000000
,
00010000
00001000
00011000
00000000
,
00100000
01000000
01100000
00000000
,
10000000
01000000
11000000
00000000
,
00010000
01000000
01010000
00000000
,
00100000
00001000
00011000
00000000
,
00220000
00000000
00000000
00000000
,
00000000
00000000
00000000
00000000
00000000
00330000
00000000
00100000
,
00100000
00000000
10100000
00000000
,
00010000
10000000
00100000
00000000
,
00011000
00000010
00001000
00000001
,
00000100
00000010
00000100
00000001
,
00001000
00000010
00000100
00001000
,
00000000
00000000
00000000
00000000
00000000
00000000
00000000
00000010
,
00002000
00000000
00000000
00000000
00000000
00003000
00000000
00000001
,
00000020
00000000
00000000
00000000
00000000
00000030
00000000
00001000
,
00000200
00000000
00000000
00000000
00000000
00000300
00000000
00000001
,
00000010
00000000
00000010
00000000
00000010
00000000
00000001
00001000
,
00000001
00000000
00000100
00000000
00000001
00000000
00001000
00001000
,
00000100
00000000
00010000
00000000
00001000
00000000
00010000
00010000
,
00001000
00000000
00100000
00000000
00010000
00000000
00010000
00010000
,
20000000
00000000
00000000
00000000
00000000
30000000
00000000
10000000
,
01000000
00100000
00010000
00000000
,
10000000
00000000
00100000
00000000
,
00010000
00100000
00001000
00010000
,
00001000
00100000
00010000
00100000
,
00001000
00010000
00000010
00001000
,
00000010
00001000
00000001
00000100
,
00000000
00000100
00000000
00000100
,
00000001
00000001
00001000
00001000
,
00000010
00000000
00000000
00000000
;

//--------------- dance-double - KONAMI ----------------
#NOTES:
     dance-double:
     KONAMI:
     Medium:
     9:
     0,0,0,0,0:
00000000
00000000
00000000
00000000
,
00000000
00000000
00000000
00000000
,
00000000
00000000
00000000
00000000
,
02200000
00000000
03300000
10000000
,
20020000
00000000
00000000
00000000
30030000
00000000
00000000
01000000
,
00200000
00000000
01300000
00000000
,
00100000
10000000
01000000
00100000
,
00100000
00010000
10000000
01000000
,
10000000
01000000
00010000
00001000
,
00000010
00000100
00000010
00000001
,
00002002
00000000
00000000
00003003
,
00002002
00000000
00000000
00003003
,
00000010
00001000
00000100
00000010
,
00000001
00001000
00000010
00000100
,
00001000
00010000
01000000
00100000
,
10000000
10000000
00010000
00100000
,
00001000
00010000
01000000
00000000
10000000
00000000
00010000
00000000
,
10000000
00010000
00100000
00000000
01000000
00000000
10000000
00000000
,
00100000
00010000
00001000
00000000
00000010
00000000
00000001
00000000
,
00001000
00000001
00000100
00000000
00000010
00000000
00001000
00000000
,
00000000
00000001
00000100
00000001
00000000
00001000
00000100
00001000
,
00000000
00000100
00010000
00000100
00000000
00010000
00001000
00010000
,
00000000
00100000
10000000
00100000
00000000
01000000
00010000
01000000
,
00000000
00001000
00010000
00001000
00000000
00010000
00000010
00010000
,
00000000
00000100
00001000
00000100
00000000
00000100
00000010
00000100
,
00000000
00001000
00000001
00001000
00000000
00000100
00000010
00000001
,
00000000
00001000
00000010
00000100
00000000
00000010
00010000
00001000
,
00000000
00001000
00000010
00000001
00000000
00000001
00000100
00000000
,
00000010
00001000
00000010
00010000
00001000
00000100
00000001
00000000
,
00000001
00000100
00001000
00010000
01000000
10000000
00010000
00000000
,
00100000
00010000
01000000
00100000
10000000
01000000
00100000
00000000
,
00100000
00001000
00100000
00010000
01000000
00001000
00010000
00000000
,
00001000
00010000
01000000
00010000
00001000
00000100
00001000
00000000
,
00010000
00100000
00010000
00001000
00000010
00001000
00010000
00000000
,
00001000
00010000
00000010
00001000
00000100
00001000
00000001
00000000
,
00000010
00000100
00000010
00000100
00001000
00000001
00001000
00000000
,
00000010
00001001
00000100
00000100
,
00000001
00000110
00001000
00001000
,
00010000
01100000
10000000
10000000
,
00010000
01010000
00100000
00100000
,
10000000
11000000
00010000
00010000
,
00001000
00001100
00000010
00000010
,
00000010
00001000
00000001
00000000
00000001
00001000
00000100
00000000
,
00000010
00000001
00001000
00000001
00001000
00000010
00000100
00000000
,
00002002
00000000
00000000
00000000
,
00000000
00000000
00000000
00000000
00000000
00003003
00000000
00000010
,
00000220
00000000
00000000
00000000
,
00000000
00000000
00000000
00000330
,
00001000
00000010
00001000
00000100
,
00000001
00001000
00000010
00010000
,
00001000
00010000
00000010
00001000
,
00000010
00000000
00000000
00010000
00000000
00000000
00001000
00000000
00000000
00010000
00000000
00000000
00001000
00000000
00000100
00000000
,
00000002
00000000
00000000
00000000
00000000
00000000
00000003
00000100
,
00000200
00000000
00000000
00000000
00000000
00000000
00000300
00000010
,
00000010
00000000
00001000
00000000
00010000
00000000
00100000
10000000
,
10000000
00000000
01000000
00000000
00100000
00000000
00010000
01000000
,
01000000
00000000
10000000
00000000
00100000
00000000
00010000
00001000
,
00001000
00000000
00010000
00000000
01000000
00000000
00100000
00001000
,
00001000
00000010
00000001
00001000
,
00002002
00000000
00000000
00003003
,
00000001
00000100
00000010
00000000
00010000
00001000
00000100
00000000
,
00001000
00010000
00000010
00000000
00010000
00001000
00100000
00000000
,
00010000
00100000
01000000
00000000
10000000
00010000
01000000
00000000
,
00100000
10000000
01000000
00010000
01000000
10000000
00010000
00000000
,
01000000
00001000
00010000
00000000
00010000
00001000
00000100
00000000
,
00000001
00000010
00000100
00000000
00001000
00000100
00000010
00000000
,
00000001
00001000
00000100
00000000
00001000
00000001
00000100
00000000
,
00000010
00001000
00000001
00000010
00001000
00010000
00000010
00001000
,
00000100
00000000
00000000
00000000
;

//--------------- dance-double - KONAMI ----------------
#NOTES:
     dance-double:
     KONAMI:
     Hard:
     12:
     0,0,0,0,0:
00000000
00000000
00000000
00000000
,
00000000
00000000
00000000
00000000
,
00000000
00000000
00000000
00000000
,
00001001
00000000
00000000
00000000
00000000
00000000
00000000
00000000
00000100
00000000
00000000
00000010
00000000
00000000
00000001
00000000
,
00001000
00000000
00000000
00000000
00000000
00000000
00000000
00000000
00001000
00000000
00000000
00000001
00000000
00000000
00000010
00000000
,
00000100
00000000
00000000
00000000
00000000
00000000
00000000
00000000
00000100
00000000
00000000
00000001
00000000
00000000
00000010
00000000
,
00001000
00000001
00001000
00000001
,
00001000
00000000
00000000
00001000
00000100
00000000
00000000
00000100
00000010
00000000
00000000
00000010
00000001
00000000
00000100
00000000
,
00000010
00000000
00000000
00000010
00010000
00000000
00000000
00010000
00001000
00000000
00000000
00001000
01000000
00000000
00100000
00000000
,
10000000
00000000
00000000
10000000
01000000
00000000
00000000
01000000
00100000
00000000
00000000
00100000
00010000
00000000
01000000
00000000
,
20020000
00000000
00000000
30030000
,
00200000
00000000
00000000
00300000
,
00100000
01000000
10000000
01000000
00100000
01000000
10000000
00000000
,
01000000
00010000
00001000
00010000
01000000
00010000
00001000
00000000
,
00000100
00000001
00000010
00000001
00000100
00000001
00000010
00000000
,
00000001
00001000
00000100
00001000
00000001
00001000
00000100
00000000
,
00010000
00001000
00000100
00001000
00010000
01000000
00010000
00001000
,
00000010
00001000
00010000
00100000
00010000
00001000
00000010
00000000
,
00000001
00000100
00001000
00000100
00000001
00000100
00001000
00010000
,
01000000
10000000
01000000
00010000
01000000
10000000
01000000
00000000
,
10000000
00100000
10000000
01000000
10000000
00100000
00010000
00001000
,
00000010
00000001
00000100
00000001
00000010
00000001
00000100
00000000
,
00001000
00010000
00100000
00010000
00001000
00000010
00001000
00010000
,
00100000
00010000
00001000
00000010
00001000
00010000
00100000
00000000
,
10000000
01000000
10000000
00100000
10000000
00010000
00100000
00010000
,
01000000
00001000
00010000
00000100
00010000
00000010
00010000
00000100
,
00000010
00000001
00000100
00000001
00001000
00000001
00000100
00000010
,
00001000
00000010
00010000
00000010
00000100
00000010
00010000
00000000
,
00001000
00000000
00000000
00000010
00000000
00000000
00000001
00000000
00000000
00000100
00000000
00000000
00001000
00000000
00000000
00000000
,
00010000
01000000
00100000
00010000
01000000
00100000
00100000
00000000
,
00010000
00000000
00000000
00100000
00000000
00000000
10000000
00000000
00000000
01000000
00000000
00000000
00010000
00000000
00000000
00000000
,
00001000
00000100
00000001
00000100
00000010
00000100
00000100
00000000
,
00000001
00000000
00000000
00001000
00000000
00000000
00000001
00000000
00000000
00001000
00000000
00000000
00000100
00000000
00000000
00000000
,
00000010
00000001
00000100
00001000
00010000
01000000
10000000
00000000
,
00010000
00000000
00000000
10000000
00000000
00000000
00010000
00000000
00000000
10000000
00000000
00000000
01000000
00000000
00000000
00000000
,
00100000
00010000
10000000
01000000
00010000
00001000
00000100
00000000
,
00001000
00000000
00000000
00010000
00000000
00000000
01000000
00000000
00000000
00100000
00000000
00000000
00001000
00000000
00000000
00000000
,
00010000
00001000
00000100
00000001
00000100
00001000
00010000
00000000
,
00001000
00000000
00000000
00000100
00000000
00000000
00000010
00000000
00000000
00000100
00000000
00000000
00000001
00000000
00000000
00000000
,
00000010
00001000
00010000
00100000
10000000
00100000
00010000
00000000
,
00001000
00000000
00000000
01000000
00000000
00000000
00100000
00000000
00000000
01000000
00000000
00000000
00010000
00000000
00000000
00000000
,
01000000
00001000
00010000
00000100
00010000
00001000
01000000
00000000
,
00100000
00000000
00000000
10000000
00000000
00000000
00010000
00000000
00000000
10000000
00000000
00000000
01000000
00000000
00000000
00000000
,
00100000
00001000
00010000
00000010
00010000
00001000
00100000
00010000
,
02000000
00010000
00000000
00010000
,
00000000
00000000
00010000
00000000
00000000
00000000
03010000
01000000
,
20020000
00000000
00000000
30030000
,
00000000
00000000
00000000
00000000
,
10000000
01000000
00000000
00000000
01000000
10000000
00000000
00000000
00010000
01000000
00000000
00000000
01000000
00010000
00000000
00000000
,
10000000
00100000
00000000
00000000
00100000
10000000
00000000
00000000
00010000
00100000
00000000
00000000
00100000
00010000
00000000
00000000
,
10000000
01000000
00000000
00000000
01000000
00010000
00000000
00000000
00010000
00001000
00000000
00000000
00001000
00000100
00000000
00000000
,
00000101
00000000
00000000
00001010
00000000
00000000
00001100
00000000
00000000
00000011
00000000
00000000
00001001
00000000
00001001
00000000
,
00001001
00000000
00000000
00000000
00000000
00000000
00000000
00001000
,
00002200
00000000
00000000
00000000
00000000
00000000
00003300
00000001
,
00000202
00000000
00000000
00000000
00000000
00000000
00000303
00000010
,
00001001
00000000
00000000
00000000
00001001
00000000
00000000
00000000
00001001
00000000
00000000
00000100
00000010
00000000
00000100
00000000
,
00001001
00000000
00000000
00000001
00000100
00000000
00000000
00000001
00000100
00000000
00000000
00000001
00000100
00000000
00000010
00000000
,
00000010
00000000
00000000
00001000
00000100
00000000
00000000
00001000
00000100
00000000
00000000
00001000
00000100
00000000
00001000
00000001
,
00001000
00000001
00000000
00000010
00000100
00001000
00000000
00000010
00000100
00000001
00000000
00000010
00000100
00001000
00000000
00000001
,
00000200
00000000
00000000
00000000
00000000
00000000
00000000
00000000
00000300
00000000
00000000
00000000
00000100
00000000
00000001
00001000
,
00000001
00000000
00000000
00000100
00000000
00000000
00000001
00000000
00000000
00001000
00000000
00000000
00000100
00000000
00000100
00000000
,
00010000
00001000
00000000
00000000
00001000
01000000
00000000
00000000
01000000
00100000
00000000
00000000
00100000
10000000
00000000
00000000
,
01000000
00000000
00000000
00100000
00000000
00000000
00010000
00000000
00000000
10000000
00000000
00000000
01000000
00000000
01000000
00000000
,
00100000
00001000
00000000
00000000
00001000
01000000
00000000
00000000
01000000
00100000
00000000
00000000
00100000
10000000
00000000
00000000
,
01000000
00000000
00000000
00010000
00000000
00000000
00001000
00000000
00000000
00000100
00000000
00000000
00000001
00000000
00000001
00000000
,
00000010
00000100
00000000
00000000
00000100
00001000
00000000
00000000
00001000
00000001
00000000
00000000
00000001
00000100
00000000
00000000
,
00000010
00000000
00000000
00010000
00000000
00000000
00001000
00000000
00000000
01000000
00000000
00000000
00010000
00000000
00100000
00000000
,
00010000
01000000
00010000
00000000
10000000
00100000
10000000
00000000
00010000
00100000
00010000
00000000
10000000
01000000
10000000
01000000
;

//--------------- dance-double - forcednature ----------------
#NOTES:
     dance-double:
     forcednature:
     Challenge:
     16:
     0,0,0,0,0:
00000000
00000000
00000000
00000000
,
00000000
00000000
00000000
00000000
,
00000000
00000000
00000000
00000000
,
00022000
00000000
00000000
00000000
00033000
00000000
00000000
00000000
01000000
00000000
00000000
00001000
00000000
00000000
00000100
00000000
,
00001000
00000000
00000000
00000000
00000000
00000000
00000000
00000000
00001000
00000000
00000000
00010000
00000000
00000000
00011000
00000000
,
00022000
00000000
00000000
00000000
00033000
00000000
00000000
00000000
00000100
00000000
00000000
00010000
00000000
00000000
01000000
00000000
,
00010000
00000000
00000000
00000000
00010000
00000000
00000000
00000000
00010000
00000000
00000000
00001000
00010000
00000000
00000000
00000000
,
00011000
00000000
00000000
00000100
00010000
00000000
00000000
00001000
00010000
00000000
00000000
00100000
00010000
00000000
00010000
00000000
,
00011000
00000000
00000000
01000000
00001000
00000000
00000000
00010000
00001000
00000000
00000000
00000010
00001000
00000000
00001000
00000000
,
00011000
00000000
00000000
00000100
00010000
00000000
00000000
00001000
01000000
00000000
00000000
00001000
00010000
00000000
00001000
00000000
,
00020000
00000000
00032000
00000000
,
00003020
00000000
00000000
00000000
00000000
00000000
00000000
00000000
00000000
00000000
00000030
00000000
00000000
00000010
00000001
00001000
,
00000001
00000000
00000000
00000100
00000000
00000000
00001000
00000000
00010000
00001000
00100000
00010000
00100000
00000000
00100000
00000000
,
01000000
10000000
00000000
10000000
00000000
00000000
00010000
00000000
01000000
00001000
00010000
00000000
00000010
00010000
00001000
00000000
,
00000010
00000000
00000000
00000100
00000000
00000000
00000010
00000000
00000001
00001000
00000010
00010000
00001000
01000000
00010000
00000000
,
00100000
00001000
00000000
00001000
00000000
00000000
00010000
00100000
10000000
00010000
10000000
00000000
01000000
00010000
00001000
00010000
,
00001000
00000000
00000000
00000010
00000000
00000000
00000001
00000000
00000100
00000010
00001000
00000010
00010000
00001000
00010000
00000000
,
00100000
10000000
00000000
10000000
00000000
00000000
01000000
00000000
00010000
00001000
00010000
00000000
00000100
00001000
00000010
00000000
,
00000100
00000000
00000000
00001000
00000000
00000000
00010000
00000000
00100000
10000000
00010000
10000000
01000000
00010000
00001000
00000000
,
00000010
00000001
00000000
00000001
00000000
00000100
00000001
00000100
00000010
00001000
00000010
00000000
00010000
00001000
00010000
00001000
,
00010000
00000000
01000000
10000000
01000000
00000000
00100000
00001000
00010000
00000000
00000010
00001000
00000100
00001000
00000010
00000000
,
00000100
00000001
00000000
00000001
00000010
00000000
00000100
00010000
00001000
00000000
00100000
00001000
00010000
00001000
01000000
00000000
,
00100000
10000000
00010000
00000000
10000000
00000000
01000000
00010000
00001000
00000000
00010000
00001000
00000100
00000001
00001000
00000000
,
00000100
00000010
00000001
00000100
00000001
00000000
00000010
00000100
00001000
00000100
00010000
00000000
00001000
00000000
00001000
00000000
,
00011000
00000000
01000000
00010000
10000000
00000000
00100000
10000000
01000000
00000000
00100000
00001000
00010000
00000100
00010000
00000000
,
00001000
00000100
00000000
00000001
00000100
00000000
00000010
00010000
00001000
01000000
00010000
10000000
00010000
00100000
01000000
00000000
,
10000000
01000000
00010000
00000000
00001000
00000000
00000010
00000001
00000100
00000000
00001000
00000000
00010000
00000000
00022000
00000000
,
00000000
00000000
00000000
00033000
,
00000100
00000000
00010000
00000000
01000000
00000000
00100000
00010000
00100000
01000000
10000000
00010000
10000000
00100000
01000000
00010000
,
00000000
00000000
00100000
00000000
00000000
00001000
00000000
00000000
00000010
00000000
00000000
00000001
00001000
00000001
00000000
00000000
,
00000100
00000000
00000010
00000000
00000100
00000000
00001000
00010000
00001000
01000000
00010000
01000000
00100000
10000000
00010000
10000000
,
00000000
00000000
01000000
00000000
00000000
00001000
00000000
00000000
00000010
00000000
00000000
00010000
00000000
00000000
00100000
10000000
,
00100000
00000000
00100000
00000000
01000000
00010000
01000000
00001000
00010000
00000100
00001000
00000100
00000010
00000001
00001000
00000001
,
00000000
00000000
00000100
00000000
00000000
00010000
00000000
00000000
01000000
00000000
00000000
00100000
10000000
00100000
00000000
00000000
,
01000000
00000000
00000000
00001000
00000000
00000000
00000010
00000000
00000000
00000001
00001000
00000001
00000100
00000010
00001000
00000010
,
00000000
00000000
00010000
00000000
00000000
00100000
00000000
00000000
10000000
00000000
00000000
01000000
00000000
00000000
00010000
00001000
,
00010000
00000000
00000010
00000000
00001000
00000000
00000001
00000010
00000100
00000010
00000100
00001000
00000100
00010000
00001000
00100000
,
00000000
00000000
01000000
10000000
00000000
01000000
00010000
00000000
00001000
00000010
00000000
00000001
00000100
00000001
00000000
00000000
,
00000100
00000000
00001000
00000000
01000000
00000000
00100000
10000000
00010000
10000000
01000000
00100000
00010000
00001000
00000100
00000010
,
00000000
00000000
00000001
00000100
00000000
00001000
00010000
00000000
00100000
10000000
00000000
01000000
00010000
00000000
00001000
00010000
,
00001000
00000000
00000010
00000000
00000001
00000000
00000100
00000010
00001000
00010000
01000000
00100000
10000000
00010000
10000000
01000000
,
00000000
00000000
00010000
00001000
00000000
00000100
00001000
00000000
00010000
01000000
00000000
00010000
00001000
00010000
00000000
00100000
,
10000000
00000000
10000000
01000000
00010000
00000000
00001000
00000010
00000001
00001000
00000001
00000100
00001000
00010000
00001000
01000000
,
00100000
10000000
01000000
00100000
00010000
01000000
00100000
10000000
00010000
00100000
00001000
00010000
00000010
00001000
00000100
00000010
,
00000002
00000000
00000000
00000000
,
00000000
00000000
00000000
00000000
00000000
00000000
00000003
00010000
,
00022000
00000000
00000000
00000000
,
00000000
00000000
00000000
00033000
,
01000000
01001000
00000100
00010100
,
00100000
00101000
00000010
00010010
,
01000000
00010000
01000000
00010000
10000000
01000000
10000000
01000000
00100000
00001000
00100000
00001000
00010000
00000010
00010000
00000010
,
00000100
00000000
00000000
00001000
00000000
00000000
01000000
00000000
00000000
00010000
00000000
00000000
00100000
00000000
00001000
00000000
,
00022000
00000000
00000000
00000000
00000000
00033000
00000000
00010100
,
00202000
00000000
00000000
00000000
00000000
00303000
00000000
01001000
,
00020020
00000000
00000000
00000000
00000000
00030030
00000000
00011000
,
00011000
00000000
00000000
00000000
00011000
00000000
00000000
00000000
00011000
00000000
00000000
01000000
01000000
00000000
01000000
00000000
,
00100000
00000000
00000000
00100000
10000000
00000000
00000000
10000000
00010000
00000000
00000000
00010000
00001000
00000000
00001000
00000000
,
00000110
00000000
00000000
00000010
00000001
00000000
00000000
00000001
00001000
00000000
00000000
00001000
00010000
00000000
00010000
00000000
,
01100000
00011000
00000110
00011000
,
20020000
00000000
00000000
00000000
00000000
00000000
00000000
00000000
30030000
00000000
00000000
00000000
10000000
00000000
10000000
01000000
,
00100000
00010000
00100000
00001000
00010000
00000000
00100000
01000000
00100000
10000000
00010000
10000000
01000000
00100000
00010000
00100000
,
00000000
00001000
00010000
00000100
00001000
00000010
00001000
00000001
00000010
00000100
00000010
00000001
00001000
00000010
00000000
00010000
,
00001000
01000000
00010000
10000000
00100000
00000000
10000000
00010000
10000000
01000000
00100000
00010000
00100000
00001000
00010000
00000010
,
00000000
00000100
00000001
00001000
00000100
00010000
00001000
00010000
00000010
00001000
00000001
00000010
00000100
00000010
00000001
00000100
,
00000010
00001000
00010000
01000000
00100000
00000000
00100000
10000000
00010000
10000000
01000000
00100000
00010000
01000000
00001000
00010000
,
00000100
00001000
00000001
00000100
00000010
00000000
00000010
00010000
00001000
00010000
00000100
00001000
00000010
00010000
00001000
00100000
,
00010000
01000000
00001000
00000100
00000010
00001000
00100000
10000000
,
01000000
00100000
00010000
10000000
00010000
01000000
00001000
00010000
00000100
00001000
00000100
00000010
00000001
00000100
00001000
00010000
;
