#TITLE:TARGET PLANET HAS BEEN DESTROYED;
#SUBTITLE:;
#ARTIST:DJ TECHNORCH;
#TITLETRANSLIT:;
#SUBTITLETRANSLIT:;
#ARTISTTRANSLIT:;
#GENRE:;
#CREDIT:;
#MUSIC:target.ogg;
#BANNER:;
#BACKGROUND:;
#CDTITLE:;
#SAMPLESTART:38.457;
#SAMPLELENGTH:16.500;
#SELECTABLE:YES;
#OFFSET:-0.057;
#BPMS:0.000=200.000
,77.000=400.000
,79.000=200.000
,91.000=400.000
,95.000=200.000
,109.000=400.000
,111.000=200.000
,119.000=400.000
,120.000=200.000
,123.000=400.000
,124.000=100.000
,124.500=200.000
,160.000=400.000
,161.000=200.000
,193.000=100.000
,209.000=200.000
,301.000=100.000
,302.000=200.000
,310.000=400.000
,312.000=200.000
,318.000=400.000
,320.000=200.000
,326.000=400.000
,328.000=200.000
,341.000=400.000
,345.000=200.000
,351.000=400.000
,355.000=200.000
,361.000=400.000
,365.000=200.000
,369.000=50.000
,370.000=200.000
,434.000=50.000
,435.000=100.000
,436.000=200.000
;
#STOPS:60.000=0.300
,77.000=0.150
,78.000=0.150
,91.000=0.075
,91.500=0.075
,92.000=0.075
,92.500=0.075
,93.000=0.075
,93.500=0.075
,94.000=0.075
,94.500=0.075
,109.000=0.150
,110.000=0.150
,119.000=0.150
,127.000=1.800
,160.000=0.150
,310.000=0.075
,310.500=0.075
,311.000=0.150
,318.000=0.075
,318.500=0.075
,319.000=0.150
,326.000=0.075
,326.500=0.075
,327.000=0.150
,334.000=0.150
,334.500=0.150
,434.000=0.600
;
#DISPLAYBPM:*;
#BGCHANGES:;
#FGCHANGES:;

//--------------- dance-single - about-blank ----------------
#NOTES:
     dance-single:
     about-blank:
     Beginner:
     9:
     0,0,0,0,0:
0000
0000
0000
0000
,
0000
0000
0000
0000
,
0000
0000
0000
0000
,
0000
0000
0000
0000
,
1000
0000
1000
0000
,
0001
0000
0001
0000
,
0010
0000
0010
0000
,
0100
0000
0100
0000
,
1001
0000
1000
0000
,
1001
0000
0001
0000
,
0110
0000
0100
0000
,
0110
0000
0010
0000
,
1001
0000
0001
0000
,
1001
0000
1000
0000
,
0010
0000
0010
0000
0100
0010
0100
0000
,
0000
1001
0000
0001
,
0001
0010
0010
1000
,
1000
0100
0100
0001
,
0001
0010
0010
1000
,
1000
0000
0000
1000
,
1000
0010
0010
0001
,
0001
0100
0100
1000
,
1000
0010
0001
0000
,
0000
0000
0000
1000
,
1001
0001
1001
1000
,
1001
0001
1001
1000
,
0110
0010
0110
0100
,
0110
0000
0000
0001
,
1001
0010
0110
0001
,
1001
0100
0110
0001
,
1000
0001
1000
0001
1000
0000
1001
0000
,
0000
0000
0000
0000
1000
0001
1000
0000
,
0000
1000
0100
0001
,
0010
1000
0001
0110
,
1001
0001
0100
1000
,
0010
0001
0100
0110
,
1001
1000
0100
0001
,
0010
1000
0001
1001
,
0110
0010
1000
0100
,
0001
0010
0100
0110
,
0110
1000
0100
0001
,
0100
1000
0100
0110
,
1001
0001
0100
1000
,
0100
0001
0100
0110
,
1001
1000
0010
0001
,
0010
1000
0010
0110
,
1001
0001
0010
1000
,
0010
0001
0010
0110
,
1001
1000
0000
0000
,
0000
0000
0000
0000
,
0000
0000
0000
0000
,
0000
0000
0000
0000
,
0000
0010
0010
0010
,
0010
0110
0110
1001
,
1001
0100
0100
0100
,
0100
0110
0110
1001
,
1001
1000
1000
0001
,
0001
0110
0110
1001
,
1001
0001
0001
1000
,
1000
1001
0000
1000
,
1000
0001
0001
0100
,
0100
0000
1000
0000
1000
0000
0100
0010
,
0100
1000
1000
0100
,
0100
0000
0001
0000
0001
0000
0100
0010
,
0100
0001
0001
0010
,
0010
0000
1000
0000
1000
0000
0010
0100
,
0010
0001
0001
1000
,
1000
0000
0000
0110
0000
1001
0000
0000
,
0000
1000
1000
0010
,
0010
0000
0001
0000
0001
0000
0010
0100
,
0010
1000
1000
0100
,
0100
0000
0001
0000
0001
0000
0100
0010
,
0100
1000
1000
0010
,
0010
0000
0001
0000
0001
0000
0010
0100
,
0010
1000
1000
0001
,
0001
1001
0000
0000
,
1000
0100
0001
0100
,
1000
0100
0000
0000
,
0001
0100
1000
0100
,
0001
0100
0000
0000
,
1000
0010
0001
0010
,
1000
0010
0000
0000
,
0001
0010
1000
0010
,
0001
0010
0000
1100
,
1100
1100
1100
1100
,
1100
0000
0000
0000
,
0000
0011
0011
0011
,
0011
0011
0011
0000
,
0000
0000
0000
0101
,
0101
0101
0101
0101
,
0101
0000
0000
0000
,
0000
1010
1010
1010
,
1010
0000
1000
1000
,
0100
0010
0100
0000
0010
0000
0010
0000
,
0001
0001
0001
0001
,
0100
0010
0100
0000
0010
0000
0010
0000
,
1000
1000
0001
0001
,
0010
0100
0010
0000
0100
0000
0100
0000
,
1000
1000
1001
1001
,
0110
0000
0110
0000
1001
0000
1000
0001
,
1000
0001
1000
0000
0001
0000
0001
0000
,
0010
0010
0100
0100
,
0010
0100
0010
0000
1000
0000
1000
0000
,
0010
0010
0100
0100
,
0010
0100
0010
0000
0100
0000
0100
0000
,
0001
0001
1000
1000
,
0010
0100
0010
0000
1000
0000
1000
0000
,
0001
0000
0001
0000
0110
0000
1000
0100
,
0010
0001
1000
0100
0010
0000
0000
0000
,
1001
0000
0000
0000
;

//--------------- dance-single - about-blank ----------------
#NOTES:
     dance-single:
     about-blank:
     Easy:
     12:
     0,0,0,0,0:
0000
0000
0000
0000
,
0000
0000
0000
0000
,
0000
0000
0000
0000
,
0000
0000
0000
0000
,
1000
0000
1000
0000
,
0001
0000
0000
0001
0000
0000
0000
0000
,
0010
0000
0000
0010
0000
0000
0000
0000
,
0100
0000
0000
0100
0000
1000
0000
0001
,
0100
0000
0000
1010
0000
0000
0000
0000
,
0100
0000
0000
0011
0000
0000
0000
0000
,
1000
0000
0000
0110
0000
0000
0000
0000
,
0001
0000
0000
0110
0000
0000
0000
1000
,
0001
0000
0000
0011
0000
0000
0000
0000
,
1000
0000
0000
1010
0000
0001
0000
1000
,
0001
0100
0010
1000
,
2002
3003
0000
0000
0001
0000
0100
0000
0010
0000
0000
0000
1000
0000
0000
0000
,
1000
0000
0100
1000
0100
0000
1010
0000
,
0100
0011
0100
0001
,
0001
0000
0010
0001
0010
0000
0011
0000
,
0100
0000
0000
0000
0220
0330
0000
0000
2002
3003
0000
0000
1000
0000
0000
0000
,
1000
0000
0010
1000
0010
0000
0101
0000
,
0010
1100
0010
0101
,
0001
0000
0010
0001
0010
0000
0110
0000
,
1001
0110
1001
1000
,
1000
0000
0100
1000
0100
0000
0110
0000
,
0001
0110
1000
0001
,
0001
0000
0100
0001
0100
0000
0110
0000
,
1000
0002
2003
3010
,
0110
0000
0010
0100
0010
0000
1100
0000
,
0001
0101
1000
0002
,
0013
0100
1000
0001
0010
0100
2000
0000
,
0000
0000
0000
3001
,
0000
0000
1001
0000
1000
0000
1000
0100
,
0010
0000
0010
0000
0010
0001
0200
0000
,
0310
0000
1000
0000
1000
0000
0001
1000
,
0100
0000
0010
0000
0100
0010
0002
0000
,
0103
0000
0010
0000
0010
0000
1000
0001
,
0100
0000
0010
0000
1000
0100
0020
0000
,
0031
0000
0100
0000
0100
0000
0001
1000
,
0001
0000
0100
0000
0010
1000
0001
1000
,
0001
0000
0110
0000
1000
0000
0001
1000
,
0100
0000
0010
0100
1000
0100
1000
0000
,
1001
0000
0101
0000
1000
0000
0001
0100
,
0010
0000
1000
0001
1000
0001
1000
0000
,
0110
0000
1100
0000
0001
0000
0100
0010
,
0100
0000
0001
0010
0100
0010
0100
0000
,
0011
0000
1010
0000
0100
0000
0001
1000
,
0100
0000
0010
0001
1000
0010
0100
0001
,
1000
0100
0010
0000
0000
0000
0000
0000
,
0000
0000
0000
0000
,
0000
0000
0000
1000
0000
1000
0000
0001
,
0000
0001
0000
0100
0000
0100
0000
0010
,
0000
0010
1100
0000
1100
0000
1100
0000
,
1100
0101
1100
0101
,
1100
0011
0011
0011
,
0011
1010
0011
1010
,
0011
0101
0101
1100
,
1100
1010
0011
0101
,
1100
0011
1100
1010
,
0101
1001
0000
0110
,
1001
0000
1000
0000
0110
0000
1000
0010
,
0110
0000
1000
0000
0110
0000
1000
0100
,
0001
0000
0001
0000
0110
0000
0001
0010
,
0110
0000
0001
0000
0110
0000
0001
0100
,
1000
0000
1000
0000
0110
0000
1000
0010
,
0110
0000
1000
0000
0110
0000
1000
0100
,
0001
0000
0001
0000
0110
0000
0001
0010
,
0110
0000
1000
0001
1000
0001
1000
0001
,
1000
0000
0001
0000
0110
0000
0001
0100
,
0110
0000
0001
0000
0110
0000
0001
0010
,
1000
0000
1000
0000
0110
0000
1000
0100
,
0110
0000
1000
0000
0110
0000
1000
0010
,
0001
0000
0001
0000
0110
0000
0001
0100
,
0110
0000
0001
0000
0110
0000
0001
0010
,
1000
1000
0110
0001
,
0110
1000
0002
0000
2003
0000
0000
0000
,
3010
0000
0100
0001
1000
0010
0100
0001
,
1000
0010
0110
1001
,
0001
0000
0010
0100
1000
0001
0010
0100
,
1000
0001
1001
0110
,
1000
0000
0010
1000
0100
1000
0010
0100
,
0001
1000
0011
1100
,
0001
0000
0100
0010
1000
0001
0100
0010
,
1000
0000
0001
0000
1100
0101
1000
0000
,
1000
0000
1000
0000
1000
0000
0010
0100
,
0010
0100
0110
0000
0000
0000
0000
0000
,
0000
0001
0001
0001
,
0001
0000
0010
0100
0010
0100
0110
0000
,
0000
0000
0000
1000
,
1000
0000
1000
0000
1000
0000
0010
0100
,
0010
0100
0110
0000
0000
0000
0000
0000
,
0000
0001
0001
0001
,
0001
0020
0130
1100
,
0011
0000
1010
0000
1000
0010
0100
0001
,
0010
0110
0011
1100
,
0011
0000
1100
0000
0001
0010
0100
1000
,
0010
0110
1010
0101
,
1010
0000
0101
0000
1000
0010
0100
0001
,
0010
0110
1000
0001
,
1000
0001
0100
1000
,
0010
0000
0001
0000
1000
0010
1000
0010
,
0100
0001
0100
0001
1000
0100
0010
0001
,
1000
0000
0101
0000
0001
0010
0001
0010
,
0100
1000
0100
1000
0001
0100
0010
1000
,
0100
0000
1001
0000
1000
0001
1000
0001
,
0100
0010
0100
0010
1000
0001
0010
0100
,
1000
0000
1001
0000
0001
0010
0001
0010
,
0100
0010
0100
0010
0001
0000
1000
0010
,
0001
0000
1000
0000
0100
0000
0001
0000
1001
0000
1000
0001
1000
0001
1000
0001
,
1000
0000
0000
0000
;

//--------------- dance-single - about-blank ----------------
#NOTES:
     dance-single:
     about-blank:
     Medium:
     15:
     0,0,0,0,0:
0000
0000
0000
0000
,
0000
0000
0000
0000
,
0000
0000
0000
0000
,
0000
0000
0000
0000
,
1000
0000
0100
0010
0000
0010
0000
0000
,
0001
0000
0100
0010
0000
0010
0000
0000
,
1000
0000
0001
0100
0000
0100
0000
0000
,
0001
0000
1000
0100
0000
0100
0010
0001
,
2000
0000
3010
2000
0000
3001
0000
0000
,
0002
0000
0013
0002
0000
1003
0000
0000
,
0020
0000
0130
0020
0000
1030
0000
0000
,
0200
0000
0310
0200
0000
0301
0100
0010
,
0002
0000
1003
0020
0000
1030
0000
0000
,
2000
0000
3001
0200
0000
0310
1000
0001
,
0100
0000
0010
0000
1000
0000
0100
0000
0010
0000
0001
0000
0100
0010
0100
0010
,
2000
0000
0000
0000
3010
0100
0010
0100
0001
0100
0001
0100
0010
0000
1000
0000
,
0001
0010
1000
0010
0100
0010
0001
1000
,
0010
0100
0001
1000
0100
0010
0001
1000
,
0010
1000
0001
0100
0010
1000
0100
0010
,
0001
1000
0020
0000
0230
0000
0301
1000
,
0100
1000
0001
1000
0100
1000
0010
1000
,
0100
0010
0001
0100
0010
1000
0001
0010
,
0100
1000
0010
0100
0001
1000
0002
0000
,
0023
0000
0230
0000
2300
0000
3001
0010
,
1000
0010
0100
1000
0010
0001
1000
0100
,
0001
0010
1000
0010
0100
1000
0001
1000
,
0010
1000
0001
1000
0100
0010
0001
1000
,
0010
0100
2000
0000
3002
0000
0013
1000
,
0100
0010
0100
1000
0100
0010
0001
1000
,
0010
0100
0001
1000
0100
0010
1001
0000
,
0001
0000
0100
0010
0100
0010
0100
0000
0001
1000
0001
2000
0002
0000
0000
0000
,
0000
0000
3003
0000
0010
0100
1001
0000
,
0000
0000
1000
0010
0100
1000
0100
0010
,
0100
0001
1000
0100
0010
0001
2000
0000
,
3001
0000
0001
0010
0100
0001
0100
0010
,
0001
1000
0010
0100
0001
1000
0200
0000
,
0310
0000
0100
1000
0100
0010
0001
0010
,
0100
1000
0010
0100
0001
1000
0020
0000
,
0130
0000
1000
0100
0001
1000
0100
0010
,
0001
1000
0010
0100
0001
0010
0100
0110
,
0110
0000
0001
0010
0100
0010
0001
0100
,
0010
1000
0001
1000
0100
0010
0002
0000
,
2003
0000
3010
0100
1000
0001
0010
0100
,
0001
1000
0100
0010
0001
1000
0002
0000
,
0203
0000
0310
1000
0010
0100
0001
1000
,
0100
0010
1000
0010
0001
1000
0020
0000
,
0230
0000
1300
0001
0010
1000
0100
0001
,
0100
1000
0010
0100
0001
1000
0010
0010
,
0100
0100
1001
0000
0000
0000
0000
0000
,
0000
0000
0000
0000
,
0000
0000
0000
0000
0000
1000
0000
1000
0000
1000
0000
1000
0010
0010
0100
0100
,
0010
0010
0100
0100
0000
0001
0000
0001
0000
0001
0000
0001
0010
0010
0100
0100
,
0010
0010
0100
0100
1000
0000
0001
0000
1000
0000
0100
0000
1000
0000
0001
0000
,
1000
0100
0001
0001
0100
0100
0010
0010
,
0001
0001
1000
0001
0100
0001
1000
0001
,
0100
0001
0100
0100
1000
1000
0100
0100
,
0001
0001
0010
0100
1000
0001
0010
0100
,
1000
0001
0010
0010
0100
0100
1000
1000
,
0001
0001
0100
0110
0000
1001
0000
0110
,
0000
0000
1000
0000
2002
0000
0000
0000
3003
0000
0000
0000
1000
0000
0001
1000
,
0001
0000
0010
0100
1000
0010
0100
1000
,
0100
0010
1000
0100
0010
1000
0010
0001
,
0200
0000
0310
0100
0001
0010
0100
0001
,
0100
0010
0001
0100
0010
0001
0010
1000
,
0200
0000
0301
0100
0010
0001
0100
0010
,
0001
0010
0100
0001
0010
0100
0001
0100
,
0020
0000
1030
0010
0100
1000
0010
0100
,
1000
0100
0001
0010
1000
0010
0001
0100
,
0010
0000
1000
0001
0100
1000
0100
0001
,
1000
0001
0100
1000
0100
0001
0010
0100
,
2000
0000
3001
1000
0100
0001
0100
1000
,
0001
1000
0100
0001
0100
1000
0001
1000
,
0020
0000
0031
0010
1000
0001
0100
1000
,
0001
0010
1000
0001
0100
1000
0001
0010
,
1000
0200
0301
1000
0010
0001
1000
0100
,
0001
1000
0020
0000
0001
0000
0000
0000
,
0130
1000
0010
0100
1000
0100
0010
0100
,
0001
0010
0100
0010
0002
0000
2003
0000
,
3100
0001
0100
0010
0001
0100
0001
0010
,
0001
0100
0010
1000
0002
0000
2003
0000
,
3010
0100
1000
0001
0010
1000
0100
0010
,
0001
1000
0010
0100
0002
0000
2003
0000
,
3100
0010
0001
1000
0010
1000
0001
1000
,
0100
0010
0001
1000
0000
0000
1001
0000
,
1001
0000
1001
0000
1001
0000
1000
0001
,
0100
0010
2002
0000
0000
0000
0000
0000
,
3003
1001
1001
1001
,
1001
0000
1000
0001
0010
0100
2002
0000
,
0000
0000
3003
1001
,
1001
0000
1001
0000
1001
0000
1000
0100
,
0010
0001
2002
0000
0000
0000
0000
0000
,
3003
1001
1001
1001
,
1001
0000
0000
0000
1000
0100
0001
1000
,
0010
0001
0100
1000
0001
0010
1000
0100
,
0010
0100
0010
0000
0001
0000
1000
0000
0001
0000
0100
0000
1000
0000
0001
0000
,
0010
0100
0010
1000
0100
0010
0001
1000
,
0001
0100
0001
0000
1000
0000
0010
0000
1000
0000
0001
0000
0100
0000
0010
0000
,
1000
0001
0010
0100
0001
0100
0010
0001
,
1000
0010
1000
0000
0001
0000
0000
0000
1001
0000
0000
0110
0000
0000
1001
0000
,
0000
0110
0000
0000
1001
0000
1001
0000
1000
0000
0100
0000
0010
0000
0001
0000
,
0100
0010
0010
0000
1000
0010
0100
0001
,
1000
0000
0100
0000
0010
0000
0001
0000
0100
0000
0001
0000
1000
0010
1000
0010
,
1000
0001
1000
0100
0010
0100
1000
0001
,
0100
0000
0010
0000
1000
0000
0001
0000
0010
0000
0100
0000
0010
0001
0010
0001
,
0010
0100
0010
0001
1000
0001
0100
0010
,
1000
0000
0001
0000
0010
0000
0100
0000
1000
0000
0001
0000
1000
0001
1000
0001
,
1000
0010
1000
0001
1000
0100
0010
0001
,
0100
0000
0001
0000
1000
0000
0010
0000
0110
0000
0000
0000
0010
0000
1000
0001
,
1000
0001
1000
0001
1000
0001
1000
0001
1000
0000
0000
0000
0000
0000
0110
0110
,
1001
0000
0000
0000
;

//--------------- dance-single - about-blank ----------------
#NOTES:
     dance-single:
     about-blank:
     Hard:
     18:
     0.880873,1.249887,0.437461,0.506899,0.506899,888,825,63,73,0,0,0.880873,1.249887,0.437461,0.506899,0.506899,888,825,63,73,0,0:
0000
0000
0000
0000
,
0000
0000
0000
0000
,
0000
0000
0000
0000
,
0000
0000
0000
0000
,
1000
0100
1000
0100
,
0010
0001
0010
0001
,
1000
0010
1000
0010
,
0100
0001
0100
0001
,
1000
0000
0100
1100
0000
0011
0000
0000
,
0001
0000
0100
0101
0000
1010
0000
0000
,
1000
0000
0100
0110
0000
0011
0000
0000
,
0001
0000
0100
0110
0000
1010
0000
0000
,
1001
0000
0010
1100
0000
0101
0000
0010
,
1001
0000
0010
0101
0000
1100
0000
0010
,
1000
0000
0100
0000
0010
0000
0001
0000
0100
0001
0100
0001
1000
0010
1000
0010
,
2000
3000
0000
0000
0001
0010
0001
0010
0100
1000
0100
1000
0001
0000
0001
0000
,
0100
1000
0100
0010
1000
0100
0001
0001
,
0100
1000
0001
0001
0100
0010
0001
0001
,
0010
1000
0100
0001
0100
0010
0001
1000
,
0010
0100
0022
0033
2200
3300
1000
1000
,
0010
0001
0010
0100
0001
0010
1000
0010
,
0001
0100
1000
1000
0100
0010
1000
0100
,
0010
0000
0001
0000
1000
0010
1000
0000
0001
0100
0001
0000
0022
0000
0033
0000
,
2020
3030
0202
0303
2200
3300
0001
0001
,
1000
0100
0001
0100
1000
0010
0001
0010
,
1000
0100
0001
0001
0100
1000
0001
0100
,
0010
0001
0010
1000
0100
0010
0001
1000
,
0001
0100
2020
3030
0202
0303
1000
1000
,
0001
0010
0100
1000
0100
0010
1000
0010
,
0001
0100
1000
1000
0100
0001
2002
3003
,
1000
0000
0001
0100
0010
1000
0100
0010
0001
1000
0001
2000
0002
0000
0000
0000
,
0000
0000
0000
0000
0000
0000
0000
0000
3003
0000
0000
0000
0000
0000
0000
0000
0100
0000
0000
0000
0110
0000
0000
0000
2002
3003
0000
0000
0000
0000
0000
0000
,
1000
1000
0010
0100
0100
0001
0010
0010
,
0001
1000
0001
0000
0010
0000
0100
0000
0001
0000
0100
0010
0200
0000
0000
0000
,
1300
0000
0001
0100
0100
0010
1000
1000
,
0100
0010
0100
0000
0010
0000
1000
0000
1000
0000
0010
0100
0020
0000
0000
0000
,
0031
0000
1000
0001
0001
0100
0010
0010
,
1000
0010
0100
0000
0001
0000
0010
0000
0010
0000
0100
0001
0200
0000
0000
0000
,
1300
0000
0000
0000
0001
0000
1000
0000
1000
0000
0100
0010
0100
0000
0010
0000
,
0001
1000
0001
0000
1000
0100
1000
0000
0001
0000
0100
0010
0200
0000
1000
0000
,
0301
0000
0000
0000
1000
0000
0100
0010
0100
0000
1000
0000
0010
0000
0010
0000
,
1000
0001
1000
0000
0001
0100
0001
0000
1000
0000
1000
0001
0200
0000
0000
0000
,
1000
0000
0000
0000
0301
0000
0010
0100
0010
0000
0001
0000
0100
0000
0100
0000
,
0001
1000
0001
0000
1000
0100
1000
0000
0001
0000
0001
0010
0200
0000
0000
0000
,
0001
0000
0000
0000
1300
0000
0010
1000
0010
0000
0100
0000
1000
0000
1000
0000
,
0100
0010
0100
0000
0001
1000
0001
0000
0010
0000
0100
1000
0020
0000
0000
0000
,
0001
0000
0000
0000
1030
0000
0100
0010
0100
0000
0001
0000
0100
0010
0100
0000
,
1000
0001
1000
0002
2000
0000
0000
0000
0000
0000
0000
0000
0000
0000
3003
0000
,
0010
0010
1001
0000
0000
0000
0000
0000
,
0000
0000
0000
0000
,
0000
0000
0000
0000
0000
0000
0000
0000
0001
0000
0010
0000
0000
0000
0010
0000
0000
0000
0010
0000
0000
0000
0100
0000
1000
0001
1000
0000
0100
0000
0010
0000
,
0001
1000
0001
0000
0100
0000
0000
0000
1000
0000
0010
0000
0000
0000
0010
0000
0000
0000
0010
0000
0000
0000
0010
0000
1000
0001
0100
0000
0010
0000
1000
0000
,
0001
1000
0100
0000
0010
0000
0001
0000
1000
0000
0000
0000
0020
0000
0000
0000
1030
0000
0000
0000
0002
0000
0000
0000
1003
0000
0000
0000
0020
0000
0000
0000
,
1030
0000
0002
0000
1003
0100
0001
0000
0100
0000
0010
0000
0001
0100
1000
0000
,
0100
0010
1000
0200
1300
0002
1003
0200
,
1300
0000
0002
0000
1003
0010
0001
0000
0010
0000
1000
0000
0001
0010
1000
0000
,
0010
0010
0001
0200
0301
2000
3001
0200
,
0301
0000
2000
0000
3001
0010
1000
0000
0010
0000
0001
0000
1000
0010
0001
0000
,
0010
0100
0001
0020
0031
2000
3001
0020
,
0031
2000
3001
0000
0000
0000
0110
0000
,
1001
0000
1000
0100
0100
0001
0100
0100
,
1000
0100
0100
0001
0100
0100
1000
0001
,
0010
0100
0010
0100
1000
0000
0010
0000
0010
0000
0001
0000
0010
0000
0010
0000
,
1000
0010
0010
0001
0010
0010
1000
0001
,
0100
0010
0100
0010
1000
0000
0100
0000
0100
0000
0010
0000
0100
0000
0100
0000
,
1000
0100
0100
0010
0100
0100
1000
0100
,
0010
0001
0010
0001
0100
0000
0010
0000
0010
0000
0001
0000
0010
0000
0010
0000
,
0100
0010
0001
0010
1000
0100
0001
0100
,
1000
0000
0001
0100
0100
1000
0100
0100
,
0001
0100
0100
1000
0100
0100
0001
1000
,
0010
0100
0010
0100
0001
0000
0010
0000
0010
0000
1000
0000
0010
0000
0010
0000
,
0001
0010
0010
1000
0010
0010
0001
1000
,
0100
0010
0100
0010
0001
0000
0100
0000
0100
0000
0010
0000
0100
0000
0100
0000
,
0001
0100
0100
0010
0100
0100
0001
0100
,
0010
1000
0010
1000
0100
0000
0010
0000
0010
0000
1000
0000
0010
0000
0010
0000
,
0100
0010
2002
0000
0000
0000
3003
0000
,
0001
0000
0100
0000
0100
0000
1000
0100
0010
0000
1000
0100
0010
0000
1000
0000
,
0010
0100
0010
0001
0021
0100
0230
0000
,
1300
0000
0010
0000
0010
0000
0001
0010
0100
0000
0001
0010
0100
0000
0001
0000
,
0100
0010
0100
1000
1020
0100
0230
0000
,
0301
0000
1000
0000
0100
0000
0001
0100
1000
0000
0001
0100
0010
0000
0001
0000
,
0010
1000
0100
0010
1020
0001
0032
0000
,
1003
0000
0001
0000
0100
0000
1000
0100
0001
0000
1000
0100
0010
0000
0001
0000
,
0010
0100
0010
0002
2000
3003
1001
0000
,
1001
0000
0000
0000
1001
0000
0000
0000
1001
0000
0000
0000
0001
0100
0010
0000
,
1000
0100
0010
0000
2002
0000
0000
0000
0000
0000
0000
0000
0000
0000
0000
0000
,
3003
1001
1001
1001
,
1001
0000
1010
1100
0101
0011
2002
0000
,
0000
0000
3003
1001
,
1001
0000
1001
0000
1001
0000
0001
0010
,
1000
0010
0001
0000
2002
0000
0000
0000
0000
0000
0000
0000
0000
0000
0000
0000
,
3003
1001
1001
1001
,
1001
0000
0000
0000
0000
0000
0000
0000
1000
0000
0010
0000
0001
0000
0010
0100
,
0001
0000
0010
0100
0001
0100
0010
0000
0100
1000
0010
0000
0100
0000
0001
1000
,
0020
0000
0000
0000
0130
0000
0000
0000
0001
0000
0010
0000
1000
0000
0010
0100
,
1000
0000
0010
0100
1000
0100
0010
0000
0100
0001
0010
0000
0100
0000
0010
0001
,
0200
0000
0000
0000
0310
0000
0000
0000
1000
0000
0010
0000
0001
0000
1000
0100
,
0010
0000
0100
0010
1000
0001
0010
0000
0100
0010
0001
0000
0001
0000
1000
0010
,
0200
0000
0000
0000
0301
0000
0000
0000
0110
0000
0000
1100
0000
0000
0011
0000
,
0000
1010
0000
0000
0011
0000
1100
0000
0001
0000
1000
0000
0100
0000
0010
0000
,
0001
0000
1000
0000
0001
0000
0000
0000
1000
0000
0100
0010
0100
0000
1000
0010
,
1000
0000
0001
0100
0001
0100
0010
1000
0001
0010
0100
0000
1000
0001
0100
0001
,
0020
0000
0001
0000
0130
0000
0000
0000
1000
0000
0001
0100
0010
0000
1000
0100
,
1000
0000
0001
0010
0001
0010
0100
1000
0010
0100
0001
0000
0010
0100
1000
0001
,
0200
0000
1000
0000
0301
0000
0000
0000
1000
0000
0100
1000
0001
0000
0100
0010
,
1000
0000
0001
1000
0001
0100
0010
1000
0001
1000
0100
0000
0010
0001
1000
0010
,
0200
0000
1000
0000
0301
0000
0000
0000
0001
0000
1000
0010
0100
0000
0001
1000
,
0001
0010
0100
1000
0001
0010
0001
0000
2002
0000
3003
0000
0001
1000
0100
0010
,
1000
0000
0001
0000
0100
0000
0010
0000
0001
0000
1000
0000
0010
0000
0100
0000
0002
0003
0000
0000
1000
1000
0001
0001
0010
0000
0010
0000
0100
0000
0100
0000
,
1001
0000
0000
0000
;

//--------------- dance-single - b l a n k ----------------
#NOTES:
     dance-single:
     b l a n k:
     Challenge:
     19:
     1.091171,1.286689,0.624944,0.694382,1.006854,1100,1010,90,100,0,0,1.091171,1.286689,0.624944,0.694382,1.006854,1100,1010,90,100,0,0:
0000
0000
0000
0000
,
0000
0000
0000
0000
,
0000
0000
0000
0000
,
0000
0000
0000
0000
,
1000
0000
0010
1010
0000
1010
0000
1000
,
0001
0000
0010
0011
0000
0011
0000
0001
,
1000
0000
0100
1100
0000
1100
0000
1000
,
0001
0000
0100
0101
0000
0101
0001
1000
,
1100
0000
0100
0110
0000
0011
0000
0000
,
0101
0000
0100
0110
0000
1010
0000
0000
,
1001
0000
0010
0110
0000
0101
0000
0000
,
1001
0000
0010
0110
0000
1100
0000
0000
,
0110
0000
1010
0110
0000
0101
0000
0000
,
0110
0000
0011
0110
0000
1000
0001
1000
,
0100
0000
0100
0000
0010
0000
0010
0000
0001
0100
0010
1000
0100
0010
0001
1000
,
0020
0030
0000
0000
0100
1000
0100
0010
1000
0100
0010
0001
1000
0000
0001
0000
,
0100
0000
0100
0000
0010
1000
0010
0000
0100
0001
0100
0000
0001
0000
0001
0000
,
0010
0100
1000
0000
0001
0000
0001
0000
0100
0010
1000
0000
0001
0000
0001
0000
,
0010
0100
1000
0000
0001
0000
1000
0000
0010
0000
1000
0000
0001
0000
0001
0000
,
0010
0100
2020
3030
0202
0303
1000
1000
,
0001
0010
0100
0000
1000
0010
1000
0000
0001
0100
0001
0000
1000
0000
1000
0000
,
0010
0100
0001
0000
1000
0000
1000
0000
0100
0010
0001
0000
1000
0000
1000
0000
,
0010
0100
0001
0000
1000
0000
0100
0000
0001
0000
0100
0000
0022
0033
0001
0000
,
0202
0303
0100
0000
0220
0330
0010
0000
2020
3030
1000
0000
1001
0000
0001
0000
,
0010
0000
1000
0000
0010
0100
0010
0000
0001
0100
0001
0100
0010
0000
1000
0000
,
0001
0010
0001
0010
0100
0000
1000
0000
0001
0100
0010
1000
0001
0000
0100
0000
,
0001
0000
1000
0000
0100
0010
0001
0000
0100
0010
1000
0001
1000
0000
0001
0000
,
0100
0010
2002
3003
0220
0330
0001
1000
,
0001
0010
0100
0000
1000
0001
1000
0000
0010
0100
0010
0100
0001
0000
1000
0000
,
0100
0010
0100
0010
0001
0000
1000
0000
0010
0100
0001
0000
2002
0000
3003
0000
,
0001
0000
1000
0010
0100
1000
0001
0010
0100
0001
0010
0100
2000
0000
0000
0000
,
0000
0000
0000
0000
0001
3001
1001
0000
,
1000
0000
1000
0000
0001
0000
0100
0001
0100
0000
0010
0000
1000
0010
1000
0000
,
0001
1000
0001
0000
1000
0000
0100
1000
0100
0000
0010
0001
2000
0000
0000
0000
,
3100
0000
0000
0000
1000
0000
0010
1000
0010
0000
0100
0000
0001
0100
0001
0000
,
1000
0001
1000
0000
0001
0000
0010
0001
0010
0000
0100
1000
0002
0000
0000
0000
,
0013
0000
0000
0000
0001
0000
0100
0010
0100
0000
0001
0000
0010
0100
0010
0000
,
0001
1000
0001
0000
1000
0000
0010
0100
0010
0000
1000
0100
0020
0000
0000
0000
,
0031
0000
0000
0000
1000
0000
0010
0100
0010
0000
1000
0000
0100
0010
0100
0000
,
1000
0001
0100
0000
0010
0000
1000
0001
1000
0000
0020
0000
0100
0000
0100
0000
,
0130
0000
0000
0000
0001
0000
0010
0001
1000
0000
0100
0000
0010
0001
1000
0000
,
0010
1000
0001
0000
1000
0001
0100
0000
0010
0000
1000
0100
0020
0000
1000
0000
,
0031
0000
0000
0000
1000
0000
0010
1000
0001
0000
0100
0000
0010
1000
0001
0000
,
0010
0001
1000
0000
0001
1000
0100
0000
0010
0000
0001
0100
0020
0000
0001
0000
,
1030
0000
0000
0000
0010
0000
0100
0001
1000
0000
0010
0000
1000
0001
0100
0000
,
0001
0010
0100
0000
0010
0100
1000
0000
0001
0000
0100
0010
2000
0000
0100
0000
,
3001
0000
0000
0000
0100
0000
0010
1000
0001
0000
0010
0000
0100
1000
0001
0000
,
1000
0010
0100
0002
2000
0000
0000
0000
0000
0000
0000
0000
0000
0000
3003
0000
,
1001
0000
0000
0000
0110
0000
0000
0000
1000
0000
0200
0000
0000
0000
0302
0000
0000
0000
0203
0000
0000
0000
1300
0000
0010
1000
0010
0000
0100
1000
0100
0000
,
0010
1000
0010
0000
0100
0000
0001
0000
0000
0000
0020
0000
0000
0030
2000
0000
0000
0000
3020
0000
0000
0000
0031
0000
0100
0001
0100
0000
0010
0001
0010
0000
,
0100
0001
0100
0000
0010
0000
1000
0000
0000
0000
0200
0000
0000
0000
0320
0000
0000
0000
0230
0000
0000
0000
1300
0000
0010
0100
0010
0000
0001
0010
0001
0000
,
0010
0100
0010
0000
1000
0000
0001
0000
0000
0000
0020
0000
0000
0000
0230
0000
0000
0000
0320
0000
0000
0000
0031
0000
0100
0010
0100
0000
1000
0100
1000
0000
,
0100
0010
0100
0000
0001
0000
1000
0000
0001
0000
0000
0000
0011
0000
0000
0000
1000
0000
0000
0000
1010
0000
0000
0000
0001
0000
0000
0000
0011
0000
0000
0000
,
1000
0000
1010
0000
0010
0100
0002
0000
0013
0100
0002
0000
1003
0010
0200
0000
,
1300
0010
0200
0000
0301
0000
0101
0000
1000
0000
1100
0000
0001
0000
0101
0000
,
1000
0000
1100
0000
0100
0010
0002
0000
0103
0010
0002
0000
1003
0100
0020
0000
,
1030
0100
0020
0000
0130
0000
1100
0000
0010
0000
0011
0000
0100
0000
1100
0000
,
0010
0000
0011
0000
0010
0100
2000
0000
3010
0100
2000
0000
3001
0010
0200
0000
,
0301
0010
0200
0000
1300
0000
1010
0000
0100
0000
0101
0000
0001
0000
0011
0000
,
0100
1100
2002
0000
3003
0000
0110
0000
,
1001
0000
0000
0000
1000
0000
0010
0100
0010
0000
0001
0000
0010
0100
0010
0000
,
1000
0000
0100
0010
0100
0000
0001
0000
0100
0010
0100
0000
1000
0000
0010
0000
,
0001
0010
1000
0000
0001
0000
0010
0100
0010
0000
1000
0000
0010
0100
0010
0000
,
0001
0000
0100
0010
0100
0000
1000
0000
0100
0010
0100
0000
0001
0000
0010
0000
,
1000
0010
0001
0000
0100
0000
1000
0100
1000
0000
0100
0000
0010
0100
0010
0000
,
0100
0000
0001
0100
0001
0000
0010
0000
0100
0010
0100
0000
0001
0000
0100
0000
,
1000
0001
1000
0000
0010
0000
0001
0010
0001
0000
0010
0000
1000
0010
1000
0000
,
0100
0000
0010
0100
0010
0000
1000
0020
0001
0030
0001
0200
0010
0300
1000
0000
,
1001
0000
0000
0000
1000
0000
0010
0001
0010
0000
1000
0000
0010
0001
0010
0000
,
1000
0000
0100
0001
0100
0000
1000
0000
0100
0001
0100
0000
1000
0000
0001
0000
,
1000
0100
0020
0000
0031
0000
0100
1000
0100
0000
0001
0000
0100
1000
0100
0000
,
0001
0000
0010
1000
0010
0000
0001
0000
0010
1000
0010
0000
0001
0000
1000
0000
,
0001
0100
0020
0000
0031
0000
0010
0100
0010
0000
1000
0000
0100
0001
0100
0000
,
0001
0000
0100
0010
0100
0000
1000
0000
0010
1000
0010
0000
0001
0000
0010
0000
,
1000
0100
0020
0000
0031
0000
1000
0010
0100
0000
0001
0000
0010
0100
1000
0000
,
0010
0100
2002
0000
0000
0000
3003
0000
,
1000
0000
0010
0100
1000
0000
1000
0000
0100
0010
1000
0000
0100
0010
1000
0000
,
0010
0000
0100
1000
0010
0000
0100
0000
2200
3300
0100
0000
0202
0000
0303
0000
,
0001
0000
0010
0100
0001
0000
0001
0000
0100
0010
0001
0000
0100
0010
0001
0000
,
0010
0000
0100
0001
0010
0000
0100
0000
0202
0303
0100
0000
2200
0000
3300
0000
,
1000
0000
0100
0010
1000
0000
1000
0000
0010
0100
1000
0000
0010
0100
1000
0000
,
0100
0000
0010
1000
0100
0000
0010
0000
2020
3030
0010
0000
0022
0000
0033
0000
,
0001
0000
0100
0010
0001
0000
0001
0000
0010
0100
0001
0000
0010
0100
0001
0000
,
0100
0000
0000
0000
1000
0000
0001
0000
1000
0000
0000
0000
0010
0000
0000
0000
2200
3300
0000
0000
0022
0033
0000
0000
1001
0000
0000
0000
0000
0000
0000
0000
,
0011
0000
0000
0000
1001
0000
0000
0000
0101
0000
0000
0000
0001
1000
0001
0000
,
0010
0000
0000
0100
0000
0000
0010
0000
0000
0000
0000
0000
0001
0000
0000
0000
1000
0000
0000
0000
0001
0000
0000
0000
1000
0000
0000
0000
0001
0000
0000
0000
1000
0000
0000
0000
0001
0000
0000
0000
1000
0000
0000
0000
0001
0000
0000
0000
,
1000
0001
1000
0001
0000
0000
0101
0000
0000
1001
0000
0000
,
0011
0000
0000
0000
0000
0000
1000
0000
0000
0001
0000
0000
0010
0000
0000
0100
0000
0000
1000
0000
0001
0000
1000
0000
,
0001
1000
0001
1000
0001
1000
0001
1000
0001
1000
0000
0000
,
1100
0000
1001
0000
1010
0000
1000
1000
,
0001
0000
0000
0100
0000
0000
0010
0000
0000
0000
0000
0000
1000
0000
0000
0000
0001
0000
0000
0000
1000
0000
0000
0000
0001
0000
0000
0000
1000
0000
0000
0000
0001
0000
0000
0000
1000
0000
0000
0000
0001
0000
0000
0000
1000
0000
0000
0000
,
0001
1000
0001
1000
0000
0000
1010
0000
0000
1001
0000
0000
,
1100
0000
0000
0000
0000
0000
0000
0000
0000
0000
0000
0000
0000
0000
0000
0000
0000
0000
0000
0000
0000
0000
0000
0000
2000
0000
3000
0200
0000
0300
0020
0000
0030
0002
0000
0003
2200
0000
0000
3300
0000
0000
0022
0000
0000
0033
0000
0000
1000
0000
0000
0000
0000
0000
0000
0000
0000
0000
0000
0000
0100
0000
0000
0000
0000
0000
0010
0000
0000
0000
0000
0000
0001
0000
0000
0000
0000
0000
0000
0000
0000
0000
0000
0000
1000
0000
0000
0000
0000
0000
0010
0000
0000
0000
0000
0000
,
0100
0000
1000
0100
0010
0100
0001
1000
0001
0010
0100
0000
0001
0100
0010
0001
,
2000
0000
0100
0000
3002
0000
0100
0000
1003
0000
0010
0100
0001
0000
1000
0100
,
0010
0000
1000
0010
0100
0010
0001
1000
0001
0100
0010
0000
0001
0010
0100
0001
,
2000
0000
0010
0000
3002
0000
0010
0000
1003
0000
0001
1000
0100
0000
0001
0100
,
0010
0000
0001
1000
0010
1000
0001
0010
0001
1000
0010
0000
0100
0001
1000
0010
,
2000
0000
0100
0000
3002
0000
0010
0000
1003
0000
1000
0100
0000
0100
0001
0000
,
0001
0010
0000
0010
1000
0000
0001
0000
1000
0000
0001
1000
0001
0010
0100
0000
,
0110
0000
1001
0000
1001
0000
0000
0000
0001
0000
0100
0010
0001
0000
1000
0100
,
0010
0000
1000
0100
0010
0100
1000
0010
0100
0001
0010
0000
0001
0100
0010
0100
,
0002
0000
0010
0000
2003
0000
0100
0000
3001
0000
0010
0100
0001
0000
1000
0010
,
0100
0000
1000
0010
0100
0010
1000
0100
0010
0001
0100
0000
0001
0010
0100
0010
,
0002
0000
0100
0000
2003
0000
0010
0000
3001
0000
0100
1000
0001
0000
1000
0100
,
0001
0000
1000
0100
0001
0100
1000
0010
0100
0001
0010
0000
0100
1000
0010
0100
,
0002
0000
0010
0000
2003
0000
0100
0000
3001
0000
0010
1000
0001
0000
1000
0010
,
0001
0000
1000
0010
0001
0010
1000
0100
0020
0000
0000
0000
1030
0000
0001
0100
,
1000
0000
0000
0000
0000
0000
0000
0000
0000
0000
0000
0000
0010
0000
0000
0000
0000
0000
0000
0000
0000
0000
0000
0000
0001
0000
0000
0000
0000
0000
0000
0000
0000
0000
0000
0000
0010
0000
0000
0000
0000
0000
0000
0000
0000
0000
0000
0000
1000
0000
0000
0000
0000
0000
0000
0000
0000
0000
0000
0000
0100
0000
0000
0000
0000
0000
0000
0000
0000
0000
0000
0000
0001
0000
0000
0000
0000
0000
0000
0000
0000
0000
0000
0000
0100
0000
0000
0000
0000
0000
0000
0000
0000
0000
0000
0000
2000
3000
0000
0000
0000
0000
0000
0000
0000
0000
0000
0000
0000
0000
0000
0000
0000
0000
0000
0000
0000
0000
0000
0000
0001
0000
0000
1000
0000
0000
0001
0000
0000
0000
0000
0000
0010
0000
0000
0000
0000
0000
0010
0000
0000
0000
0000
0000
0100
0000
0000
0000
0000
0000
1000
0000
0000
0000
0000
0000
0100
0000
0000
0000
0000
0000
0000
0000
0000
0000
0000
0000
0110
0000
0000
0000
0000
0000
0000
0000
0000
0000
0000
0000
0011
0000
0000
0000
0000
0000
0000
0000
0000
0000
0000
0000
,
1001
0000
0000
0000
;
