#TITLE:Sweet Thing;
#SUBTITLE:;
#ARTIST:nc feat. mioco;
#TITLETRANSLIT:;
#SUBTITLETRANSLIT:;
#ARTISTTRANSLIT:;
#GENRE:;
#CREDIT:;
#MUSIC:20. Sweet Thing.mp3;
#BANNER:;
#BACKGROUND:;
#CDTITLE:;
#SAMPLESTART:19.464;
#SAMPLELENGTH:9.697;
#SELECTABLE:YES;
#OFFSET:-0.070;
#BPMS:0.000=99.000;
#STOPS:;
#BGCHANGES:;
#FGCHANGES:;

//--------------- dance-single - eataninja ----------------
#NOTES:
     dance-single:
     eataninja:
     Beginner:
     1:
     0,0,0,0,0:
0000
0000
0000
0000
,
0000
0000
0000
0000
,
0000
0000
0000
0000
,
0000
0000
0000
0000
,
0001
0000
0000
0000
,
1000
0000
0000
0000
,
0020
0000
0030
0000
,
0010
0000
0000
0000
,
0100
0000
0000
0000
,
0001
0000
0000
0000
,
0010
0000
0000
0000
,
0100
0000
0100
0000
,
1000
0000
0000
0000
,
0010
0000
0100
0000
,
0001
0000
0000
1000
,
1000
0000
0000
0000
,
0020
0030
0010
0000
,
0200
0300
0100
0000
,
0001
0000
1000
0000
,
0100
0100
0000
0000
,
0020
0030
0010
0000
,
0200
0300
0100
0000
,
1000
0000
0020
0000
,
0000
0030
0000
0000
,
2000
0000
3000
0000
,
1001
0000
0000
0000
,
0010
0000
0001
0000
,
0100
0100
0000
0000
,
0002
0000
0003
0000
,
1001
0000
0000
0000
,
0010
0000
0100
0100
,
0000
0000
1001
0000
,
1000
0000
0010
0000
,
0100
0000
0000
0000
,
0001
0000
1000
0000
,
1001
0000
0000
0000
,
0010
0000
0001
0000
,
0100
0000
0000
0000
,
0010
0000
0100
0200
,
0000
0300
0000
0000
,
0001
0000
0000
0000
,
0010
0000
0000
0000
,
1000
0000
0000
0000
,
0100
0000
0000
0000
,
0001
0000
0000
0000
;

//--------------- dance-single - eataninja ----------------
#NOTES:
     dance-single:
     eataninja:
     Easy:
     3:
     0,0,0,0,0:
0000
0000
0000
0000
,
0000
0000
0000
0000
,
0000
0000
0000
0000
,
0000
0000
0000
0000
,
0001
0100
0100
0000
,
0001
1000
0001
0000
,
0002
0000
2003
0000
,
3020
0000
0130
0000
,
0100
0001
1000
0000
,
1000
0001
0010
0000
,
0010
0100
1000
0000
,
0001
0000
1001
0000
,
1000
0010
1000
0000
,
0001
0010
1000
0010
,
0001
0000
1000
0000
,
1001
0000
0100
0001
,
0010
0100
0100
0000
,
1000
0010
0010
0000
,
1000
0000
1001
0000
,
0100
0000
0100
1000
,
0010
0100
0100
0000
,
0001
1000
0001
0000
,
0010
1000
0010
0002
,
2000
3003
0000
0000
,
1000
0010
1000
0000
,
0010
0100
0001
0000
,
0010
0010
0100
0010
,
1001
0000
1000
0000
,
0001
0100
0001
0000
,
0010
0010
0100
0000
,
0001
0100
1000
0002
,
0000
1003
0001
0010
,
0200
1000
1300
0000
,
0001
0100
0001
0000
,
1000
0001
0100
0100
,
1001
0000
0010
0100
,
2000
0000
3001
0000
,
0100
0010
1000
0000
,
0010
0001
0010
1000
,
0000
0000
0001
0001
,
1000
0000
0100
0000
,
0001
0000
0100
0000
,
1000
0000
0100
0000
,
0001
0000
0100
0000
,
0110
0000
0000
0000
;

//--------------- dance-single - eataninja ----------------
#NOTES:
     dance-single:
     eataninja:
     Medium:
     8:
     0,0,0,0,0:
0000
0000
0000
0000
,
0000
0000
0000
0000
,
0000
0000
0000
0000
,
0000
0000
0000
0000
,
1000
0000
0010
0000
0100
0100
0001
0000
,
1000
0000
0100
0000
0010
0010
0001
0000
,
0200
0320
0000
1030
,
0001
0000
0010
0000
1000
0010
0001
0000
,
1000
0000
0000
0000
0010
0000
0000
0100
0000
0100
0000
0000
0001
0000
0000
0000
,
1000
0000
0000
0000
0001
0000
0000
0010
0000
0010
0000
0000
0100
0000
0000
0000
,
1000
0000
0000
0000
0010
0000
0000
0100
0000
0010
0000
0000
1000
0000
0000
0000
,
0001
1000
0001
0000
0010
0100
1000
0000
,
0001
0000
0000
0000
0100
0000
0000
0010
0000
0010
0000
0000
1000
0000
0000
0000
,
1000
0000
0000
0000
0001
0000
0000
0100
0000
1000
0000
0000
0100
0000
0000
0000
,
0001
1000
0001
1000
0001
0000
0010
0100
,
1000
0001
0200
0320
,
1030
0000
0001
0000
0100
0010
0100
0000
,
0001
0000
1000
0000
0100
0010
0100
0000
,
0001
0100
1000
0000
0001
0000
1001
0000
,
0010
0100
0002
2003
,
3100
0000
0010
0000
0001
1000
0001
0000
,
0100
0000
0010
0000
1000
0010
0001
0000
,
0020
0230
0302
0023
,
1000
0000
0030
0000
1000
0010
0001
0000
,
1000
0010
1010
0000
0001
1000
1001
0000
,
0010
0100
1000
0000
0001
0000
0001
0000
,
1000
0010
1000
0010
0100
0001
0100
0001
,
1000
1001
0200
0320
,
0031
1000
1001
0000
0010
1000
1010
0000
,
0100
0100
0001
0001
,
1000
0100
0001
0000
0001
0100
2000
0000
,
0000
0000
3001
0000
0100
0010
1000
0000
,
0001
0010
0011
0000
0100
0010
0110
0000
,
1000
0001
0100
0000
1000
0000
0100
0000
,
0001
1000
0001
1000
0100
0010
0100
0010
,
0001
0000
0000
0000
0100
1000
0100
0000
,
0001
0100
0101
0000
1000
0001
1001
0000
,
0010
0100
1000
0000
0001
0000
0101
0000
,
1000
0010
0001
0000
0001
0010
1000
0000
,
0100
0000
0010
0000
0001
0001
1000
0000
,
0010
0000
0000
0100
0000
0001
0000
0100
0000
0000
0000
0000
0000
0000
0000
0000
,
0010
0000
0000
1000
0000
0100
0000
1000
0000
0000
0000
0000
0000
0000
0000
0000
,
0010
0000
0000
0100
0000
0001
0000
0100
0000
0000
0000
0000
0000
0000
0000
0000
,
0010
0000
0000
1000
0000
0100
0000
1000
0000
0000
0000
0000
0000
0000
0000
0000
,
0010
0000
0000
0200
0000
0000
0000
0000
0000
0000
0000
0000
0000
0000
0000
0000
,
0300
0000
0000
0000
;

//--------------- dance-single - eataninja ----------------
#NOTES:
     dance-single:
     eataninja:
     Hard:
     10:
     0,0,0,0,0:
0000
0000
0000
0000
,
0000
0000
0000
0000
,
0000
0000
0000
0000
,
0000
0000
0000
0000
,
2001
0000
0000
0001
0000
0100
0000
3200
0000
0000
0310
0000
0001
0000
0100
0000
,
1002
0000
0000
1000
0000
0100
0000
0203
0000
0000
0310
0000
1000
0000
0100
0000
,
1100
0000
0000
2002
0000
0000
3003
0000
0001
0000
0100
0000
0001
0000
2000
0000
,
0000
3100
0010
0001
0100
1000
0100
0001
,
0010
0000
0100
0000
0100
0000
0000
1000
0000
0001
0000
0000
0100
0000
0010
0000
,
1000
0000
0001
0000
0001
0000
0000
0010
0000
0100
0000
0000
1000
0000
0001
0000
,
0100
0000
0010
0000
0010
0000
0000
1000
0000
0001
0000
0000
0010
0000
0100
0000
,
0001
0100
1000
0000
0010
0100
0001
0010
,
0100
0000
1000
0000
1000
0000
0001
0100
0000
0010
0000
0000
0100
0000
0001
0000
,
1000
0000
0010
0000
1000
0000
0100
0001
0000
0100
0000
0000
1000
0001
1000
0001
,
0000
0000
1000
0000
0010
0100
0010
0100
0000
0000
0100
0000
1000
0000
0100
0000
,
0001
0000
1001
0000
0010
0100
0001
0100
,
1000
0000
0000
0000
0001
0000
0000
0201
0000
0000
0010
0000
0310
0000
0000
0000
,
0100
0000
0001
0000
1000
0000
0000
1200
0000
0000
0010
0000
0310
0000
0000
0000
,
0001
1000
0000
0010
0000
0100
0000
1000
0000
0100
0001
0000
0000
0000
1000
0000
,
1000
0000
1100
0000
0010
1000
0010
0001
,
1000
0000
0100
0000
1000
0000
0001
0100
0000
0100
0020
0000
0000
0000
0130
0000
,
0001
0000
1000
0000
0001
0000
0100
1000
0000
0100
0001
0000
0000
0000
0010
0000
,
2000
0000
0000
3002
0000
0000
0203
0000
0000
0000
1300
0000
0020
0000
0000
0000
,
0130
0000
0000
0100
1000
0100
0001
0010
,
0010
0110
0100
1001
,
1000
0000
0010
0000
0001
0000
0000
0000
0010
0000
0100
0000
0001
1000
0000
0100
,
0000
0010
0000
0010
0000
0001
0000
0001
0000
0000
1000
0000
0010
0100
0010
0100
,
0000
0001
1000
0000
0000
0000
0100
0000
0001
0000
0100
0000
1000
0000
0010
0000
,
0010
0110
0100
1001
,
0001
0000
0000
0011
0000
0000
0100
0000
1000
0000
0000
1010
0000
0000
0100
0000
,
1000
0000
0100
0000
0001
0000
1000
0200
0000
0000
0310
0000
0001
0000
0200
0000
,
0000
0000
0000
1300
1000
0100
0001
0010
,
0100
0000
0001
0000
0001
0000
0100
1000
0000
0000
0001
0000
1000
0000
0001
0000
,
0100
1000
0000
1200
0000
0000
0000
0000
0310
0000
1000
0000
0100
0010
0000
0001
,
0000
1000
0000
1000
0000
0010
0000
0010
0000
0000
0100
0000
0001
0000
0010
0200
,
0000
0301
0100
1000
0010
0100
1000
0100
,
0001
0101
1000
1100
,
0010
0000
0000
0001
0000
0000
0100
0000
0100
0000
0000
0001
0000
0000
1000
0000
,
0100
0000
0001
0000
0100
0000
1000
0002
0000
0000
0103
0000
1000
0000
0100
0000
,
0000
0101
0000
0010
1000
0100
0010
0001
,
2001
0000
0000
0010
0000
0001
0000
3002
0000
0000
0000
0000
0003
0000
0000
0000
,
1002
0000
0000
0010
0000
1000
0000
2003
0000
0000
0000
0000
3000
0000
0000
0000
,
2001
0000
0000
0100
0000
0001
0000
3002
0000
0000
0000
0000
0003
0000
0000
0000
,
1002
0000
0000
0100
0000
1000
0000
2003
0000
0000
0000
0000
3000
0000
0000
0000
,
0010
0000
0000
0100
0000
0000
0000
0000
0000
2002
0000
0000
0000
0000
0000
0000
,
0000
3003
0000
0000
;
