#TITLE:Surrender (PureFocus remix);
#SUBTITLE:;
#ARTIST:U1 ft. Becca Hossany;
#TITLETRANSLIT:;
#SUBTITLETRANSLIT:;
#ARTISTTRANSLIT:;
#GENRE:;
#CREDIT:;
#MUSIC:Surrender (PureFocus remix).ogg;
#BANNER:Surrender (PureFocus remix).png;
#BACKGROUND:Surrender (PureFocus remix)-bg.png;
#CDTITLE:./CDTITLES/DanceDanceRevolution II.png;
#SAMPLESTART:42.440;
#SAMPLELENGTH:15.000;
#SELECTABLE:YES;
#OFFSET:0.000;
#BPMS:0.000=130.203;
#STOPS:;
#DISPLAYBPM:130.000;
#BGCHANGES:;
#FGCHANGES:;

//--------------- dance-single - OrangeRight ----------------
#NOTES:
     dance-single:
     OrangeRight:
     Beginner:
     1:
     0,0,0,0,0:
0000
0000
0000
0000
,
0000
0000
0000
0000
,
0000
0000
0000
0000
,
1000
0000
0000
0000
,
0001
0000
0000
0000
,
1000
0000
0000
0000
,
1000
0000
0000
0000
,
1000
0000
0000
0000
,
0001
0000
0000
0000
,
1000
0000
0000
0000
,
0100
0000
0000
0000
,
1000
0000
0000
0000
,
0001
0000
0000
0000
,
1000
0000
0000
0000
,
0001
0000
1000
0000
,
0001
0000
0000
0000
,
0001
0000
0000
0000
,
0001
0000
0000
0000
,
0001
0000
0001
0000
,
1000
0000
0000
0000
,
1000
0000
0000
0000
,
1000
0000
0000
0000
,
1000
0000
1000
0000
,
0100
0000
0000
0000
,
0100
0000
0000
0000
,
0100
0000
0000
0000
,
1000
0000
0001
0000
,
0100
0000
0000
0000
,
0100
0000
0000
0000
,
0100
0000
0000
0000
,
0001
0000
1000
0000
,
0100
0000
0000
0000
,
0100
0000
0000
0000
,
1000
0000
0000
0000
,
1000
0000
0001
0000
,
1000
0000
0000
0000
,
1000
0000
0000
0000
,
1000
0000
0000
0000
,
1000
0000
1000
0000
,
0001
0000
0000
0000
,
0001
0000
0000
0000
,
0001
0000
0000
0000
,
0001
0000
0001
0000
,
0010
0000
0000
0000
,
0010
0000
0000
0000
,
0010
0000
0000
0000
,
0001
0000
1000
0000
,
0010
0000
0000
0000
,
0010
0000
0000
0000
,
0010
0000
0000
0000
,
1000
0000
0001
0000
;

//--------------- dance-single - OrangeRight ----------------
#NOTES:
     dance-single:
     OrangeRight:
     Easy:
     3:
     0,0,0,0,0:
0000
0000
0000
0000
,
0000
0000
0000
0000
,
0000
0000
0000
0000
,
1000
0000
0100
0000
,
0100
0000
1000
0000
,
0001
0000
0100
0000
,
0010
0000
1000
0001
,
1000
0000
1000
0000
,
0010
0000
0100
0000
,
0001
0000
0010
0000
,
0002
0000
0003
0000
,
0001
0000
0010
0000
,
0100
0000
1000
0000
,
0010
0000
1000
0000
,
0200
0000
0300
0000
,
1000
0000
1000
0000
,
0001
0000
0001
0000
,
1000
0000
0001
0000
,
0100
0100
0010
0010
,
1000
0000
1000
0000
,
0001
0000
0001
0000
,
1000
0000
0001
0000
,
0010
0100
0010
0100
,
1000
0000
1000
0000
,
0001
0000
0001
0000
,
0100
0000
0010
0000
,
1000
0000
0001
0000
,
1000
0000
1000
0000
,
0001
0000
0001
0000
,
0100
0000
0010
0000
,
1000
0001
1001
0000
,
2000
0000
3000
0000
,
0002
0000
0003
0000
,
1000
0000
0001
0000
,
0001
0000
1000
0000
,
0001
0000
0001
0000
,
1000
0000
1000
0000
,
0001
0000
0001
0000
,
0010
0010
0100
0100
,
1000
0000
1000
0000
,
0001
0000
0001
0000
,
1000
0000
0001
0000
,
1000
1000
0001
0001
,
1000
0000
1000
0100
,
0010
0000
0010
0001
,
1000
0000
1000
0001
,
1000
0000
1001
0000
,
0001
0000
0001
0010
,
0100
0000
0100
1000
,
0010
0000
0100
0001
,
1000
0001
2002
0000
,
3003
0000
0000
0000
;

//--------------- dance-single - OrangeRight ----------------
#NOTES:
     dance-single:
     OrangeRight:
     Medium:
     7:
     0,0,0,0,0:
0000
0000
0000
0000
,
0000
0000
0000
0000
,
0000
0000
0000
0000
,
0001
0000
1000
0100
2000
0000
3000
0000
,
1000
0000
0001
0100
0002
0000
0003
0000
,
1000
0000
0001
1000
0002
0000
0003
0100
,
0020
0000
0030
1000
0200
0000
0300
0000
,
1000
1000
0001
0100
,
0001
0000
0010
0000
0100
0010
0100
0000
,
1000
0001
0100
0001
,
2000
0001
3001
0000
,
0001
0001
1000
0100
,
0010
0000
0100
0000
1000
0001
1000
0000
,
0001
0100
0010
1000
,
0200
0000
0010
0000
0310
0100
0010
0000
,
0001
0000
0001
0000
0001
0100
0010
0000
,
0010
0000
0010
0000
0010
1000
0100
0000
,
0100
0000
0100
0000
0100
0010
0001
0000
,
2000
3002
2003
3002
,
1003
0000
1000
0000
1000
0100
0010
0000
,
0010
0000
0010
0000
0010
0001
0100
0000
,
0100
0000
0100
0000
0100
0010
1000
0000
,
2000
3002
0203
0320
,
1030
0000
0100
0000
1000
0100
1000
0000
,
0001
0000
0100
0000
0001
0100
0001
0000
,
1000
0000
0001
0000
1000
0001
1000
0000
,
0001
0100
0010
1010
,
0001
0000
0010
0000
0001
0010
0001
0000
,
1000
0000
0010
0000
1000
0010
1000
0000
,
0001
0000
1000
0000
0001
1000
0001
0000
,
1000
0010
0100
0101
,
2000
0001
0000
3001
,
0002
0000
1000
0000
1003
0001
1000
0000
,
0001
0000
0100
0010
0200
0000
0300
0001
,
2000
0000
3000
0010
0200
0000
0301
0000
,
1000
0000
0001
0000
0100
0001
0100
0000
,
0001
0000
1000
0000
0100
1000
0100
0000
,
1000
0000
0001
0000
0100
0010
0100
0000
,
0020
2030
3002
0023
,
0031
0000
0100
0000
0010
1000
0010
0000
,
1000
0000
0100
0000
0010
0001
0010
0000
,
0001
0000
1000
0000
0010
0100
0010
0000
,
2000
3002
0023
0230
,
1300
0000
0100
0000
0010
0001
0100
0000
,
0001
0000
0010
0000
0100
1000
0010
0000
,
1000
0000
0010
0000
0100
0001
1000
0100
,
1000
0010
0100
0101
,
0001
0000
0100
0000
0010
1000
0001
0000
,
1000
0000
0010
0000
0100
0001
1000
0000
,
0001
0000
1000
0000
0100
1000
0010
0100
,
0001
0000
1000
0001
1000
0000
2002
0000
,
3003
0000
0000
0000
;

//--------------- dance-single - OrangeRight ----------------
#NOTES:
     dance-single:
     OrangeRight:
     Hard:
     12:
     0.586,0.649,0.573,0.164,0.461:
0000
0000
0000
0000
,
0000
0000
0000
0000
,
0000
0000
0000
0000
,
2000
0000
0000
0000
3100
0000
0010
0000
0001
0000
0000
1000
0001
0000
0100
0000
,
0010
0000
1000
0000
0100
0000
0010
0000
0001
0000
0000
1000
0001
0000
0000
0000
,
0002
0000
0000
0000
0103
0000
0010
0000
1000
0000
0000
0001
1000
0000
0100
0000
,
0010
0000
0000
0001
0100
0000
0010
0000
1000
0000
0100
0000
1000
0000
0000
0000
,
1200
0000
0000
0000
0310
0000
0001
0000
0100
0000
0000
0010
0000
0000
1000
0000
,
0001
0000
0100
0000
1000
0000
0100
0000
0001
0000
0000
1000
0000
0000
1000
0000
,
0001
0000
0010
0000
0100
0000
1000
0000
0010
0000
0000
1000
0000
0000
0100
0000
,
2000
0000
0001
0000
0001
0001
3001
0000
,
0201
0000
0000
0000
0310
0000
1000
0000
0100
0000
0000
1000
0000
0000
0010
0000
,
0001
0000
0010
0000
1000
0000
0100
0000
0010
0000
0000
0001
0000
0000
0001
0000
,
1000
0000
0010
0000
0100
0000
0001
0000
0010
0000
0000
0100
0000
0000
1000
0000
,
1002
0000
0000
0000
0103
0000
0000
0000
0100
0010
0100
0010
0100
0000
0010
0000
,
1000
0000
0100
1000
0100
0000
1000
0000
0001
0000
0100
0000
0101
0000
0000
0000
,
0001
0000
0100
0001
0100
0000
0001
0000
1000
0000
0010
0000
1010
0000
0000
0000
,
0010
0000
1000
0100
1000
0000
0010
0000
0100
0000
0001
0000
1001
0000
0000
0000
,
1010
0011
1010
1100
,
1000
0000
0010
1000
0010
0000
1000
0000
0001
0000
0010
0000
0011
0000
0000
0000
,
0001
0000
0010
0001
0010
0000
0001
0000
1000
0000
0100
0000
1100
0000
0000
0000
,
0100
0000
1000
0010
1000
0000
0100
0000
0010
0000
0001
0000
1001
0000
0000
0000
,
1100
0101
1100
1001
,
1000
0000
0001
1000
0001
0000
0100
0000
0010
0000
1000
0000
0100
0000
0120
0000
,
0000
0000
0031
0100
0001
0000
0100
0000
0010
0000
1000
0000
0001
0000
2001
0000
,
0000
0000
3100
0010
0100
0000
1000
0000
0001
0000
0100
0000
0010
0000
2010
0000
,
0000
3200
0000
0301
0100
1000
1001
0000
,
0001
0000
1000
0001
1000
0000
0100
0000
0010
0000
0001
0100
0000
0100
0020
0000
,
0000
0000
1030
0100
1000
0000
0010
0000
0100
0000
0001
0010
0000
0100
2000
0000
,
0000
0000
3100
0010
0100
0000
1000
0000
0001
0000
0100
0010
0000
0010
2000
0000
,
0000
3002
0000
0103
1000
0100
1001
0000
,
2000
0000
0100
0000
0000
0000
3001
1000
,
0002
0000
0100
0000
0103
0100
0020
0000
,
2030
0000
0000
0000
3100
0000
0010
0000
0001
0000
0000
1000
0001
0000
0100
0000
,
0010
0000
0000
1000
0001
0000
0010
0000
0100
0000
0000
1000
0100
0000
0000
0000
,
1000
0000
0100
1000
0001
0000
0100
0000
1000
0000
0100
0000
0101
0000
0000
0000
,
0001
0000
0010
0001
1000
0000
0010
0000
0001
0000
0010
0000
1010
0000
0000
0000
,
0010
0000
1000
0100
0010
0000
0001
0000
0100
0000
0010
0000
0110
0000
0000
0000
,
1010
1100
0011
0101
,
0001
0000
0010
0001
1000
0000
0010
0000
0001
0000
0010
0000
1010
0000
0000
0000
,
1000
0000
0100
1000
0001
0000
0100
0000
1000
0000
0100
0000
0101
0000
0000
0000
,
0100
0000
0001
0010
0100
0000
1000
0000
0010
0000
0100
0000
0101
0000
0000
0000
,
1001
1010
0011
1010
,
1000
0000
0100
0010
0100
0000
1000
0000
0010
0000
0100
0000
0001
0000
0101
0000
,
0001
0000
0100
0010
0100
0000
0001
0000
0010
0000
0100
0000
1000
0000
1100
0000
,
1000
0000
0010
1000
0100
0000
0010
0000
0001
0000
1000
0000
0010
0000
0210
0000
,
0000
0302
0000
0013
0100
1000
1001
0000
,
0001
0000
0100
1000
0100
0000
0001
0000
0010
0000
0100
0000
1000
0000
1010
0000
,
1000
0000
0100
0001
0100
0000
1000
0000
0010
0000
0100
0000
0001
0000
1001
0000
,
1000
0000
0001
0100
0010
0000
1000
0000
0100
0000
0001
0000
0100
0000
2100
0000
,
0000
3010
0001
0010
1000
0100
0220
0000
,
0330
0000
0000
0000
;

//--------------- dance-double - OrangeRight ----------------
#NOTES:
     dance-double:
     OrangeRight:
     Easy:
     4:
     0,0,0,0,0:
00000000
00000000
00000000
00000000
,
00000000
00000000
00000000
00000000
,
00000000
00000000
00000000
00000000
,
10000000
00000000
00020000
00030000
,
00100000
00001000
00020000
00030000
,
00001000
00000000
00020000
00030000
,
00000200
00000300
00002000
00003000
,
00000001
00000000
00000001
00000000
,
00000001
00001000
00000100
00000000
,
00000100
00000000
00010000
00000000
,
00002000
00000000
00003000
00000000
,
00010000
00000000
00001000
00000000
,
00100000
00010000
00100000
00000000
,
01000000
00000000
10000000
00000000
,
00020000
00000000
00030000
00000000
,
10000000
00000000
00010000
00000000
,
01000000
00000000
00001000
00000000
,
00010000
00000000
00000100
00000000
,
00001000
00000001
00001000
00000001
,
00001000
00000000
00000001
00000000
,
00001000
00000000
00000100
00000000
,
00010000
00000000
00001000
00000000
,
00100000
00010000
00100000
00010000
,
10000000
00000000
10000000
00010000
,
01000000
00000000
01000000
00001000
,
00010000
00000000
00010000
00000100
,
00001000
00000010
00001000
00000000
,
00000001
00000000
00000001
00001000
,
00000100
00000000
00000100
00010000
,
00001000
00000000
00001000
01000000
,
00010000
10000000
10010000
00000000
,
10000000
00000000
00000000
00010000
,
10000000
00000000
00100000
01000000
,
00010000
00000000
00200000
00300000
,
00002000
00003000
00020000
00030000
,
00000100
00000000
00000010
00000000
,
00000001
00000000
00000100
00000000
,
00000010
00000000
00001000
00000000
,
00000100
00010000
00000100
00010000
,
00001000
00000000
00100000
00000000
,
00010000
00000000
01000000
00000000
,
00100000
00000000
10000000
00000000
,
00010000
10000000
00010000
10000000
,
00010000
00000000
00010000
00100000
,
00001000
00000000
00001000
00010000
,
00000100
00000000
00000100
00001000
,
00000010
00000100
00000001
00001001
,
00001000
00000000
00001000
00000010
,
00010000
00000000
00010000
00001000
,
01000000
00000000
01000000
00010000
,
00100000
01000000
02200000
00000000
,
03300000
00000000
00000000
00000000
;

//--------------- dance-double - OrangeRight ----------------
#NOTES:
     dance-double:
     OrangeRight:
     Medium:
     8:
     0,0,0,0,0:
00000000
00000000
00000000
00000000
,
00000000
00000000
00000000
00000000
,
00000000
00000000
00000000
00000000
,
00010000
00000000
01000000
00010000
01000000
00000000
00010000
00000000
,
00100000
00000000
00010000
00100000
00001000
00000000
00010000
00000000
,
00000100
00000000
00001000
00000100
00001000
00000000
00000001
00000100
,
00000001
00000000
00001000
00000010
00001000
00000000
00000001
00000000
,
00001000
00000100
00010000
00001000
,
00100000
00000000
00010000
00000000
01000000
00010000
01000000
00000000
,
00010000
00100000
00001000
00010000
,
00000020
00001000
00001030
00000000
,
00001000
00000100
00020000
00000000
,
00031000
00100000
00020000
00000000
,
01030000
00100000
10000000
00010000
,
20000000
00000000
00010000
00000000
30010000
10000000
00010000
00000000
,
10000000
00000000
10000000
00000000
10000000
01000000
00100000
00000000
,
00100000
00000000
00100000
00000000
00100000
00010000
01000000
00000000
,
01000000
00000000
01000000
00000000
01000000
00001000
00010000
00000000
,
00000200
00002300
00003002
00000203
,
00000301
00000000
00000001
00000000
00000001
00000100
00000010
00000000
,
00000010
00000000
00000010
00000000
00000010
00001000
00000100
00000000
,
00000100
00000000
00000100
00000000
00000100
00010000
00001000
00000000
,
02000000
03020000
00230000
02300000
,
13000000
00000000
01000000
00000000
10000000
00010000
10000000
00000000
,
00010000
00000000
01000000
00000000
00010000
00100000
00010000
00000000
,
00100000
00000000
00001000
00000000
00010000
00000100
00001000
00000000
,
00000010
00000100
00000001
00001001
,
00000001
00000000
00000100
00000000
00000001
00001000
00000001
00000000
,
00001000
00000000
00000100
00000000
00001000
00000010
00001000
00000000
,
00000010
00000000
00010000
00000000
00001000
01000000
00010000
00000000
,
00100000
01000000
00000000
01000000
10000000
00000000
11000000
00000000
,
20000000
00100000
00000000
30100000
,
00200000
00000000
01000000
00000000
01300000
00100000
01000000
00000000
,
00010000
00000000
00100000
00001000
00020000
00000000
00000000
00030100
,
00002000
00000000
00000000
00003010
00000200
00000000
00000301
00000000
,
00000001
00000000
00000001
00000000
00000001
00000010
00000100
00000000
,
00000100
00000000
00000100
00000000
00000100
00010000
00001000
00000000
,
00001000
00000000
00001000
00000000
00001000
00100000
00010000
00000000
,
00200000
00320000
02030000
03020000
,
10030000
00000000
10000000
00000000
10000000
00100000
01000000
00000000
,
01000000
00000000
01000000
00000000
01000000
00001000
00010000
00000000
,
00010000
00000000
00010000
00000000
00010000
00000010
00001000
00000000
,
00000020
00002030
00003200
00000320
,
00000031
00000000
00001000
00000000
00000010
00001000
00000100
00000000
,
00010000
00000000
00001000
00000000
00100000
00010000
01000000
00000000
,
00100000
00000000
10000000
00000000
00010000
00100000
10000000
00000000
,
00100000
00010000
01000000
00100000
10000000
00000000
10010000
00000000
,
10000000
00000000
00010000
00000000
00100000
00010000
01000000
00000000
,
00001000
00000000
00010000
00000000
00000010
00001000
00000100
00000000
,
00000010
00000000
00000001
00000000
00001000
00000010
00000001
00000000
,
00000010
00001000
00000100
00010000
00001000
00000000
00022000
00000000
,
00033000
00000000
00000000
00000000
;

//--------------- dance-double - OrangeRight ----------------
#NOTES:
     dance-double:
     OrangeRight:
     Hard:
     11:
     0.589,0.649,0.573,0.123,0.461:
00000000
00000000
00000000
00000000
,
00000000
00000000
00000000
00000000
,
00000000
00000000
00000000
00000000
,
20000000
00000000
00000000
00000000
30010000
00000000
01000000
00000000
00100000
00000000
00000000
00100000
10000000
00000000
00010000
00000000
,
00100000
00000000
00001000
00000000
00010000
00000000
00000100
00000000
00001000
00000000
00000000
00000010
00001000
00000000
00000000
00000000
,
00000002
00000000
00000000
00000000
00001003
00000000
00000100
00000000
00000010
00000000
00000000
00000001
00001000
00000000
00000010
00000000
,
00010000
00000000
00000000
00001000
00100000
00000000
00010000
00000000
10000000
00000000
00000000
01000000
10000000
00000000
00000000
00000000
,
00200000
00000000
10300000
01000000
00100000
00010000
01000000
00001000
,
00010000
00000000
00000100
00000000
00001000
00000000
00000010
00000000
00000100
00000000
00000000
00000100
00000000
00000000
00000100
00000000
,
00000020
00000000
00001030
00000100
00000010
00000001
00000100
00001000
,
00000200
00000001
00000010
00001000
,
00000320
00000000
00001030
00000100
00020000
00000000
00031000
00100000
,
00010000
00000000
01000000
00000000
00100000
00000000
01000000
00000000
00010000
00000000
00000000
00100000
00000000
00000000
00100000
00000000
,
00001000
00010000
00000100
00001000
00000010
00000001
00000010
00001000
,
00000200
00000000
00000000
00000000
00001300
00000000
00000000
00000000
00001000
00000001
00001000
00000001
00001000
00000000
00000001
00000000
,
00001000
00000000
00000000
00001000
00000100
00000000
00000000
00000100
00010000
00000000
00001000
00000000
00201000
00000000
00000000
00000000
,
00310000
00000000
00000000
00010000
01000000
00000000
00000000
01000000
00001000
00000000
00010000
00000000
00020100
00000000
00000000
00000000
,
00030100
00000000
00000000
00000100
00001000
00000000
00000000
00001000
00000010
00000000
00000100
00000000
00000101
00000000
00000000
00000000
,
00000002
00000023
00002030
00023000
,
00031000
00000000
00000000
00001000
00100000
00000000
00000000
00100000
00010000
00000000
01000000
00000000
01020000
00000000
00000000
00000000
,
00130000
00000000
00000000
00100000
00001000
00000000
00000000
00001000
00010000
00000000
00000100
00000000
00001200
00000000
00000000
00000000
,
00010300
00000000
00000000
00010000
00001000
00000000
00000000
00001000
00010000
00000000
00000100
00000000
00001100
00000000
00000000
00000000
,
00001001
00001010
00000011
00001010
,
00001000
00000000
00000001
00000100
00000001
00000000
00001000
00000000
00000100
00000000
00010000
00000000
00001000
00000000
00020000
00000000
,
00000000
00000000
00031000
00010000
00001000
00000000
00100000
00000000
00010000
00000000
10000000
00000000
00100000
00000000
20000000
00000000
,
00000000
00000000
30010000
01000000
00100000
00000000
10000000
00000000
01000000
00000000
00100000
00000000
00010000
00000000
20000000
00000000
,
00000000
30020000
00000000
01030000
01100000
00000000
10010000
00000000
,
00010000
00000000
10000000
01000000
10000000
00000000
00010000
00000000
01000000
00000000
00000000
00001000
00000000
00000000
00020000
00000000
,
00000000
00000000
00031000
00010000
00001000
00000000
00010000
00000000
00000010
00000000
00000000
00001000
00000000
00000000
00000002
00000000
,
00000000
00000000
00001003
00000100
00000010
00000000
00000001
00000000
00000100
00000000
00000000
00001000
00000000
00000000
00000200
00000000
,
00000000
00000302
00000000
00000013
00001000
00000010
00001001
00000000
,
00002000
00000000
00000001
00000000
00000000
00000000
00003001
00001000
,
00000200
00000000
00010000
00000000
00010300
00001000
00010000
00000000
,
00002000
00000000
00000000
00000000
00103000
00000000
00010000
00000000
01000000
00000000
00000000
01000000
00100000
00000000
10000000
00000000
,
00010000
00000000
00000000
00010000
00100000
00000000
01000000
00000000
10000000
00000000
00000000
00010000
10000000
00000000
00000000
00000000
,
00010000
00000000
01000000
00010000
01000000
00000000
00010000
00000000
00100000
00000000
00001000
00000000
00021000
00000000
00000000
00000000
,
00030100
00000000
00001000
00000100
00001000
00000000
00000010
00000000
00000100
00000000
00000010
00000000
00002010
00000000
00000000
00000000
,
00003100
00000000
00010000
00001000
00010000
00000000
00001000
00000000
00100000
00000000
00010000
00000000
02010000
00000000
00000000
00000000
,
03002000
00023000
02030000
03020000
,
00031000
00000000
00100000
00010000
00100000
00000000
00001000
00000000
00010000
00000000
00000100
00000000
00001200
00000000
00000000
00000000
,
00010300
00000000
00000100
00001000
00000100
00000000
00010000
00000000
00001000
00000000
00100000
00000000
00120000
00000000
00000000
00000000
,
01030000
00000000
00100000
10000000
00010000
00000000
00100000
00000000
00010000
00000000
10000000
00000000
10010000
00000000
00000000
00000000
,
10100000
00110000
10100000
10010000
,
00010000
00000000
10000000
01000000
10000000
00000000
00010000
00000000
01000000
00000000
00001000
00000000
00010000
00000000
00010000
00000000
,
00001000
00000000
00010000
00001000
00010000
00000000
00000010
00000000
00001000
00000000
00000001
00000000
00000010
00000000
00000010
00000000
,
00000001
00000000
00001000
00000100
00000010
00000000
00000001
00000000
00000010
00000000
00001000
00000000
00000010
00000000
00000002
00000000
,
00000000
00002003
00000000
00003100
00000110
00000000
00001001
00000000
,
00001000
00000000
00000001
00000100
00000001
00000000
00001000
00000000
00000100
00000000
00010000
00000000
00001000
00000000
00001000
00000000
,
00010000
00000000
00001000
00010000
00001000
00000000
00100000
00000000
00010000
00000000
10000000
00000000
01000000
00000000
01000000
00000000
,
10000000
00000000
00010000
01000000
00100000
00000000
10000000
00000000
01000000
00000000
00010000
00000000
01000000
00000000
21000000
00000000
,
00000000
30010000
00100000
01000000
10000000
00010000
20020000
00000000
,
30030000
00000000
00000000
00000000
;
