#TITLE:Sunshine;
#SUBTITLE:(Bombjaw Remix);
#ARTIST:Tanaka feat. Maylene;
#TITLETRANSLIT:;
#SUBTITLETRANSLIT:;
#ARTISTTRANSLIT:;
#GENRE:;
#CREDIT:;
#MUSIC:Sunshine (Bombjaw Remix).mp3;
#BANNER:;
#BACKGROUND:;
#CDTITLE:;
#SAMPLESTART:35.950;
#SAMPLELENGTH:12.000;
#SELECTABLE:YES;
#OFFSET:1.646;
#BPMS:0.000=140.000;
#STOPS:;
#BGCHANGES:;
#FGCHANGES:;

//--------------- dance-single - OrangeRight ----------------
#NOTES:
     dance-single:
     OrangeRight:
     Beginner:
     1:
     0,0,0,0,0:
0000
0000
0000
0000
,
0000
0000
0000
0000
,
0000
0000
0000
0000
,
0000
0000
0000
0000
,
0000
0000
0000
0000
,
1000
0000
0000
0000
,
1000
0000
0000
0000
,
0001
0000
0000
0000
,
0001
0000
0000
0000
,
1000
0000
0000
0000
,
1000
0000
0000
0000
,
0001
0000
0000
0000
,
0100
0000
0000
0000
,
0010
0000
0000
0000
,
0010
0000
0000
0000
,
1000
0000
0000
0000
,
0001
0000
0000
0000
,
0010
0000
0000
0000
,
0010
0000
0000
0000
,
0001
0000
1000
0000
,
0001
0000
0000
0000
,
1000
0000
0000
0000
,
0001
0000
0001
0000
,
0001
0000
0000
0000
,
1000
0000
1000
0000
,
1000
0000
0000
0000
,
0010
0000
0000
0000
,
0100
0000
0000
0000
,
0001
0000
0000
0000
,
1000
0000
0000
0000
,
0100
0000
0000
0000
,
1000
0000
0000
0000
,
0001
0000
0000
0000
,
0100
0000
0000
0000
,
0010
0000
0000
0000
,
1000
0000
0000
0000
,
0001
0000
0000
0000
,
0010
0000
0000
0000
,
0001
0000
0000
0000
,
0001
0000
0000
0000
,
1000
0000
0000
0000
,
1000
0000
0000
0000
,
0001
0000
0000
0000
,
0001
0000
0000
0000
,
1000
0000
0000
0000
,
0100
0000
0000
0000
,
0010
0000
0000
0000
,
0010
0000
0000
0000
,
0001
0000
0000
0000
,
1000
0000
0000
0000
,
0010
0000
0000
0000
,
0010
0000
0000
0000
,
0100
0000
0010
0000
,
0100
0000
0000
0000
,
0001
0000
0000
0000
,
1000
0000
1000
0000
,
1000
0000
0000
0000
,
0001
0000
0001
0000
,
0001
0000
0000
0000
,
1000
0000
0000
0000
,
0001
0000
0000
0000
,
1000
0000
0001
0000
,
1000
0000
0000
0000
;

//--------------- dance-single - OrangeRight ----------------
#NOTES:
     dance-single:
     OrangeRight:
     Easy:
     5:
     0,0,0,0,0:
0000
0000
0000
0000
,
0000
0000
0000
0000
,
0000
0000
0000
0000
,
0000
0000
0000
0000
,
0000
0000
0000
0000
,
1000
0001
1000
0001
,
0100
0000
0010
0000
,
1000
0010
0100
0000
,
0001
0010
0100
0000
,
1000
0001
1000
0001
,
0010
0000
0100
0000
,
1000
0100
0010
0000
,
0002
0003
2000
3000
,
0001
0100
0001
0100
,
0001
1000
0010
0000
,
1000
0100
1000
0100
,
1000
0001
0010
0000
,
0100
0010
0100
0010
,
0001
1000
0001
1000
,
0020
0030
0200
0300
,
2002
3003
0100
0010
,
2000
0000
0000
3000
,
1000
1000
0001
0001
,
0100
0010
0100
0000
,
0001
0001
1000
1000
,
0100
0010
0100
0000
,
1000
0100
0010
0001
,
1000
1000
0001
0001
,
2000
3000
0002
0003
,
0200
0300
0020
0030
,
2002
0000
0000
3003
,
1000
0001
1000
0001
,
1000
0000
1000
0000
,
0010
0100
0010
0100
,
0001
0000
0001
0000
,
0010
0100
0010
0100
,
1000
0000
1000
0000
,
1000
0100
0010
0001
,
1000
0010
1000
0010
,
0100
0000
0001
0000
,
0010
0001
0100
0000
,
0010
1000
0100
0000
,
1000
0100
1000
0100
,
0010
0000
0100
0000
,
1000
0001
1000
0010
,
0100
0001
1000
0000
,
0001
0001
0100
0100
,
0010
1000
0010
0000
,
1000
1000
0100
0100
,
0010
0001
0010
0000
,
0001
1000
0010
0100
,
0001
1000
0100
0010
,
0002
0003
2000
3000
,
0001
1000
0001
1000
,
2002
0000
0000
3003
,
0001
0001
1000
1000
,
0010
0100
0001
0000
,
1000
1000
0001
0001
,
0010
0100
1000
0000
,
0001
0001
0100
0100
,
0010
1000
0100
0010
,
0002
0003
2000
3000
,
0020
0030
0200
0300
;

//--------------- dance-single - OrangeRight ----------------
#NOTES:
     dance-single:
     OrangeRight:
     Medium:
     8:
     0,0,0,0,0:
0000
0000
0000
0000
,
0000
0000
0000
0000
,
0000
0000
0000
0000
,
0000
0000
0000
0000
,
0000
0000
0000
0000
,
1000
0100
1000
0000
0010
0000
0100
0000
,
0001
0100
0001
0000
0010
0000
0100
0000
,
1000
0100
0001
0100
,
1000
0001
1000
0000
0001
0000
1000
0000
,
0001
0010
0001
0000
0100
0000
0010
0000
,
1000
0010
1000
0000
0100
0000
0010
0000
,
0001
0010
1000
0010
,
0001
0100
0010
1000
,
0001
0100
0001
0000
1000
0100
1000
0000
,
0001
1000
1001
0000
,
1000
0100
1000
0000
0001
0100
0001
0000
,
1000
0001
1001
0000
,
1000
0010
1000
0000
0001
0100
0001
0000
,
0100
0010
1000
0001
,
2000
3100
0020
0031
,
0100
0000
0010
0000
1000
0001
1000
0000
,
2002
0000
0000
3003
,
1000
0100
0010
0000
0001
0100
0010
0000
,
1000
0001
1000
0000
0001
0000
1000
0000
,
0001
0010
0100
0000
1000
0010
0100
0000
,
0001
1000
0001
0000
1000
0000
0001
0000
,
1000
0001
0100
0000
0001
1000
0100
0000
,
1000
0100
0010
0100
1000
0000
0001
0000
,
1001
0100
1001
0010
,
1000
0010
1000
0010
0100
0001
0100
0001
,
2000
0000
0000
0000
3001
1000
0001
0000
,
2000
3200
0320
0032
,
1003
0010
1000
0000
0001
0010
0001
0000
,
2000
3020
0230
0302
,
1003
1000
1000
0000
1000
0100
0010
0000
,
0002
0203
0320
2030
,
3001
0100
0001
0000
1000
0100
1000
0000
,
0002
0023
0230
2300
,
3001
0010
0001
0000
0100
0000
0001
0000
,
1000
0010
1000
0000
0100
0000
1000
0000
,
0001
0010
1000
0010
,
0001
0100
0010
0000
1000
0100
0010
0000
,
0001
0100
0001
0000
0010
0000
0100
0000
,
1000
0100
1000
0000
0010
0000
0100
0000
,
0001
0100
1000
0100
,
0001
0010
0100
1000
,
0001
0010
0100
0000
1000
0010
0100
0000
,
0001
1000
1001
0000
,
1000
0100
0010
0000
0001
0100
0010
0000
,
1000
0001
1001
0000
,
1000
0001
1000
0000
0001
1000
0001
0000
,
1000
0100
0001
0100
,
2000
3010
0200
0301
,
0010
0000
0100
0000
1000
0001
1000
0000
,
2002
0000
0000
3003
,
0001
1000
0010
0000
1000
0001
0100
0000
,
0001
0010
0001
0010
0001
0000
1000
0000
,
0001
0100
0010
0000
1000
0100
0010
0000
,
0001
1000
0001
1000
0001
0000
1000
0000
,
0010
1000
0100
0000
0010
0001
0100
0000
,
0001
0100
0010
1000
0001
0000
1000
0000
,
1001
0010
1001
0100
,
0010
0100
0010
0100
0001
1000
0001
1000
;

//--------------- dance-single - OrangeRight ----------------
#NOTES:
     dance-single:
     OrangeRight:
     Hard:
     12:
     0,0,0,0,0:
0000
0000
0000
0000
,
0000
0000
0000
0000
,
0000
0000
0000
0000
,
0000
0000
0000
0000
,
0000
0000
0000
0000
,
1000
0000
0100
0000
1000
0000
0000
0000
0010
0000
0100
0000
0010
0000
0000
0100
,
0001
0000
0010
0000
0001
0000
0000
0000
0100
0000
0000
0001
0100
0000
0001
0000
,
2000
3002
0203
2300
,
3200
0302
2003
3001
,
0001
0000
0100
0000
0001
0000
0000
0000
0010
0000
0100
0000
0010
0000
0000
0100
,
1000
0000
0001
0000
0100
0000
0000
0000
0010
0000
0000
1000
0001
0000
1000
0000
,
0020
0230
0302
2003
,
3200
0000
0320
0000
0031
1000
0001
0000
,
1000
0100
1000
0010
1000
0001
0100
0001
,
0010
0000
1000
0000
0010
0000
0001
0000
0100
0000
0000
0100
0010
0000
1000
0000
,
0001
0100
0001
0010
0001
1000
0100
1000
,
0010
0000
0001
0000
0010
0000
1000
0000
0100
0000
0000
0100
0010
0000
0001
0000
,
1000
0010
0100
0010
1000
0100
0010
0001
,
0100
0000
0010
0000
0100
0000
0001
0000
0010
0000
0100
1000
0001
0000
1000
0000
,
2001
3100
1002
0103
,
0100
0010
1000
0001
1000
0100
0010
0001
,
2002
0000
0000
0000
0000
0000
0000
0000
3003
0000
0000
0001
1000
0000
0001
0000
,
1000
0100
0010
0100
1000
0010
0100
0001
,
0101
0000
0000
0100
0010
0000
0000
0010
1000
0000
0000
1000
0001
0000
1000
0000
,
0001
0100
0010
0100
0001
0010
0100
1000
,
1010
0000
0000
0010
0100
0000
0000
0100
0001
0000
0000
0001
1000
0000
0001
0000
,
1000
0100
0010
0001
0100
0010
0100
0001
,
0101
0000
0000
0100
0010
0000
0000
0010
1000
0000
0000
1000
0001
0000
1000
0000
,
1002
0103
2001
3100
,
1000
0000
0001
0000
0100
0000
0010
0000
1000
0000
0000
0001
1000
0000
0001
0000
,
2000
0000
0000
0000
3001
0100
0010
1000
,
0001
0000
0000
0001
0010
0000
0000
0010
0100
0000
0000
0100
1000
0000
0000
1000
,
0001
0000
0001
0100
0010
1000
0001
0000
,
1000
0000
0000
1000
0100
0000
0000
0100
0010
0000
0000
0010
0001
0000
0000
0001
,
1000
1000
1000
0001
0100
0010
1000
0000
,
0001
0000
0000
0001
1000
0000
0000
1000
0010
0000
0000
0010
0100
0000
0000
0100
,
0001
1000
0010
0100
0001
1000
0001
0000
,
1000
0000
0000
1000
0100
0000
0000
0100
0010
0000
0000
0010
0001
0000
0100
0000
,
0001
0000
0010
0000
0001
0000
0000
0000
0100
0000
0010
0000
0100
0000
0000
0010
,
1000
0000
0001
0000
1000
0000
0000
0000
0010
0000
0000
0100
0010
0000
1000
0000
,
0002
2003
3020
0032
,
0023
2030
3002
1003
,
1000
0000
0010
0000
1000
0000
0000
0000
0100
0000
0010
0000
0100
0000
0000
0010
,
0001
0000
1000
0000
0010
0000
0000
0000
0100
0000
0000
0001
1000
0000
0001
0000
,
0200
0320
2030
3200
,
0302
0000
0000
0000
0203
0000
0000
0000
1300
0000
0001
1000
0001
0000
1000
0000
,
0001
0010
0001
0100
0001
1000
0100
0010
,
0001
0000
0010
0000
1000
0000
0010
0000
0001
0000
0000
0100
0010
0000
1000
0000
,
0001
1000
0001
0010
0001
0100
0001
1000
,
0010
0000
0001
0000
0010
0000
1000
0000
0100
0000
0000
0010
0100
0000
1000
0000
,
0001
0100
1000
0100
0001
0010
0100
1000
,
0010
0000
0001
0000
0010
0000
1000
0000
0100
0000
0010
0001
1000
0000
0001
0000
,
1002
0013
2001
3010
,
0010
0100
0001
1000
0001
0010
0100
1000
,
2002
0000
0000
0000
0000
0000
0000
0000
3003
0000
0000
1000
0001
0000
1000
0000
,
0001
0010
0100
0010
0001
0100
0010
0100
,
0101
0000
0000
0001
0010
0000
0000
0010
0100
0000
0000
0100
1000
0000
0001
0000
,
1000
0100
0010
0100
1000
0010
0100
0010
,
1010
0000
0000
1000
0010
0000
0000
0010
0100
0000
0000
0100
0001
0000
1000
0000
,
0001
0100
0010
1000
0100
0001
0100
1000
,
1010
0000
0000
1000
0001
0000
0000
0001
0010
0000
0000
0010
0100
0000
0000
0100
,
1000
0100
1000
0100
0010
0001
0010
0001
,
0100
0000
0010
0000
0100
0000
0010
0000
1000
0001
1000
0000
0001
1000
0001
0000
;

//--------------- dance-single - OrangeRight ----------------
#NOTES:
     dance-single:
     OrangeRight:
     Challenge:
     15:
     0,0,0,0,0:
0000
0000
0000
0000
,
0000
0000
0000
0000
,
0000
0000
0000
0000
,
0000
0000
0000
0000
,
0000
0000
0000
0000
,
1000
0000
0010
0000
1000
0000
0100
0000
1000
0000
0010
0000
0100
0000
0001
1000
,
0001
0000
0100
0000
0010
0000
0100
0000
0001
0000
0010
0100
1000
0000
0001
0000
,
1000
0010
1000
0000
0010
0000
0100
0000
0001
0010
0001
0000
0100
0000
0010
0000
,
1000
0001
1000
0000
0001
0000
0100
0000
0010
0100
0010
0100
0001
1000
0001
0000
,
1000
0000
0100
0000
0010
0000
0100
0000
1000
0000
0010
0000
0100
0000
0001
1000
,
0001
0000
0010
0000
0100
0000
0010
0000
0001
0000
0100
0010
1000
0000
0001
0000
,
1000
0010
1000
0000
0010
0000
0100
0000
0001
0010
0001
0000
0100
0000
0010
0000
,
2000
0000
0000
0000
3001
0000
0000
0000
1000
0001
1000
0001
0100
0010
0100
0010
,
1000
0000
0000
1000
0100
0000
0000
0100
0001
0000
0000
0001
0100
0000
0000
0100
,
1000
0000
0000
1000
0001
0000
0000
0001
1000
0000
0001
0100
0010
0000
1000
0000
,
0001
0000
0000
0001
0100
0000
0000
0100
1000
0000
0000
1000
0100
0000
0000
0100
,
0010
0000
0000
0010
1000
0000
0000
1000
0001
0000
1000
0100
0010
0000
0001
0000
,
1000
0000
0000
1000
0010
0000
0000
0100
0001
0000
0000
0001
0010
0000
0000
0100
,
1000
0000
0000
1000
0001
0000
0000
0001
0100
0000
0010
1000
0001
0000
1000
0000
,
1001
0100
0010
0100
1001
0010
0100
0010
,
1001
0000
0100
0000
1001
0000
0010
0000
1000
0010
1000
0000
0001
0100
0001
0000
,
2002
0000
0000
0000
0000
0000
0000
0000
3003
0000
0000
0001
1000
0000
0001
0000
,
1000
0100
1000
0000
0010
0100
0001
0000
0010
0001
0010
0000
0001
0100
0010
0000
,
1000
0000
0100
0000
0010
0000
0001
0000
0100
0000
0001
1000
0001
0000
1000
0000
,
0001
0100
0001
0000
0100
0010
1000
0000
0100
1000
0100
0000
1000
0100
0010
0000
,
0001
0000
0010
0000
0001
0000
0100
0000
0010
0000
1000
0100
0010
0000
0001
0000
,
1000
0010
1000
0000
0010
0100
0001
0000
0010
0001
0010
0000
0100
1000
0010
0000
,
0100
0000
0001
0000
0100
0000
1000
0000
0100
0000
0001
0010
0100
0000
1000
0000
,
0001
1000
0001
1000
0001
0000
1000
0000
0010
0100
0010
0100
0010
0000
1000
0000
,
0001
0100
0010
0000
1000
0100
0010
0000
0001
0010
0100
0000
1000
0001
1000
0000
,
0002
0000
0000
0000
0000
0000
0000
0000
0103
0010
1000
0100
0010
0100
1000
0000
,
0010
0000
0000
0010
1000
0000
0000
1000
0100
0000
0000
0100
0010
0000
0001
0000
,
1000
0000
0010
0000
0100
0000
0001
0000
0010
0100
0000
1000
0100
0000
1000
0000
,
0001
0000
0000
0001
0100
0000
0000
0100
0010
0000
0000
0010
1000
0000
0001
0000
,
1001
0000
0110
0000
1001
0000
0000
0000
1000
0010
0000
0100
0001
0000
1000
0000
,
0001
0000
0000
0100
0010
0000
0000
1000
0001
0000
0000
0010
0100
0000
1000
0000
,
0001
0000
0100
0000
0010
0000
0000
0000
0010
1000
0000
0001
0100
0000
0010
0000
,
1000
0001
1000
0000
0001
1000
0001
0000
1000
0010
0100
0001
1000
0100
0010
0000
,
0001
0000
0100
0000
0001
0000
0010
0000
0001
0000
0100
0000
0010
0000
1000
0001
,
1000
0000
0010
0000
0100
0000
0010
0000
1000
0000
0100
0010
0001
0000
1000
0000
,
0001
0100
0001
0000
0100
0000
0010
0000
1000
0100
1000
0000
0010
0000
0100
0000
,
0001
1000
0001
0000
1000
0000
0010
0000
0100
0010
1000
0100
0010
0001
1000
0000
,
0001
0000
0010
0000
0100
0000
0010
0000
0001
0000
0100
0000
0010
0000
1000
0001
,
1000
0000
0100
0000
0010
0000
0100
0000
1000
0000
0010
0100
0001
0000
1000
0000
,
0001
0100
0001
0000
0100
0000
0010
0000
1000
0100
1000
0000
0010
0000
0100
0000
,
0001
1000
0001
0000
1000
0001
1000
0000
0010
0100
0001
1000
0100
0010
0001
1000
,
0001
0000
0000
0001
0010
0000
0000
0010
1000
0000
0000
1000
0010
0000
0000
0010
,
0100
0000
0000
0100
1000
0000
0000
1000
0001
0000
1000
0010
0100
0000
0001
0000
,
1000
0000
0000
1000
0010
0000
0000
0010
0001
0000
0000
0001
0010
0000
0000
0010
,
1000
0000
0000
1000
0100
0000
0000
0100
0010
0000
0001
0010
0100
0000
1000
0000
,
0001
0000
0000
0100
0010
0000
0000
1000
0001
0000
0000
0010
0100
0000
0000
1000
,
0001
0000
0000
0001
0100
0000
0000
0100
1000
0000
0100
0001
0010
0000
0100
0000
,
1100
0100
0010
0001
0101
0100
0010
1000
,
1010
0000
0100
0000
0011
0000
0100
0000
1000
0100
0001
0100
1000
0001
0100
0010
,
2000
0000
0000
0000
0000
0000
0000
0000
3000
0000
0000
1000
0100
0000
0010
0000
,
0001
0100
0010
0000
1000
0010
1000
0000
1000
0100
0010
0000
0001
0010
0001
0000
,
1000
0001
1000
0000
0100
0000
0010
0000
0001
0000
0100
0010
1000
0000
0001
0000
,
1000
0100
0010
0000
0001
0010
0001
0000
0001
0100
0010
0000
1000
0010
1000
0000
,
0010
0100
0010
0000
1000
0000
0100
0000
0010
0000
0001
0100
0010
0000
1000
0000
,
0100
1000
0010
0000
0100
0001
0100
0000
0010
1000
0100
0000
0010
0001
0010
0000
,
0100
1000
0001
0000
0100
0000
0001
0000
1000
0000
0001
1000
0001
0000
1000
0000
,
0001
0100
0001
0100
0010
0000
1000
0000
0100
0010
0100
0010
0001
0000
1000
0000
,
0010
0100
0001
0000
1000
0100
0010
0000
0001
0010
0100
0000
1000
0100
0001
0000
;

//--------------- dance-double - OrangeRight ----------------
#NOTES:
     dance-double:
     OrangeRight:
     Easy:
     4:
     0,0,0,0,0:
00000000
00000000
00000000
00000000
,
00000000
00000000
00000000
00000000
,
00000000
00000000
00000000
00000000
,
00000000
00000000
00000000
00000000
,
00000000
00000000
00000000
00000000
,
10000000
00000000
00010000
00000000
,
10000000
00000000
01000000
00100000
,
00010000
00000000
01000000
00000000
,
00001000
00000000
00010000
00000100
,
00001000
00000000
00000001
00000000
,
00001000
00000000
00000100
00000010
,
00000001
00000000
00000100
00000000
,
00000010
00000000
00001000
00000001
,
00001000
00000100
00001000
00000100
,
00010000
00000000
00001000
00000000
,
01000000
00010000
01000000
00010000
,
00100000
00000000
00001000
00000000
,
00010000
00001000
00010000
00001000
,
00010000
00000000
00000100
00000000
,
00002000
00003000
00000002
00000003
,
00001000
00000001
00001000
00000001
,
00002002
00000000
00000000
00003003
,
00000001
00000001
00000100
00000100
,
00000010
00001000
00000010
00000000
,
00001000
00001000
00000100
00000100
,
00000010
00000001
00000010
00000000
,
00000001
00000001
00001000
00001000
,
00000010
00010000
00001000
00000000
,
00020000
00030000
00002000
00003000
,
02000000
03000000
00020000
00030000
,
20020000
00000000
00000000
30030000
,
10000000
00010000
10000000
00010000
,
00100000
00000000
00001000
00000000
,
00010000
00001000
00010000
00001000
,
00010000
00000000
00000100
00000000
,
00001000
00000010
00001000
00000010
,
00000100
00000000
00000001
00000000
,
00001000
00000001
00001000
00000001
,
00001000
00000000
00000010
00000000
,
00001000
00000000
00000100
00010000
,
00001000
00000000
00100000
00000000
,
00010000
00000000
01000000
00100000
,
10000000
00000000
00100000
00000000
,
10000000
00000000
01000000
00100000
,
00010000
00000000
01000000
00000000
,
00001000
00010000
00001000
00000000
,
00010000
00001000
00010000
00001000
,
00010000
00000000
00000100
00000000
,
00001000
00000001
00001000
00000001
,
00001000
00000000
00000010
00000000
,
00001000
00000100
00001000
00000100
,
00010000
00000000
00001000
00000000
,
02000000
03000000
00200000
00300000
,
10000000
00010000
10000000
00010000
,
20020000
00000000
00000000
30030000
,
10000000
10000000
01000000
01000000
,
00100000
00010000
01000000
00000000
,
00001000
00001000
00010000
00010000
,
00000100
00001000
00000010
00000000
,
00001000
00001000
00000001
00000001
,
00000010
00000100
00001000
00000100
,
00020000
00030000
00002000
00003000
,
00200000
00300000
02000000
03000000
;

//--------------- dance-double - OrangeRight ----------------
#NOTES:
     dance-double:
     OrangeRight:
     Medium:
     9:
     0,0,0,0,0:
00000000
00000000
00000000
00000000
,
00000000
00000000
00000000
00000000
,
00000000
00000000
00000000
00000000
,
00000000
00000000
00000000
00000000
,
00000000
00000000
00000000
00000000
,
10000000
00100000
10000000
00000000
00100000
00000000
01000000
00000000
,
00010000
00100000
00010000
00000000
00100000
00000000
00001000
00000000
,
00010000
00000100
00001000
00000100
,
00000010
00000001
00001000
00001001
,
00000001
00000100
00000001
00000000
00000100
00000000
00000010
00000000
,
00001000
00000100
00001000
00000000
00000100
00000000
00010000
00000000
,
00001000
00010000
00001000
00100000
,
00020000
10000000
10030000
00010000
,
10000000
01000000
10000000
00000000
00010000
01000000
00010000
00000000
,
01000000
00001000
00010000
00000100
,
00001000
00000100
00001000
00000000
00000001
00000100
00000001
00000000
,
00000100
00000010
00010000
00001000
,
00010000
00001000
01000000
00000000
00001000
00010000
00000100
00000000
,
00010000
00001000
00100000
01000000
,
20000000
31000000
00020000
01030000
,
10000000
00010000
10000000
00000000
00010000
10000000
00010000
00000000
,
20020000
00000000
00000000
30030000
,
10000000
00010000
10000000
00000000
00010000
10000000
00010000
00000000
,
00100000
00001000
00010000
00001000
00010000
00000000
00000100
00000000
,
00001000
00000001
00001000
00000000
00000001
00001000
00000001
00000000
,
00000100
00000010
00001000
00000100
00001000
00000000
00000001
00000000
,
00001000
00000100
00010000
00000000
00001000
01000000
00010000
00000000
,
00100000
01000000
10000000
00010000
10000000
00000000
00010000
00000000
,
10010000
01000000
10010000
00100000
,
10000000
00100000
10000000
00100000
01000000
00010000
01000000
00010000
,
20000000
00010000
00010000
30010000
,
20000000
30020000
02030000
03002000
,
00013000
00001000
00010000
00000000
00000100
00001000
00000100
00000000
,
00002000
00003200
00000320
00000032
,
00001003
00000001
00001000
00000000
00000001
00000100
00000010
00000000
,
00002000
00003200
00020300
00032000
,
00103000
00010000
00100000
00000000
01000000
10000000
01000000
00000000
,
10000000
00010000
10000000
00010000
10000000
00010000
10000000
00000000
,
00010000
01000000
00010000
00000000
01000000
00000000
00100000
00000000
,
10000000
01000000
10000000
00000000
01000000
00000000
00100000
00000000
,
00010000
00100000
00001000
00000000
00010000
00000100
00001000
00000000
,
00000010
00000100
00000001
00001000
00000001
00000000
00001001
00000000
,
00001000
00000010
00001000
00000000
00000010
00000000
00000100
00000000
,
00000001
00000010
00000001
00000000
00000010
00000000
00000100
00000000
,
00001000
00000100
00010000
00000000
00001000
00100000
00010000
00000000
,
00020000
10000000
10030000
00010000
,
10000000
00100000
10000000
00000000
00010000
00100000
00010000
00000000
,
00100000
00001000
00010000
00000010
00001000
00000000
00000001
00000000
,
00001000
00000010
00001000
00000000
00000001
00000010
00000001
00000000
,
00000010
00000100
00001000
00000010
00010000
00000000
00001000
00000000
,
00010000
00001000
00100000
00000000
00001000
00010000
00000010
00000000
,
00001000
00000100
00000010
00000001
00001000
00000000
00000001
00000000
,
00002000
00003100
00000002
00000103
,
00001000
00000001
00001000
00000000
00000001
00001000
00000001
00000000
,
00002002
00000000
00000000
00003003
,
00000001
00001000
00000100
00000000
00001000
00000100
00010000
00000000
,
00000100
00010000
00001000
00100000
00010000
00000000
10000000
00000000
,
00010000
10000000
00100000
00000000
10000000
00010000
00100000
00000000
,
01000000
10000000
00010000
01000000
00100000
10000000
00010000
00000000
,
10000000
00010000
00100000
00000000
00010000
00100000
00001000
00000000
,
00010000
00000100
00001000
00000010
00000100
00000001
00001000
00000000
,
00001001
00000010
00001001
00000100
,
00000001
00001000
00000001
00001000
00000010
00000100
00000010
00000100
;

//--------------- dance-double - OrangeRight ----------------
#NOTES:
     dance-double:
     OrangeRight:
     Hard:
     12:
     0,0,0,0,0:
00000000
00000000
00000000
00000000
,
00000000
00000000
00000000
00000000
,
00000000
00000000
00000000
00000000
,
00000000
00000000
00000000
00000000
,
00000000
00000000
00000000
00000000
,
10000000
00000000
00100000
00000000
10000000
00000000
00000000
00000000
00010000
00000000
01000000
00000000
00010000
00000000
00000000
00100000
,
00001000
00010000
00001000
00000000
00010000
00000100
00001000
00000000
,
00000020
00000230
00000320
00002030
,
00003200
00000000
00000000
00000000
00000320
00000000
00000000
00000000
00000031
00000000
00000000
00001000
00000001
00000000
00001000
00000000
,
00000001
00000000
00000010
00000000
00000001
00000000
00000000
00000000
00001000
00000000
00000100
00000000
00001000
00000000
00000000
00000100
,
00010000
00001000
00010000
00000000
00001000
01000000
00010000
00000000
,
00200000
02300000
03200000
00320000
,
02030000
00000000
03002000
00000000
00023000
00000000
00030100
00010000
,
00000100
00001000
00000010
00001000
00000001
00001000
00000100
00000010
,
00000001
00000000
00000100
00000000
00001000
00000000
00000100
00000000
00000001
00000000
00000000
00001000
00000001
00000000
00001000
00000000
,
00000001
00000010
00000001
00000100
00000001
00001000
00000001
00000010
,
00001000
00000000
00000010
00000000
00000001
00000000
00000100
00000000
00000010
00000000
00000000
00001000
00000100
00000000
00010000
00000000
,
00001000
00100000
00001000
00010000
00000100
00010000
00001000
01000000
,
00010000
00100000
10000000
00100000
00010000
01000000
00100000
10000000
,
10020000
01030000
20010000
31000000
,
10000000
00010000
10000000
00010000
01000000
00100000
01000000
00100000
,
02200000
00000000
00000000
00000000
00000000
00000000
00000000
00000000
03300000
00000000
00000000
01000000
00100000
00000000
01000000
00000000
,
00010000
00100000
01000000
10000000
00100000
01000000
00010000
10000000
,
00010000
00000000
00000000
00010000
00100000
00000000
00000000
00100000
00001000
00000000
00000000
00001000
00010000
00000000
00001000
00000000
,
00010000
00000100
00001000
00000010
00000100
00000001
00001000
00000001
,
00000010
00000000
00000000
00000010
00000001
00000000
00000000
00000001
00000100
00000000
00000000
00000100
00000010
00000000
00001000
00000000
,
00000001
00000100
00000010
00000100
00000001
00000010
00000100
00001000
,
00000010
00000000
00000000
00000010
00001000
00000000
00000000
00001000
00000100
00000000
00000000
00000100
00010000
00000000
00001000
00000000
,
00012000
01003000
00021000
00030100
,
00010000
00000000
00001000
00000000
00100000
00000000
00010000
00000000
01000000
00000000
00000000
00010000
10000000
00000000
00010000
00000000
,
20000000
00000000
00000000
00000000
30010000
01000000
00100000
10000000
,
00010000
00000000
00000000
00010000
01000000
00000000
00000000
01000000
00001000
00000000
00000000
00001000
00010000
00000000
00000000
00010000
,
00000100
00001000
00000100
00000000
00000010
00000001
00000100
00000001
,
00001000
00000000
00000000
00001000
00000010
00000000
00000000
00000010
00000100
00000000
00000000
00000100
00000001
00000000
00000000
00000001
,
00001000
00001000
00001000
00000000
00000001
00000100
00000010
00001000
,
00000100
00000000
00000000
00000100
00010000
00000000
00000000
00010000
00001000
00000000
00000000
00001000
01000000
00000000
00010000
00000000
,
00100000
01000000
10000000
00000000
00100000
01000000
00010000
10000000
,
00010000
00000000
00000000
00010000
00100000
00000000
00000000
00100000
00001000
00000000
00000000
00001000
00010000
00000000
00000100
00000000
,
00001000
00000000
00000010
00000000
00001000
00000000
00000000
00000000
00000001
00000000
00000100
00000000
00000001
00000000
00000000
00001000
,
00000001
00000000
00000010
00000000
00000100
00000000
00000000
00000000
00001000
00000000
00000000
00000100
00010000
00000000
00001000
00000000
,
00200000
00320000
02030000
23000000
,
32000000
00000000
00000000
00000000
03020000
00000000
00000000
00000000
00130000
00000000
00000000
00100000
01000000
00000000
10000000
00000000
,
00010000
00000000
01000000
00000000
00010000
00000000
00000000
00000000
10000000
00000000
00100000
00000000
10000000
00000000
00000000
00010000
,
10000000
00000000
00100000
00000000
01000000
00000000
00000000
00000000
00010000
00000000
00000000
01000000
00001000
00000000
00010000
00000000
,
00000020
00002030
00003200
00000302
,
00000203
00000000
00000000
00000000
00002300
00000000
00000000
00000000
00003001
00000000
00001000
00000001
00001000
00000000
00000001
00000000
,
00001000
00000000
00000000
00001000
00000001
00000000
00000000
00000001
00000100
00000000
00000000
00000100
00000010
00000000
00000000
00000010
,
00001000
00000000
00000000
00001000
00000100
00000000
00000000
00000100
00001000
00000000
00000000
00000000
00000100
00000000
00010000
00000000
,
00001000
00000000
00000000
00001000
00010000
00000000
00000000
00010000
00000010
00000000
00000000
00000010
00010000
00000000
00000000
00010000
,
00001000
00000000
00000000
00001000
01000000
00000000
00000000
01000000
00010000
00000000
00000000
00000000
00100000
00000000
00010000
00000000
,
10000000
00000000
00000000
10000000
00100000
00000000
00000000
00100000
01000000
00000000
00000000
01000000
00010000
00000000
00000000
00010000
,
00100000
00000000
00000000
00100000
00001000
00000000
00000000
00001000
00010000
00000000
00000000
00010000
00000100
00000000
00001000
00000000
,
00001002
00000103
00002001
00003100
,
00001000
00000001
00001000
00000001
00000100
00000010
00001000
00000001
,
00002002
00000000
00000000
00000000
00000000
00000000
00000000
00000000
00003003
00000000
00000000
00001000
00000001
00000000
00001000
00000000
,
00000001
00000100
00001000
00000100
00000001
00000010
00000100
00001000
,
00000100
00000000
00000000
00000100
00010000
00000000
00000000
00010000
00001000
00000000
00000000
00001000
01000000
00000000
00000000
01000000
,
00010000
00100000
10000000
00100000
00010000
01000000
00100000
10000000
,
01000000
00000000
00000000
01000000
00100000
00000000
00000000
00100000
00010000
00000000
00000000
00010000
01000000
00000000
00000000
01000000
,
00001000
00010000
00000010
00010000
00001000
01000000
00001000
00010000
,
00000100
00000000
00000000
00000100
00001000
00000000
00000000
00001000
00000010
00000000
00000000
00000010
00000100
00000000
00000000
00000100
,
00000001
00001000
00000001
00001000
00000010
00000100
00000010
00000100
,
00000001
00000000
00000010
00000000
00000100
00000000
00001000
00000000
00000010
00000100
00000010
00000000
00001000
00000001
00001000
00000000
;

//--------------- dance-double - OrangeRight ----------------
#NOTES:
     dance-double:
     OrangeRight:
     Challenge:
     14:
     0,0,0,0,0:
00000000
00000000
00000000
00000000
,
00000000
00000000
00000000
00000000
,
00000000
00000000
00000000
00000000
,
00000000
00000000
00000000
00000000
,
00000000
00000000
00000000
00000000
,
10000000
00100000
10000000
01000000
00100000
00010000
01000000
00001000
,
00010000
00000000
00000100
00000000
00001000
00000000
00000010
00000000
00000100
00000000
00000001
00000000
00001000
00000000
00000000
00001000
,
00000001
00000000
00000000
00000001
00000100
00000000
00000000
00000100
00000010
00000000
00000000
00000010
00001000
00000000
00000000
00001000
,
00000100
00000000
00000000
00000100
00001000
00000000
00000000
00001000
00000010
00000000
00000000
00000100
00000010
00000000
00000100
00000000
,
00000001
00000010
00000001
00000100
00000010
00001000
00000100
00010000
,
00001000
00000000
01000000
00000000
00010000
00000000
00100000
00000000
01000000
00000000
10000000
00000000
00010000
00000000
00000000
00010000
,
10000000
00000000
00000000
10000000
01000000
00000000
00000000
01000000
00100000
00000000
00000000
00100000
00010000
00000000
00000000
00010000
,
02000000
03002000
00023000
00030200
,
00001300
00000000
00000000
00001000
00000100
00000000
00000000
00000100
00010000
00000000
00000000
00010000
00001000
00000000
00000000
00001000
,
01000000
00000000
00000000
01000000
00100000
00000000
00000000
00100000
10000000
00000000
00000000
00010000
10000000
00000000
00010000
00000000
,
00100000
00000000
00000000
00100000
00001000
00000000
00000000
00001000
00010000
00000000
00000000
00010000
00000010
00000000
00000000
00000010
,
00001000
00000000
00000000
00001000
00000001
00000000
00000000
00000001
00001000
00000000
00000000
00000100
00000010
00000000
00000001
00000000
,
00000100
00000000
00000000
00000100
00000010
00000000
00000000
00000010
00010000
00000000
00000000
00010000
00001000
00000000
00000000
00001000
,
00100000
00000000
00000000
00100000
00010000
00000000
00000000
00010000
01000000
00000000
00000000
01000000
00100000
00000000
10000000
00000000
,
20010000
31000000
10020000
01030000
,
01000000
00100000
10000000
01000000
00100000
00010000
10000000
00010000
,
20020000
00000000
00000000
00000000
00000000
00000000
00000000
00000000
30030000
00000000
00000000
10000000
00010000
00000000
10000000
00000000
,
00010000
01000000
00010000
00000000
01000000
00000000
00010000
00000000
00100000
00010000
00100000
00000000
00010000
00000000
00100000
00000000
,
00001000
00000000
00000000
00001000
00010000
00000000
00000000
00010000
00000100
00000000
00000000
00000100
00001000
00000000
00000100
00000000
,
00001000
00000100
00001000
00000000
00000100
00000000
00001000
00000000
00000010
00001000
00000010
00000000
00001000
00000000
00000010
00000000
,
00001000
00000000
00000000
00001000
00000100
00000000
00000000
00000100
00010000
00000000
00000000
00010000
00001000
00000000
00010000
00000000
,
00001000
00010000
00001000
00000000
00010000
00000000
00001000
00000000
00100000
00010000
00100000
00000000
00010000
00000000
01000000
00000000
,
00100000
00000000
00000000
00100000
10000000
00000000
00000000
10000000
00010000
00000000
00000000
00010000
01000000
00000000
00100000
00000000
,
10000000
00010000
10000000
00010000
10000000
00000000
00010000
00000000
01000000
00100000
01000000
00100000
01000000
00000000
00100000
00000000
,
10000000
00010000
10000000
00000000
00010000
10000000
00010000
00000000
01000000
00100000
01000000
00000000
00100000
01000000
00100000
00000000
,
20000000
00000000
00000000
00000000
30010000
01000000
00100000
10000000
,
00010000
00000000
00000000
00010000
01000000
00000000
00000000
01000000
00100000
00000000
00000000
00100000
10000000
00000000
00010000
00000000
,
10000000
01000000
10000000
00000000
00100000
01000000
00010000
00100000
,
00001000
00000000
00000000
00001000
00010000
00000000
00000000
00010000
00000100
00000000
00000000
00000100
00000010
00000000
00000001
00000000
,
00001000
00000000
00000001
00000000
00001001
00000000
00000000
00000000
00000001
00001000
00000000
00000100
00010000
00000000
00001000
00000000
,
00100000
00000000
00000000
00100000
00010000
00000000
00000000
00010000
01000000
00000000
00000000
00100000
10000000
00000000
00010000
00000000
,
10000000
00000000
00010000
00000000
10010000
00000000
00000000
00000000
10000000
01000000
00000000
00100000
00010000
00000000
01000000
00000000
,
00001000
00010000
00001000
00000000
00010000
00000000
00000100
00000000
00001000
00000100
00001000
00000000
00000100
00000000
00000010
00000000
,
00000001
00000000
00000010
00000000
00000001
00000000
00000100
00000000
00000010
00000000
00001000
00000000
00000100
00000000
00010000
00001000
,
01000000
00000000
00100000
00000000
10000000
00000000
01000000
00000000
00100000
00000000
00010000
10000000
00010000
00000000
10000000
00000000
,
00010000
01000000
00010000
00000000
00100000
00000000
00001000
00000000
00010000
00000100
00010000
00000000
00001000
00000000
00100000
00000000
,
00010000
00000000
01000000
00000000
10000000
00000000
01000000
00000000
00010000
00000000
00100000
00010000
10000000
00000000
00010000
00000000
,
10000000
00000000
00100000
00000000
10000000
00000000
01000000
00000000
00100000
00000000
00010000
00000000
01000000
00000000
00001000
00010000
,
00000100
00000000
00001000
00000000
00000010
00000000
00000100
00000000
00000001
00000000
00001000
00000001
00001000
00000000
00000001
00000000
,
00001000
00000100
00001000
00000000
00000100
00000000
00000010
00000000
00000001
00000100
00000001
00000000
00000100
00000000
00000010
00000000
,
00020000
00032000
02003000
03020000
,
10030000
00000000
00000000
10000000
01000000
00000000
00000000
01000000
00100000
00000000
00000000
00100000
00010000
00000000
00000000
00010000
,
01000000
00000000
00000000
01000000
00001000
00000000
00000000
00001000
00010000
00000000
00000000
00010000
00000100
00000000
00001000
00000000
,
00000010
00000000
00000000
00000010
00000100
00000000
00000000
00000100
00000001
00000000
00000000
00000001
00001000
00000000
00000000
00001000
,
00000100
00000000
00000000
00000100
00010000
00000000
00000000
00010000
00001000
00000000
00000000
00001000
01000000
00000000
00100000
00000000
,
10000000
00000000
00000000
10000000
00010000
00000000
00000000
00010000
01000000
00000000
00000000
01000000
00001000
00000000
00000000
00001000
,
00010000
00000000
00000000
00010000
00000100
00000000
00000000
00000100
00000010
00000000
00000000
00000001
00001000
00000000
00000001
00000000
,
00001002
00000103
00002001
00003100
,
00000100
00000000
00000010
00000000
00000001
00000000
00000100
00000000
00000010
00001000
00000010
00000000
00000100
00000001
00000100
00000000
,
00002002
00000000
00000000
00000000
00000000
00000000
00000000
00000000
00003003
00000000
00000000
00000001
00001000
00000000
00000001
00000000
,
00001000
00000100
00001000
00000000
00000100
00001000
00000100
00000000
00001000
00000010
00001000
00000000
00000010
00001000
00000010
00000000
,
00001000
00000000
00000100
00000000
00010000
00000000
00001000
00000000
01000000
00000000
00000000
00010000
10000000
00000000
00010000
00000000
,
01000000
00010000
01000000
00000000
00010000
01000000
00010000
00000000
00100000
00010000
00100000
00000000
00010000
00100000
00010000
00000000
,
00100000
00000000
00001000
00000000
00010000
00000000
00000100
00000000
00001000
00000000
00000000
00000001
00001000
00000000
00000001
00000000
,
00001000
00000010
00001000
00000000
00000010
00001000
00000010
00000000
00001000
00000100
00001000
00000000
00000100
00001000
00000100
00000000
,
00000010
00000001
00000100
00000000
00000010
00000000
00001000
00000000
00000100
00001000
00000010
00000000
00000100
00000000
00000001
00000000
,
00001000
00000001
00001000
00000001
00001000
00000000
00000001
00000000
00000100
00000010
00000100
00000010
00000100
00000000
00000010
00000000
,
00001000
00000100
00000010
00000000
00000001
00000100
00000010
00000000
00001000
00000010
00000100
00000000
00000001
00001000
00000001
00000000
;
