#TITLE:Sunset Beachwalk;
#SUBTITLE:;
#ARTIST:oo39.com;
#TITLETRANSLIT:;
#SUBTITLETRANSLIT:;
#ARTISTTRANSLIT:;
#GENRE:;
#CREDIT:;
#MUSIC:22. Sunset Beachwalk.mp3;
#BANNER:;
#BACKGROUND:;
#CDTITLE:;
#SAMPLESTART:0.000;
#SAMPLELENGTH:0.000;
#SELECTABLE:YES;
#OFFSET:1.831;
#BPMS:0.000=126.000;
#STOPS:;
#BGCHANGES:;
#FGCHANGES:;

//--------------- dance-single - UNI4 Step Team ----------------
#NOTES:
     dance-single:
     UNI4 Step Team:
     Beginner:
     1:
     0,0,0,0,0:
0000
0000
0000
0000
,
0000
0000
0000
0000
,
0000
0000
0000
0000
,
0000
0000
0000
0000
,
0000
0000
0000
0000
,
1000
0000
0000
0000
,
0001
0000
0000
0000
,
1000
0000
0000
0000
,
0001
0000
0000
0000
,
1000
0000
1000
0000
,
1000
0000
0000
0000
,
0001
0000
0000
0000
,
1000
0000
0000
0000
,
0001
0000
0000
0000
,
0001
0000
0000
0000
,
1000
0000
0000
0000
,
0001
0000
0000
0000
,
1000
0000
0000
0000
,
0001
0000
0001
0000
,
0001
0000
0000
0000
,
1000
0000
1000
0000
,
1000
0000
0000
0000
,
0001
0000
0001
0000
,
0001
0000
0000
0000
,
1001
0000
1001
0000
,
1001
0000
0000
0000
,
1000
0000
0000
0000
,
1000
0000
0000
0000
,
0001
0000
0000
0000
,
0001
0000
0000
0000
,
1000
0000
0001
0000
,
1000
0000
0000
0000
,
0001
0000
1000
0000
,
0001
0000
0000
0000
,
1000
0000
1000
0000
,
1000
0000
0000
0000
,
0001
0000
0001
0000
,
0001
0000
0000
0000
,
1000
0000
1000
0000
,
1000
0000
0000
0000
,
0001
0000
0001
0000
,
0001
0000
0000
0000
,
1000
0000
0000
0000
,
1000
0000
0000
0000
,
0001
0000
0000
0000
,
0001
0000
0000
0000
,
1001
0000
0000
0000
,
1001
0000
0000
0000
,
1000
0000
1000
0000
,
1000
0000
1000
0000
,
0001
0000
0000
0000
,
0001
0000
0000
0000
,
1000
0000
0000
0000
,
0000
0000
0000
0000
,
1000
0000
0000
0000
,
1000
0000
0000
0000
,
0001
0000
0000
0000
,
0000
0000
0000
0000
,
1000
0000
1000
0000
,
0001
0000
0001
0000
,
1000
0000
0001
0000
,
1000
0000
0000
0000
,
0001
0000
0001
0000
,
1000
0000
1000
0000
,
0001
0000
1000
0000
,
0001
0000
0000
0000
,
1001
0000
0000
0000
;

//--------------- dance-single - WIO Step Team ----------------
#NOTES:
     dance-single:
     WIO Step Team:
     Easy:
     1:
     0,0,0,0,0:
0000
0000
0000
0000
,
0000
0000
0000
0000
,
0000
0000
0000
0000
,
0000
0000
0000
0000
,
0000
0000
0000
0000
,
1000
0001
1000
0001
,
1000
0001
1000
0001
,
1000
0001
1000
0001
,
1000
0001
1000
0000
,
0001
1000
0001
1000
,
0001
1000
0001
1000
,
0001
1000
0001
1000
,
0001
1000
0001
1000
,
0001
1000
0001
0000
,
1000
0001
1000
0001
,
1000
0001
1000
0001
,
1000
0001
1000
0001
,
1000
0001
1000
0000
,
0001
1000
0001
1000
,
0001
1000
0001
1000
,
0001
1000
0001
1000
,
0001
1000
0001
0000
,
1000
0001
1000
0001
,
1000
0001
1000
0001
,
0100
0010
0100
0010
,
0100
0010
0100
0000
,
0001
1000
0001
1000
,
0001
1000
0001
1000
,
0001
1000
0001
1000
,
0001
1000
0001
0000
,
1000
0001
1000
0001
,
1000
0001
1000
0001
,
1000
0001
1000
0001
,
1000
0001
1000
0000
,
0001
1000
0001
1000
,
0001
1000
0001
0000
,
1000
0001
1000
0001
,
1000
0001
1000
0000
,
0001
1000
0001
1000
,
0001
1000
0001
0000
,
1000
0001
1000
0001
,
1000
0001
1000
0000
,
0001
1000
0001
0000
,
1000
0001
1000
0000
,
0001
1000
0001
0000
,
1000
0001
1000
0000
,
0001
1000
0001
0000
,
1000
0001
1000
0000
,
0010
0100
0010
0100
,
0010
0100
0010
0000
,
1000
0001
1000
0001
,
1000
0001
1000
0001
,
1000
0001
1000
0001
,
1000
0001
1000
0000
,
0001
1000
0001
1000
,
0001
1000
0001
1000
,
0001
1000
0001
1000
,
0001
1000
0001
0000
,
1000
0001
1000
0001
,
1000
0001
1000
0001
,
1000
0001
1000
0001
,
1000
0001
1000
0000
,
0001
1000
0001
1000
,
0001
1000
0001
1000
,
0001
1000
0001
1000
,
0001
1000
0001
0000
,
1001
0000
0000
0000
;

//--------------- dance-single - ??? Step Team ----------------
#NOTES:
     dance-single:
     ??? Step Team:
     Medium:
     9:
     0,0,0,0,0:
0000
0000
0000
0000
,
0000
0000
0000
0000
,
0000
0000
0000
0000
,
0000
0000
0000
0000
,
0000
0000
0000
0000
,
1000
0001
0010
0100
,
0010
0000
0001
0000
1000
0001
1000
0000
,
0001
1000
0010
0100
,
0010
0000
1000
0000
0001
1000
0001
0000
,
1000
0100
0001
0100
,
1000
0000
1000
0000
0010
1000
0010
0000
,
0100
0000
0100
0000
0001
0100
0001
0000
,
0010
0001
0100
1000
,
0100
0000
0001
0000
1000
0001
1000
0000
,
0001
0000
0001
0000
0010
0001
0010
0000
,
0100
0000
0100
0000
0100
1000
0100
0000
,
0010
0001
1000
0010
,
0100
0000
0001
0000
1000
0001
1000
0000
,
0001
1000
0010
0000
0101
0000
0101
0000
,
1000
0001
0010
0000
1100
0000
1100
0000
,
1000
0100
0010
0000
0011
0000
0011
0000
,
0001
0100
0010
0000
1010
0000
1010
0000
,
0001
1000
0001
0000
0011
0000
1100
0000
,
1000
0001
1000
0000
1010
0000
0101
0000
,
0100
0010
0100
0010
0100
0010
0100
0010
,
0100
0010
0100
0010
1000
0000
0001
0000
,
1000
0000
0001
0010
0100
0000
0110
0000
,
0001
0000
1000
0010
0100
0000
0110
0000
,
0001
0100
1000
0100
,
0001
0000
1000
0000
0001
1000
0001
0000
,
1000
0000
0100
0001
0100
0000
0110
0000
,
0001
0000
0100
1000
0100
0000
0110
0000
,
1000
0001
0010
0100
,
1000
0000
0010
0000
0100
0010
0100
0000
,
0001
0001
1000
1000
,
0010
0000
0010
0000
0100
1000
0100
0000
,
0001
0001
1000
1000
,
0100
0000
0100
0000
0010
1000
0010
0000
,
0100
1000
0010
0100
,
0001
0000
0010
0000
0100
0010
0001
0000
,
1000
0010
0100
0001
,
0010
0000
0100
0000
1000
0001
0100
0000
,
0220
0000
0000
0330
1000
0000
0001
0000
,
2002
0000
0000
3003
0100
0000
0010
0000
,
0220
0000
0000
0330
1000
0000
0001
0000
,
2002
0000
0000
3003
0220
0000
0330
0000
,
1000
0100
1000
0000
1000
0100
1000
0000
,
0001
0100
0001
0000
0001
0100
0001
0000
,
1000
0001
1000
0001
1000
0001
1000
0001
,
1000
0001
1000
0001
0010
0000
0110
0000
,
1000
0100
0000
0010
0000
0010
0001
0000
,
0001
0100
0000
0010
0000
0010
1000
0000
,
0001
0000
0010
1000
0010
0000
0001
0000
,
1000
0000
0010
0000
0100
0100
0100
0000
,
0001
0000
1000
0100
1000
0000
1001
0000
,
1000
0000
0001
0100
0001
0000
1001
0000
,
0001
0000
0100
1000
0100
0000
0001
0000
,
1000
0000
0100
0010
0100
0010
0010
0000
,
0001
0100
0001
0100
0010
0000
1000
0000
,
0001
0010
0001
0010
0100
0000
1000
0000
,
0001
0000
1000
0000
0010
0100
0010
0000
,
1000
0100
0011
1100
,
1000
0100
1000
0100
0010
0000
0001
0000
,
1000
0010
1000
0010
0100
0000
0001
0000
,
1000
0001
0010
0100
,
0010
0001
1000
0000
0010
1000
0001
0000
,
1001
0000
0000
0000
;

//--------------- dance-single - about-blank ----------------
#NOTES:
     dance-single:
     about-blank:
     Hard:
     11:
     0,0,0,0,0:
0000
0000
0000
0000
,
0000
0000
0000
0000
,
0000
0000
0000
0000
,
0000
0000
0000
0000
,
0000
0000
0000
0000
,
0000
1000
0100
0010
0000
0010
0100
2000
,
0000
0000
0010
0000
0000
0001
3001
0000
,
0000
0001
0100
0010
0000
0010
0100
0002
,
0000
0000
1003
0000
0000
0110
1001
0000
,
1000
0010
1000
0000
0100
0010
0100
0000
,
0010
0001
0010
0002
0000
0100
0103
0000
,
0010
1000
0010
2000
0000
0100
3100
0010
,
0001
0000
1000
0010
0100
0010
1000
0001
,
0200
0010
0310
0000
0000
0110
1001
0000
,
1000
0100
0010
0100
2000
0000
3001
0000
,
0001
0100
0010
0100
0002
0000
1003
0010
,
0100
0000
1000
0100
0010
1000
0100
0020
,
1000
0000
0031
0000
0000
0101
1100
0000
,
0001
1000
0100
0000
0100
1000
0010
0000
,
0010
0100
0001
0000
0001
0100
0010
0000
,
1000
0010
0100
0000
0001
0010
0100
0000
,
1000
0100
0001
0100
1000
0100
0010
0000
,
0001
0001
0100
0000
1000
0100
0010
0000
,
1000
1000
0100
0000
0001
0100
0010
0000
,
0001
1000
0010
0100
0001
1000
0010
0100
,
0001
1000
0001
1000
0100
0000
0110
0000
,
0001
0010
1000
0010
0002
0000
0103
0000
,
1000
0010
0001
0010
2000
0000
3100
0010
,
0011
0000
0001
1000
0001
0100
0010
1000
,
0200
0000
1000
0000
0010
0010
0310
0000
,
0010
1000
0010
0001
0200
0000
0310
0000
,
0010
0001
0010
1000
0200
0000
0301
0100
,
1000
0000
0001
0100
0010
1000
0100
0010
,
0002
0000
1003
0000
0000
0110
1001
0000
,
0000
0001
1000
0010
0000
0001
0010
2000
,
0000
0000
0100
0100
0000
0001
3001
0000
,
0000
1000
0001
0010
0000
1000
0010
0002
,
0000
0100
0100
0000
0000
1000
1003
0000
,
0000
0001
0010
0100
0000
0001
0100
2000
,
0000
0000
0010
0010
0000
0001
3001
0000
,
0000
1000
0010
0100
0000
1000
0100
0002
,
0000
0000
1000
1000
0000
0010
0013
0000
,
0001
1000
0001
0000
0000
0000
0000
0000
0100
0000
0000
0000
0010
0000
0000
0000
,
2000
0100
0000
0010
0000
0100
0000
0000
,
3002
0000
0100
0100
,
1003
0000
0001
0000
0000
0000
1010
0000
0000
0000
0100
0000
0001
0000
0010
0100
,
0010
0100
0000
1100
0000
1100
0000
0010
,
0010
0100
0000
0101
0000
0101
0000
0001
,
1000
0001
0010
0100
1000
0001
0010
0100
,
1000
0001
1000
0001
0010
0000
0110
0000
,
1000
0100
0001
0100
2000
0010
3010
0000
,
0001
0010
1000
0010
0002
0100
0103
0010
,
1010
0000
0011
0010
0100
1000
0010
0100
,
0002
0000
1000
0000
0203
0010
0010
0010
,
1300
0100
0010
0100
0002
0000
1003
0100
,
0001
0100
0010
0100
2000
0000
3001
0100
,
0110
0000
0101
0100
0010
1000
0100
0010
,
0002
0000
1000
0000
0023
0100
0100
0130
,
1000
0100
1000
0100
0010
0000
0011
0000
,
0001
0100
0001
0100
0010
0000
1010
1000
,
0001
0000
1100
0100
0010
0001
0100
0010
,
2000
3100
0001
0100
1000
0100
0010
0000
,
0011
0010
0001
0100
0010
0000
1001
0000
,
1010
0010
1000
0100
0010
0000
0011
0010
,
0100
0000
0101
0100
1000
0010
0100
0001
,
1000
0100
0010
0001
0100
0110
0110
1000
,
2000
0002
0000
0000
0000
0000
0000
0000
0000
0000
0000
0000
0000
0000
0000
0000
,
3003
0000
0000
0000
;
