#TITLE:Summer Hymn;
#SUBTITLE:;
#ARTIST:oo39.com;
#TITLETRANSLIT:;
#SUBTITLETRANSLIT:;
#ARTISTTRANSLIT:;
#GENRE:;
#CREDIT:;
#MUSIC:Summer Hymn.mp3;
#BANNER:;
#BACKGROUND:;
#CDTITLE:;
#SAMPLESTART:0.000;
#SAMPLELENGTH:0.000;
#SELECTABLE:YES;
#OFFSET:-0.076;
#BPMS:0.000=120.000;
#STOPS:;
#BGCHANGES:;
#FGCHANGES:;

//--------------- dance-single - ----------------
#NOTES:
     dance-single:
     :
     Beginner:
     3:
     0,0,0,0,0:
0000
0000
0000
0000
,
0000
0000
0000
0000
,
0000
0000
0000
0000
,
0000
0000
0000
0000
,
1000
0000
0000
0000
,
0010
0000
0000
0100
,
0001
0000
0000
0000
,
0010
0000
0100
0100
,
1000
0000
0000
0000
,
0010
0000
0000
0100
,
0001
0001
0001
0000
,
1001
0000
0000
0000
,
0010
0000
1000
0000
,
0100
0100
0000
0000
,
0010
0010
0000
0000
,
0001
0001
0000
1000
,
0001
0001
0010
0010
,
0100
0100
0000
1000
,
0010
0010
0000
1000
,
0001
0001
0000
0010
,
0100
0100
1000
1000
,
0010
0010
0001
0000
,
0100
0100
0001
0001
,
0010
0010
1000
0000
,
1000
1000
0100
0100
,
0010
0010
0001
0000
,
0001
0001
0010
0010
,
0100
0000
1001
0000
,
1000
1000
1000
0000
,
0010
0000
0000
0000
,
0100
0000
0000
0000
,
0001
0000
0000
0000
,
0010
0010
0010
0000
,
0001
0000
0000
0000
,
1000
0000
0000
0000
,
0100
0000
0000
0000
,
1000
0000
1000
0000
,
0001
0000
0000
0000
,
0001
0000
0001
0000
,
1000
0000
0110
0000
,
0010
0000
0010
0000
,
0100
0000
0000
0000
,
0100
0000
0100
0000
,
0010
0000
1001
0000
,
0001
0001
0010
0000
,
1000
1000
0010
0000
,
0001
0001
0100
0000
,
1000
1000
0100
0000
,
0001
0001
0010
0000
,
1000
1000
0010
0000
,
0001
0001
0100
0000
,
1000
1000
0100
0000
,
0010
0010
1000
0000
,
0100
0100
0001
0000
,
0010
0010
0001
0000
,
0100
0100
1000
0000
,
0010
0010
1000
0000
,
0100
0100
0001
0000
,
0010
0010
0001
0000
,
0100
0100
1000
0000
,
1001
0000
0000
0000
;

//--------------- dance-single - ----------------
#NOTES:
     dance-single:
     :
     Easy:
     8:
     0,0,0,0,0:
0000
0000
0000
0000
,
0000
0000
0000
0000
,
0000
0000
0000
0000
,
0000
0000
0000
0000
,
0020
0000
0030
0000
,
0200
0000
0300
0000
,
0002
0000
0000
0003
,
2000
0000
3000
0110
,
0001
0000
1000
0000
0010
1000
0010
0000
,
0100
0000
0001
0000
0010
0001
0010
0000
,
0100
0000
0000
0100
0000
0000
1000
0000
0000
1000
0000
0000
0001
0000
0000
0000
,
0010
0001
0100
1000
,
0100
0000
0000
0100
0000
0000
0100
0000
0000
0000
0001
0000
1000
0000
0000
0000
,
0010
0000
0000
0010
0000
0000
0010
0000
0000
0000
1000
0000
0100
0000
0000
0000
,
0001
0000
0000
0001
0000
0000
0001
0000
0000
0000
0100
0000
0010
0000
0000
0000
,
0001
0000
0000
0001
0000
0000
0001
0000
0000
0000
1000
0000
0010
0000
0000
0000
,
0100
0100
0001
0001
,
0010
0000
0000
0010
0000
0000
0010
0000
0000
0000
0001
0000
1000
0000
0000
0000
,
0100
0000
0000
0100
0000
0000
0100
0000
0000
0000
1000
0000
0010
0000
0000
0000
,
0100
0000
0000
0100
0000
0000
0100
0000
0000
0000
0001
0000
0010
0000
0000
0000
,
0100
0000
0100
0000
1000
0010
1000
0000
,
0001
0000
0001
0000
0010
0001
0010
0000
,
0100
0000
0100
0000
1000
0001
1000
0000
,
0100
0000
0011
0000
0001
1000
0001
0000
,
0100
0000
0100
0000
0001
0010
0100
0000
,
1000
0000
1000
0000
0010
1000
0100
0000
,
0010
0000
0010
0000
0001
1000
0001
0000
,
0010
0000
0000
0010
0001
0000
0000
0000
1000
0000
0000
1000
0100
0000
0000
0000
,
0110
0001
1000
0001
,
0100
0000
0000
0001
0000
0000
1000
0000
0000
0000
0000
0000
0010
0000
0000
0000
,
1000
0000
0000
0010
0000
0000
0100
0000
0000
0000
0000
0000
0001
0000
0000
0000
,
0010
0000
0000
0100
0000
0000
1000
0000
0000
0000
0001
0000
1000
0000
0000
0000
,
0010
0100
0001
1000
,
0100
0000
0000
1000
0000
0000
0010
0000
0000
0000
0000
0000
0100
0000
0000
0000
,
0001
0000
0000
0010
0000
0000
0100
0000
0000
0000
0000
0000
1000
0000
0000
0000
,
0001
0000
0000
1000
0000
0000
0100
0000
0000
0000
0010
0000
0001
0000
0000
0000
,
0100
0000
0100
0000
0001
1000
0001
0000
,
0010
0000
0010
0000
0001
1000
0001
0000
,
0001
0000
0001
0000
0100
0010
0100
0000
,
1000
0000
1000
0000
0100
0010
0100
0000
,
0001
0000
0010
0000
0100
1000
0001
0000
,
1000
0000
0010
0000
0100
0001
1000
0000
,
0011
0000
1000
0000
0100
1000
0100
0000
,
0110
1001
0110
1001
,
0001
0000
0001
0000
0010
0001
0010
0001
,
1000
0000
1000
0000
0010
1000
0010
1000
,
0100
0000
0100
0000
1000
0100
1000
0100
,
1000
0000
1000
0000
0001
0100
0001
0100
,
0001
0000
0010
0000
0100
1000
0100
1000
,
0010
0000
0100
0000
0001
1000
0001
1000
,
0001
0000
0100
0000
0010
1000
0010
1000
,
0010
0100
1001
0110
,
0001
0000
0010
0100
0010
0001
0010
0000
,
0100
0000
1000
0100
0010
0100
1000
0000
,
1000
0000
0010
0100
0010
1000
0010
0000
,
0100
0000
0001
0100
0010
0100
0001
0000
,
1000
0000
0001
0100
0001
1000
0001
0000
,
1000
0000
0001
1000
0100
1000
0001
0000
,
0110
0000
1000
0100
1000
0010
1000
0000
,
0001
0100
0001
0010
0001
0000
1001
0000
,
0110
0000
0000
0000
;

//--------------- dance-single - ----------------
#NOTES:
     dance-single:
     :
     Medium:
     10:
     0,0,0,0,0:
0000
0000
0000
0000
,
0000
0000
0000
0000
,
0000
0000
0000
0000
,
0000
0000
0000
0000
,
1000
0000
0000
1000
0000
0000
1000
0000
0000
0000
0100
0000
0010
0000
0000
0000
,
0001
0000
0000
0001
0000
0000
0001
0000
0000
0000
1000
0000
0001
0000
0100
0000
,
0010
0000
0000
0010
0000
0000
0010
0000
0000
0000
1000
0000
0000
0000
0001
0000
,
1000
0000
0000
1000
0000
0000
1000
0000
0010
0000
1000
0000
0001
0000
0000
0000
,
0100
0000
0000
0100
0010
0000
0000
0000
1000
0000
0010
0000
1000
0000
0000
0000
,
0001
0000
0000
0001
0010
0000
0000
0000
0100
0000
1000
0000
0100
0000
0010
0000
,
0001
1000
0000
0001
1000
0000
0001
1000
0000
0001
1000
0000
0010
0000
0000
0000
,
1100
0110
0011
1001
,
0001
0100
1000
0100
0001
0010
0100
1000
,
0010
0000
0000
0100
0000
0000
0001
0000
0000
0000
0000
0000
1000
0000
0000
0000
,
0100
0000
0000
0010
0000
0000
0001
0000
0000
0000
0000
0000
1000
0000
0000
0000
,
0001
0000
0000
0100
0000
0000
0010
0000
0000
0000
0000
0000
1000
0000
1000
0000
,
0010
0100
0010
1000
0001
0010
0100
1000
,
0001
0000
0000
1000
0000
0000
0100
0000
0000
0000
0000
0000
0010
0000
0100
0000
,
1000
0000
0000
0010
0000
0000
1000
0000
0000
0000
0000
0000
0001
0000
0100
0000
,
0010
0000
0000
0001
0000
0000
0010
0000
1000
0000
0001
1000
0001
0000
0000
0000
,
0010
0000
0000
0010
0100
0000
0000
0100
1000
0000
0000
1000
0001
0000
0000
0000
,
0100
0000
0000
0100
0010
0000
0000
0010
1000
0000
0000
1000
0010
0000
0000
0000
,
0100
0000
0000
0100
0001
0000
0000
0001
1000
0000
0000
1000
0001
0000
0000
0000
,
0010
0000
0000
0010
0100
0000
0000
0100
1000
0000
0000
1000
0001
0000
0000
0000
,
1000
0000
0000
1000
0100
0000
0000
0100
0010
0000
0000
0010
0001
0000
0000
0000
,
0001
0000
0000
0001
1000
0000
0000
1000
0010
0000
0000
0010
0100
0000
0000
0000
,
0001
0000
0000
0001
0010
0000
0000
0010
0100
0000
0000
0100
1000
0000
0000
0000
,
0011
0000
0000
0100
0010
0000
0000
0000
1010
0000
0000
0100
0010
0000
0000
0000
,
0001
0010
0100
1000
0010
1000
0001
0100
,
0010
0000
0000
1000
0000
0000
0010
0000
0000
0000
0000
0000
0000
0000
0000
0000
,
1000
0000
0000
0100
0000
0000
1000
0000
0000
0000
0100
0000
0000
0000
0010
0000
,
0001
0000
0000
0010
0000
0000
0001
0000
0000
0000
0100
0000
0010
0000
0000
0000
,
1000
0010
0100
0001
0010
0100
1000
0001
,
1000
0000
0000
0100
0000
0000
1000
0000
0000
0000
0001
0000
0000
0000
1000
0000
,
0001
0000
0000
0010
0000
0000
0001
0000
0000
0000
0000
0000
0100
0000
0010
0000
,
1000
0000
0000
0001
0000
0000
1000
0000
0000
0000
0100
0000
0010
0000
0001
0000
,
1000
0000
0000
1000
0100
0000
0000
0000
0001
0000
0000
0001
0010
0000
0000
0000
,
1000
0000
0000
1000
0100
0000
0000
0000
0001
0000
0000
0001
0010
0000
0000
0000
,
1000
0000
0000
1000
0010
0000
0000
0000
0001
0000
0000
0001
0100
0000
0000
0000
,
1000
0000
0000
1000
0010
0000
0000
0000
0001
0000
0000
0001
0100
0000
0000
0000
,
1000
0000
0000
1000
0100
0000
0000
0000
0010
0000
0000
0010
0001
0000
0000
0000
,
0001
0000
0000
0001
0100
0000
0000
0000
0010
0000
0000
0010
1000
0000
0000
0000
,
0001
0000
0000
0001
1000
0000
0000
0000
0100
0000
0000
0100
0010
0000
0000
0000
,
0101
0000
1000
0010
0000
0000
0000
0000
1100
0000
0000
0001
0010
0000
0000
0000
,
0001
1000
0010
0100
0001
1000
0100
0000
,
0010
0100
1000
0010
0100
1000
0100
0000
,
0001
0010
0100
1000
0001
0010
0100
0000
,
0010
0001
1000
0010
0100
0001
0100
0000
,
0001
1000
0100
0010
0100
1000
0010
0000
,
0100
0001
0100
1000
0100
0001
0010
0000
,
0010
0100
1000
0100
0010
0001
1000
0000
,
1000
0000
0001
0000
0100
0000
0001
1000
0001
0000
0000
0000
1001
0000
0000
0000
,
0001
0100
1000
0100
0001
0100
0010
0010
,
1000
0100
0001
0100
1000
0100
0010
0010
,
0001
1000
0010
0100
0001
1000
0100
0100
,
0010
0001
1000
0010
0100
0001
1000
0000
,
0001
0010
0100
0010
1000
0010
0100
0010
,
0001
1000
0100
0010
0100
0001
0100
0010
,
0001
1000
0010
0100
0001
1000
0100
0000
,
0010
0000
0001
0000
1000
0000
0010
0100
0010
0000
0000
0000
0110
0000
0000
0000
,
1001
0000
0000
0000
;

//--------------- dance-single - ----------------
#NOTES:
     dance-single:
     :
     Hard:
     11:
     0,0,0,0,0:
0000
0000
0000
0000
,
0000
0000
0000
0000
,
0000
0000
0000
0000
,
0000
0000
0000
0000
,
2000
0000
3000
0000
0010
0100
0001
0000
,
0002
0000
0000
0000
1003
0000
0001
0010
,
0200
0000
0001
0000
1300
1000
0010
0000
,
2000
3100
0011
1010
,
0001
1000
0001
0100
0010
1000
0100
0000
,
1000
0001
1000
0010
0100
0001
0010
0001
,
0100
0100
0001
0000
0010
0010
1000
0000
,
0110
1001
1010
0101
,
0001
0010
0001
0010
0100
1000
0100
1000
,
0010
0000
0000
0100
0000
0000
0001
0000
0000
0000
0000
0000
1000
0000
0001
0000
,
0010
0000
0000
0100
0000
0000
1000
0000
0000
0000
0000
0000
1000
0000
0010
0000
,
1000
0000
0000
0001
0000
0000
0100
0000
0000
0000
0010
0000
0100
0000
0000
0000
,
0001
0010
0001
0010
0100
1000
0100
1000
,
0010
0000
0000
1000
0000
0000
0100
0000
0000
0000
0000
0000
1000
0000
0100
0000
,
0010
0000
0000
0001
0000
0000
0010
0000
0000
0000
0000
0000
0001
0000
1000
0000
,
0010
0000
0000
0100
0000
0000
0001
0000
0000
0000
0000
0000
0001
0000
0010
0000
,
0001
0100
0001
0100
0010
0100
0001
0000
,
1000
0100
1000
0100
0010
0100
1000
0000
,
1000
0010
0100
0010
0100
0010
1000
0000
,
0001
0010
0100
0010
0100
0010
0001
0000
,
1001
0100
0011
1000
0001
0100
0010
0000
,
1001
0010
1100
0001
0010
0100
1000
0000
,
1010
0001
1100
0001
1000
0100
0010
0000
,
0011
1000
0110
0000
1010
0001
0110
0000
,
0001
1000
0001
1000
0010
0100
0010
0100
,
0001
0000
0000
1000
0000
0000
0100
0000
0000
0000
0000
0000
0010
0000
0100
0000
,
1000
0000
0000
0010
0000
0000
1000
0000
0000
0000
0000
0000
0010
0000
0100
0000
,
0001
0000
0000
0010
0000
0000
0001
0000
0000
0000
0001
0000
0010
0000
0100
0000
,
1000
0010
1000
0010
0100
0001
0100
0001
,
0010
0000
0000
0001
0000
0000
1000
0000
0000
0000
0000
0000
1000
0000
0010
0000
,
0100
0000
0000
1000
0000
0000
0100
0000
0000
0000
0000
0000
0001
0000
0010
0000
,
0100
0000
0000
0001
0000
0000
0100
0000
0000
0000
0010
0000
0001
0000
0000
0000
,
1002
0000
0103
0000
0100
0100
0010
0010
,
2001
0000
0000
0000
3100
0000
0000
0000
0100
0010
0000
0000
0001
0000
1000
0000
,
0201
0000
0310
0000
1000
0010
1000
0010
,
0200
0000
0000
0000
1300
0000
0000
0000
1000
0100
0000
0000
0011
0000
0000
0000
,
0002
0000
0103
0000
0001
0010
0100
0010
,
0002
0000
0000
0000
1003
0000
0000
0000
0001
0010
0000
0000
0100
0000
1000
0000
,
0020
0000
0130
0000
0001
1000
0001
0100
,
0021
0000
0000
0130
1000
0000
0000
0000
1020
0000
0000
0130
0001
0000
0000
0000
,
1000
0001
1000
0001
0010
0100
0010
0100
,
1000
0010
1000
0010
0100
0001
0100
0001
,
0010
0001
0100
0010
1000
0100
0010
0001
,
1000
0000
0010
0000
0100
0000
0001
0000
0010
0000
0001
0010
0001
0000
0000
0000
,
0001
0010
0100
1000
0001
0100
0010
0100
,
0001
0010
0100
1000
0100
0010
0100
1000
,
0010
0100
0001
1000
0001
0100
0010
1000
,
0001
0000
0010
0000
0100
0000
1000
0000
0010
0000
0100
0010
0100
0000
0000
0000
,
0001
0100
1000
0100
0001
0100
1000
0000
,
1000
0100
0001
0100
1000
0100
0001
0001
,
1000
0100
0001
0100
1000
0100
0001
0000
,
0001
0100
1000
0100
0001
0100
1000
1000
,
0010
0001
0010
1000
0010
0001
0010
0000
,
0010
1000
0100
1000
0010
1000
0100
0010
,
0001
0100
0010
0100
0001
0100
0010
0000
,
1000
0000
0100
0000
0010
0000
0001
1000
0001
0000
0000
0000
0110
0000
0000
0000
,
1001
0000
0000
0000
;
